osu file format v5

[General]
AudioFilename: Thyme - Forever We Can Make It.MP3
AudioLeadIn: 0
PreviewTime: 47796
Countdown: 1
SampleSet: Normal
StackLeniency: 0.7
Mode: 0
LetterboxInBreaks: 1
EditorBookmarks: 47803,52992

[Metadata]
Title:Forever We Can Make It! (TV Size)
Artist:Thyme
Creator:osuplayer111
Version:Rito-Normal
Source:To Love-Ru
Tags:Anime

[Difficulty]
HPDrainRate:6
CircleSize:5
OverallDifficulty:6
SliderMultiplier:1.8
SliderTickRate:2

[Events]
//Background and Video events
0,0,"toloveru_1_1440.jpg"
1,0,"To-Love-Ru Opening Video.avi"
//Break Periods
//Storyboard Layer 0 (Background)
//Storyboard Layer 1 (Failing)
//Storyboard Layer 2 (Passing)
//Storyboard Layer 3 (Foreground)
//Storyboard Sound Samples
//Background Colour Transformations
3,100,163,162,255

[TimingPoints]
445,648.648648648649,4,1,0,80,1,0
10506,-100,4,1,0,65,0,0
11479,-100,4,1,0,81,0,0
15533,-100,4,1,0,51,0,0
16668,-100,4,1,0,79,0,0
22181,-100,4,1,0,52,0,0
23154,-100,4,1,0,49,0,0
23479,-100,4,1,0,70,0,0
23803,-100,4,1,0,81,0,0
26073,-100,4,1,0,31,0,0
26235,-100,4,1,0,51,0,0
26398,-100,4,1,0,65,0,0
26560,-100,4,1,0,81,0,0
37100,-100,4,1,0,51,0,0
38235,-100,4,1,0,79,0,0
38884,-100,4,1,0,41,0,0
39533,-100,4,1,0,51,0,0
39857,-100,4,1,0,81,0,0
42614,-100,4,1,0,31,0,0
42938,-100,4,1,0,56,0,0
43262,-100,4,1,0,71,0,0
43587,-100,4,1,0,81,0,0
44398,-100,4,1,0,39,0,0
44560,-100,4,1,0,56,0,0
44722,-100,4,1,0,72,0,0
44884,-100,4,1,0,81,0,0
46830,-100,4,1,0,5,0,0
46992,-100,4,1,0,21,0,0
47154,-100,4,1,0,50,0,0
47479,-100,4,1,0,69,0,0
47803,-100,4,1,0,79,0,1
49100,-100,4,1,0,41,0,1
49749,-100,4,1,0,66,0,1
50722,-100,4,1,0,81,0,1
51695,-100,4,1,0,0,0,1
52668,-100,4,1,0,0,0,0
52992,-100,4,1,0,49,0,1
53317,-100,4,1,0,69,0,1
53641,-100,4,1,0,81,0,1
56235,-100,4,1,0,39,0,1
56398,-100,4,1,0,56,0,1
56560,-100,4,1,0,79,0,1
56884,-100,4,1,0,0,0,1
57850,-100,4,1,0,0,0,0
58181,-100,4,1,0,49,0,1
59154,-100,4,1,0,68,0,1
61100,-100,4,1,0,81,0,1
61742,-100,4,1,0,81,0,1
62066,-100,4,1,0,81,0,0
63371,-100,4,1,0,80,0,0
66290,-100,4,1,0,41,0,0
66938,-100,4,1,0,30,0,0
67100,-100,4,1,0,52,0,0
67587,-100,4,1,0,80,0,0
67911,-100,4,1,0,40,0,0
68560,-100,4,1,0,81,0,1
72452,-100,4,1,0,0,0,1
73417,-100,4,1,0,0,0,0
73749,-100,4,1,0,80,0,1
77641,-100,4,1,0,0,0,1
78607,-100,4,1,0,0,0,0
78938,-100,4,1,0,81,0,1
82823,-100,4,1,0,40,0,0
83479,-100,4,1,0,40,0,0
83641,-100,4,1,0,57,0,0
83803,-100,4,1,0,70,0,0
86073,-100,4,1,0,84,0,0
87371,-100,4,1,0,0,0,0
88668,-100,4,1,0,0,0,0
88830,-100,4,1,0,100,0,0

[Colours]
Combo1 : 128,64,0
Combo2 : 40,205,31
Combo3 : 45,88,228
Combo4 : 255,128,255

[HitObjects]
272,64,6282,5,8
272,152,6607,1,0
272,152,6769,2,0,B|344:160|336:224|400:208,1,135
392,296,7580,1,0
304,296,7904,1,0
216,296,8228,1,8
128,296,8553,5,0
80,296,8715,1,0
32,296,8877,1,8
80,240,9201,2,0,B|136:232|128:312,1,90
240,304,9850,1,0
280,304,10012,1,8
280,216,10336,5,0
248,184,10499,1,0
280,152,10661,1,8
144,120,11147,2,0,B|104:152|104:208,1,90
104,288,11796,5,0
136,320,11958,1,8
224,320,12282,1,0
256,288,12444,1,0
256,200,12769,2,0,B|320:200|368:288,1,135,0|8
416,344,13580,1,0
456,344,13742,1,0
448,256,14066,1,0
448,168,14390,2,0,B|448:104|480:56,1,90
464,80,15039,5,0
416,80,15201,1,0
328,80,15526,2,0,B|328:136,1,45
240,120,16012,1,8
152,120,16336,2,0,B|152:168|112:208,1,90
112,336,17147,6,0,B|160:320|216:320,1,90
288,320,17796,1,0
328,320,17958,1,8
416,320,18282,1,0
456,320,18444,1,8
368,216,18931,2,0,B|312:208|312:152,1,90
304,64,19580,1,0
216,64,19904,1,0
176,88,20066,1,0
136,112,20228,1,8
24,192,20715,5,0
64,192,20877,1,0
152,192,21201,2,0,B|224:192|312:240,1,135
416,232,22174,2,8,B|416:288|384:320,1,90
416,232,22823,2,8,B|424:288|472:312,1,90
464,304,23472,1,0
416,232,23796,1,0
368,232,23958,1,0
256,152,24445,6,8,B|256:208|216:232,1,90
224,232,24931,1,0
224,232,25093,1,0
136,232,25417,1,0
136,144,25742,5,0
136,144,26066,2,0,B|144:200|216:184,1,90
280,224,26715,5,8
368,208,27039,2,0,B|304:184|312:136,1,90
256,72,27688,1,0
208,72,27850,1,8
160,72,28012,1,0
128,152,28336,1,0
208,192,28661,2,8,B|224:80|328:216,1,180
328,304,29634,5,0
240,304,29958,1,0
152,304,30282,1,0
88,232,30607,1,8
88,144,30931,1,0
120,112,31093,1,0
160,128,31255,1,0
248,128,31580,2,8,B|288:224|352:200|408:192,1,180
392,104,32553,1,0
224,40,33201,5,0
136,40,33526,1,0
32,192,34174,1,0
120,192,34499,1,0
32,192,34823,1,0
72,112,35147,1,8
160,112,35472,2,0,B|248:120|256:152,1,90
336,136,36120,1,0
368,168,36282,1,0
336,200,36445,1,8
248,200,36769,5,0
248,288,37093,1,8
248,288,37417,2,0,B|264:232|304:328,1,90,0|8
256,144,38390,5,8
256,144,38715,2,0,B|264:72|200:128,1,90,0|8
40,192,39688,1,0
216,192,40336,5,0
208,104,40661,1,0
288,72,40985,2,8,B|336:80|344:136,1,90
344,312,41958,1,0
256,312,42282,1,0
168,312,42607,1,8
80,312,42931,1,0
120,232,43255,1,8
240,96,43904,5,8
320,64,44228,1,0
320,152,44553,1,0
296,192,44715,1,0
336,192,44877,1,0
424,192,45201,2,8,B|520:192|416:288|336:240,1,180
256,88,46499,1,0
168,120,46823,1,0
152,160,46985,1,0
144,200,47147,1,0
320,232,47796,5,0
320,232,48120,2,0,B|320:280|320:336,1,90,0|0
136,320,49093,1,0
136,136,49742,1,0
216,104,50066,1,0
256,120,50228,1,0
256,168,50390,1,8
256,256,50715,1,0
256,256,51039,2,0,B|192:248|192:192,1,90,0|8
256,192,51688,12,0,52661
208,304,52985,5,0
64,192,53634,1,0
208,88,54282,1,0
352,192,54931,1,0
464,272,55417,1,0
424,288,55580,1,8
336,288,55904,1,0
256,240,56228,1,8
176,280,56553,1,4
256,192,56877,12,0,57850
144,192,58174,5,0
256,48,58823,1,0
360,192,59472,1,0
256,336,60120,1,0
144,256,60607,1,0
112,224,60769,1,8
176,288,61093,1,0
264,288,61417,1,8
176,288,61742,1,0
256,32,62715,5,0
72,32,63363,1,0
72,208,64012,1,0
248,208,64661,1,0
120,80,65309,1,0
256,80,65796,1,0
392,80,66282,2,8,B|448:80|456:240,1,180
456,232,67255,5,0
456,232,67417,1,0
344,160,67904,1,0
160,160,68553,6,8,B|112:128|120:48|168:48|216:56,1,180
320,200,69850,1,0
256,368,70499,1,0
256,232,70985,1,0
208,232,71147,1,8
120,232,71472,1,0
96,144,71796,1,8
120,232,72120,1,4
256,192,72444,12,0,73417
112,96,73742,5,0
112,272,74390,1,0
288,272,75039,1,0
448,192,75688,1,0
312,192,76174,1,0
264,192,76336,1,8
176,192,76661,1,0
264,192,76985,1,8
352,192,77309,1,4
256,192,77634,12,0,78607
256,192,78931,6,8,B|256:136|200:128|184:216|168:264,1,180
104,96,80228,1,0
272,24,80877,1,0
400,48,81363,1,0
400,88,81526,1,8
400,176,81850,1,0
312,176,82174,1,8
224,176,82499,1,8
72,144,83634,5,0
72,184,83796,1,0
72,224,83958,1,8
168,320,84769,2,0,B|440:344|496:344|472:256,1,360
360,192,86553,1,8
224,192,87039,1,4
256,192,87363,12,0,88823
240,192,88985,5,0
280,192,89147,1,4
