osu file format v5

[General]
AudioFilename: Thyme - Forever We Can Make It.MP3
AudioLeadIn: 3000
PreviewTime: 47796
Countdown: 1
SampleSet: Normal
StackLeniency: 0.7
Mode: 0
LetterboxInBreaks: 1
EditorBookmarks: 47803,52992

[Metadata]
Title:Forever We Can Make It! (TV Size)
Artist:Thyme
Creator:osuplayer111
Version:Lala-Hard
Source:To Love-Ru
Tags:Anime

[Difficulty]
HPDrainRate:8
CircleSize:5
OverallDifficulty:7
SliderMultiplier:1.8
SliderTickRate:2

[Events]
//Background and Video events
0,0,"toloveru_1_1440.jpg"
1,0,"To-Love-Ru Opening Video.avi"
//Break Periods
//Storyboard Layer 0 (Background)
//Storyboard Layer 1 (Failing)
//Storyboard Layer 2 (Passing)
//Storyboard Layer 3 (Foreground)
//Storyboard Sound Samples
//Background Colour Transformations
3,100,163,162,255

[TimingPoints]
445,648.648648648649,4,1,0,81,1,0
10506,-100,4,1,0,70,0,0
11479,-100,4,1,0,81,0,0
15533,-100,4,1,0,51,0,0
16668,-100,4,1,0,81,0,0
21857,-100,4,1,0,61,0,0
22181,-100,4,1,0,51,0,0
23154,-100,4,1,0,49,0,0
23479,-100,4,1,0,70,0,0
23803,-100,4,1,0,81,0,0
26073,-100,4,1,0,31,0,0
26235,-100,4,1,0,51,0,0
26398,-100,4,1,0,65,0,0
26560,-100,4,1,0,81,0,0
37100,-100,4,1,0,51,0,0
38235,-100,4,1,0,79,0,0
38884,-100,4,1,0,41,0,0
39533,-100,4,1,0,51,0,0
39857,-100,4,1,0,81,0,0
42614,-100,4,1,0,31,0,0
42938,-100,4,1,0,56,0,0
43262,-100,4,1,0,71,0,0
43587,-100,4,1,0,81,0,0
44398,-100,4,1,0,39,0,0
44560,-100,4,1,0,56,0,0
44722,-100,4,1,0,72,0,0
44884,-100,4,1,0,81,0,0
46830,-100,4,1,0,5,0,0
46992,-100,4,1,0,21,0,0
47154,-100,4,1,0,50,0,0
47479,-100,4,1,0,69,0,0
47803,-100,4,1,0,79,0,1
49100,-100,4,1,0,41,0,1
49749,-100,4,1,0,66,0,1
50722,-100,4,1,0,81,0,1
51695,-100,4,1,0,0,0,1
52668,-100,4,1,0,0,0,0
52992,-100,4,1,0,49,0,1
53317,-100,4,1,0,69,0,1
53641,-100,4,1,0,81,0,1
56235,-100,4,1,0,39,0,1
56398,-100,4,1,0,56,0,1
56560,-100,4,1,0,79,0,1
56884,-100,4,1,0,0,0,1
57857,-100,4,1,0,0,0,0
58181,-100,4,1,0,49,0,1
59154,-100,4,1,0,68,0,1
61100,-100,4,1,0,81,0,1
61742,-100,4,1,0,81,0,1
62066,-100,4,1,0,81,0,0
62722,-100,4,1,0,31,0,0
62884,-100,4,1,0,41,0,0
63046,-100,4,1,0,60,0,0
63208,-100,4,1,0,71,0,0
63371,-100,4,1,0,80,0,0
66290,-100,4,1,0,51,0,0
66938,-100,4,1,0,30,0,0
67100,-100,4,1,0,52,0,0
67587,-100,4,1,0,80,0,0
67911,-100,4,1,0,40,0,0
68073,-100,4,1,0,61,0,0
68235,-100,4,1,0,72,0,0
68560,-100,4,1,0,81,0,1
72120,-100,4,1,0,50,0,0
72452,-100,4,1,0,50,0,0
73749,-100,4,1,0,80,0,1
77309,-100,4,1,0,55,0,0
78931,-100,4,1,0,80,0,1
82499,-100,4,1,0,40,0,0
83479,-100,4,1,0,40,0,0
83641,-100,4,1,0,57,0,0
83803,-100,4,1,0,70,0,0
86073,-100,4,1,0,84,0,0
87371,-100,4,1,0,0,0,0
88668,-100,4,1,0,0,0,0
88830,-100,4,1,0,100,0,0

[Colours]
Combo1 : 128,64,0
Combo2 : 40,205,31
Combo3 : 45,88,228
Combo4 : 255,128,255

[HitObjects]
96,48,6282,5,8
152,48,6445,1,0
208,48,6607,1,0
208,48,6769,2,0,B|272:48|280:136,1,90
272,96,7255,5,8
272,152,7417,1,0
216,152,7580,1,0
216,208,7742,1,0
272,208,7904,2,0,B|272:320,1,90
272,296,8390,5,8
328,296,8553,1,0
376,264,8715,1,0
440,256,8877,2,0,B|504:248|480:328|424:336|376:264,1,180
376,264,9850,1,0
296,184,10174,1,0
184,184,10499,5,8
128,184,10661,1,0
72,184,10823,1,0
136,272,11147,2,0,L|192:272|192:320,1,90
192,360,11634,5,8
192,360,11796,1,0
256,272,12120,1,0
256,160,12444,1,0
200,160,12607,1,0
200,104,12769,1,8
88,104,13093,5,0
88,160,13255,1,0
160,240,13580,1,0
200,208,13742,1,0
240,248,13904,1,0
272,208,14066,1,8
376,208,14390,2,0,L|376:272|328:272,1,90
296,272,14877,1,0
240,272,15039,1,0
240,328,15201,1,8
128,328,15526,5,0
128,272,15688,1,0
128,328,15850,1,0
128,216,16174,1,0
72,216,16336,1,0
104,168,16499,1,0
104,168,16661,2,8,L|168:168|168:208,1,90
256,248,17309,5,0
256,136,17634,1,0
256,136,17796,1,0
360,136,18120,1,0
304,40,18444,1,0
184,48,18769,5,8
184,48,18931,1,0
184,48,19093,1,0
184,48,19255,2,0,L|184:96,1,45
184,144,19580,2,8,L|232:144,1,45
280,144,19904,1,0
280,144,20066,1,0
280,144,20228,1,0
384,144,20553,5,4
336,240,20877,1,0
440,240,21201,1,0
440,240,21363,1,0
64,240,21850,1,0
64,240,22174,2,0,L|72:296|96:352,1,90
152,48,23147,5,8
256,48,23472,1,8
360,48,23796,1,8
224,304,24445,1,0
280,304,24607,1,0
256,192,25093,1,0
48,32,25742,1,0
48,136,26066,1,0
80,176,26228,1,0
136,176,26390,1,0
136,232,26553,6,0,L|184:232,1,45
288,232,27039,1,0
176,232,27363,1,0
176,336,27688,1,0
280,336,28012,5,8
336,336,28174,2,0,L|384:336,1,45
384,336,28499,2,0,L|384:280,1,45,0|8
376,128,29147,5,0
328,152,29309,1,0
240,208,29634,2,0,L|240:256|288:224,1,90,0|8
376,192,30282,1,0
376,296,30607,1,0
264,296,30931,1,0
264,296,31093,1,0
264,296,31255,1,8
256,184,31580,2,0,L|256:136|208:136,1,90
104,136,32228,5,0
48,136,32390,1,0
80,88,32553,1,8
168,32,32877,1,0
256,88,33201,5,0
360,88,33526,1,0
392,128,33688,1,0
352,168,33850,1,8
352,272,34174,6,0,L|416:272|416:304,1,90
424,192,34823,1,0
312,192,35147,1,0
256,200,35309,1,0
200,184,35472,1,8
88,184,35796,1,0
88,288,36120,1,0
192,288,36445,1,0
192,232,36607,1,0
192,288,36769,1,8
296,264,37093,5,0
296,152,37417,1,0
296,40,37742,2,0,L|400:40,1,90
384,96,38228,5,0
416,136,38390,1,0
384,176,38553,1,8
424,216,38715,1,0
392,256,38877,1,0
352,216,39039,1,0
312,256,39201,1,0
352,216,39363,2,0,L|424:216|424:328,1,180,0|2
424,320,40336,5,0
312,320,40661,1,0
256,224,40985,1,0
144,224,41309,1,0
88,224,41472,1,0
120,264,41634,1,8
120,152,41958,1,0
160,48,42282,1,0
264,48,42607,5,8
264,152,42931,1,0
360,104,43255,1,8
464,104,43580,2,0,L|464:208,1,90
464,304,44228,1,0
416,280,44390,1,0
368,256,44553,1,0
320,224,44715,1,8
320,224,44877,6,0,L|376:232|408:248,1,90
288,48,45688,1,0
232,48,45850,1,8
96,136,46336,1,0
96,192,46499,1,8
160,272,46823,1,0
200,304,46985,1,0
256,304,47147,1,0
256,192,47472,1,0
256,80,47796,5,0
344,136,48120,1,0
384,168,48282,1,0
432,192,48444,1,8
400,296,48769,1,0
288,296,49093,1,0
96,192,49742,1,0
96,80,50066,1,0
184,144,50390,1,8
288,144,50715,1,0
376,80,51039,1,0
376,192,51363,1,8
256,192,51688,12,0,52661
256,192,52985,5,0
256,80,53309,1,0
168,136,53634,1,0
168,136,53958,2,0,L|264:136,1,90
256,136,54607,2,0,L|256:40,1,90
256,264,55580,5,8
144,264,55904,1,0
144,152,56228,1,0
144,152,56390,1,0
144,152,56553,1,8
256,192,56877,12,0,57850
312,32,58174,6,0,L|312:96|312:128,1,90
312,120,58823,1,0
312,120,59147,2,0,L|216:120,1,90
224,120,59796,1,0
256,224,60120,1,0
256,328,60444,1,8
312,328,60607,1,0
256,328,60769,1,8
168,264,61093,1,0
168,264,61417,2,8,L|168:320|128:320,1,90
456,40,62715,5,0
400,40,62877,1,0
376,96,63039,1,0
320,96,63201,1,0
320,40,63363,1,0
48,336,64012,1,0
152,304,64336,1,0
152,192,64661,1,0
256,192,64985,2,0,L|256:240|208:240,1,90
216,240,65634,1,0
216,240,65796,1,0
216,240,65958,1,0
320,240,66282,2,0,L|320:288|376:288,1,90
440,216,66931,5,0
408,168,67093,1,0
440,120,67255,1,0
344,168,67580,1,0
256,120,67904,1,0
280,168,68066,1,0
264,216,68228,1,0
152,192,68553,6,2,B|232:272|168:288|144:320|136:360,1,180
376,40,69850,2,2,B|456:120|392:136|368:168|360:208,1,180
40,48,70985,1,8
40,48,71147,1,0
144,48,71472,1,0
144,152,71796,1,0
32,152,72120,1,8
88,240,72444,5,0
88,296,72607,1,0
136,264,72769,1,0
232,280,73093,2,0,B|224:200|128:208|80:248,1,180,0|2
256,40,74228,5,0
256,96,74390,1,0
256,336,74877,1,0
256,280,75039,1,8
256,96,75688,1,4
56,80,76336,1,0
56,184,76661,1,0
160,184,76985,1,0
160,288,77309,1,8
264,288,77634,1,0
304,248,77796,1,0
336,288,77958,1,0
216,288,78282,5,4
480,24,78931,5,8
480,24,79093,1,0
32,24,79580,1,8
32,24,79742,2,0,B|136:24|136:96,1,135,0|8
256,352,80877,1,0
64,192,81363,1,0
64,192,81526,1,8
168,192,81850,1,0
168,192,82174,2,0,B|136:192|216:272,1,90,0|8
392,48,83147,5,0
392,152,83472,1,0
368,200,83634,1,0
424,200,83796,1,0
400,304,84120,1,0
80,128,84769,1,0
80,232,85093,1,0
80,128,85417,1,0
456,40,86066,1,8
464,336,86553,1,8
256,192,87039,1,4
256,192,87363,12,0,88661
224,192,88823,5,0
256,192,88985,1,0
280,192,89147,1,4
