osu file format v13

[General]
AudioFilename: Thunderclowns - Thomas The Weed Engine.mp3
AudioLeadIn: 0
PreviewTime: 20228
Countdown: 0
SampleSet: Soft
StackLeniency: 0.7
Mode: 0
LetterboxInBreaks: 0
WidescreenStoryboard: 0

[Editor]
DistanceSpacing: 1.4
BeatDivisor: 6
GridSize: 8
TimelineZoom: 1.5

[Metadata]
Title:thomas the weed engine
TitleUnicode:thomas the weed engine
Artist:Thunderclowns
ArtistUnicode:Thunderclowns
Creator:Kyshiro
Version:Hard
Source:
Tags:tank smoke everyday every day mlg dank kaguya hourain soundclown
BeatmapID:490367
BeatmapSetID:208193

[Difficulty]
HPDrainRate:6
CircleSize:4
OverallDifficulty:6
ApproachRate:6.9
SliderMultiplier:2.5
SliderTickRate:1

[Events]
//Background and Video events
0,0,"319146.jpg",0,0
//Break Periods
//Storyboard Layer 0 (Background)
//Storyboard Layer 1 (Fail)
//Storyboard Layer 2 (Pass)
//Storyboard Layer 3 (Foreground)
//Storyboard Sound Samples
//Background Colour Transformations
3,100,163,162,255

[TimingPoints]
815,606.673407482305,4,2,0,60,1,0
5971,-100,4,2,0,60,0,0
6275,-100,4,2,0,60,0,0
6881,-100,4,1,0,60,0,0
7185,-100,4,1,0,60,0,0
7791,-100,4,2,0,60,0,0
7892,-100,4,2,0,60,0,0
9915,-100,4,1,0,60,0,0
10117,-100,4,2,0,60,0,0
10218,-100,4,1,0,60,0,0
10420,-100,4,2,0,60,0,0
11431,-100,4,1,0,60,0,0
11735,-100,4,1,0,60,0,0
12038,-100,4,1,0,60,0,0
12341,-100,4,2,0,60,0,0
13858,-100,4,1,0,60,0,0
14161,-100,4,1,0,60,0,0
14465,-100,4,1,0,60,0,0
14768,-100,4,2,0,60,0,0
18408,-100,4,1,0,90,0,0
18711,-100,4,2,0,60,0,0
19015,-100,4,2,0,60,0,0
19318,-100,4,2,0,60,0,0
19621,-100,4,2,0,60,0,0
19925,-100,4,2,0,60,0,0
20228,-100,4,2,0,60,0,1
22351,-100,4,1,0,60,0,1
22958,-100,4,2,0,60,0,1
24576,-100,4,1,0,60,0,1
24778,-100,4,1,0,60,0,1
25081,-100,4,2,0,60,0,1
27407,-100,4,2,0,60,0,1
29025,-100,4,3,0,35,0,1
29075,-100,4,3,0,40,0,1
29126,-100,4,3,0,45,0,1
29176,-100,4,3,0,50,0,1
29227,-100,4,3,0,55,0,1
29278,-100,4,2,0,60,0,1
29328,-100,4,2,0,70,0,0
32968,-100,4,2,0,5,0,0

[Colours]
Combo1 : 231,35,84
Combo2 : 23,124,179
Combo3 : 194,136,78

[HitObjects]
57,143,815,6,0,L|190:123,1,125,2|2,0:0|0:0,0:0:0:0:
41,68,1421,1,2,0:0:0:0:
121,216,1725,2,0,L|254:196,1,125,2|0,0:0|0:0,0:0:0:0:
356,296,2331,1,2,0:0:0:0:
491,231,2635,2,0,P|503:179|474:113,1,125,0|2,0:0|0:0,0:0:0:0:
342,47,3241,5,0,0:0:0:0:
228,144,3545,1,2,0:0:0:0:
129,126,3747,1,0,0:0:0:0:
129,126,3848,2,0,P|98:74|98:9,1,125,0|2,0:0|0:0,0:0:0:0:
228,144,4455,2,0,P|227:205|196:259,1,125,0|2,0:0|0:0,0:0:0:0:
138,340,4960,1,0,0:0:0:0:
138,340,5061,2,0,L|276:331,1,125,0|2,0:0|0:0,0:0:0:0:
363,215,5668,6,0,P|424:207|492:237,1,125,2|0,0:0|0:0,0:0:0:0:
407,345,6275,1,2,0:0:0:0:
272,314,6578,2,0,P|251:254|271:176,1,125,2|2,0:0|0:0,0:0:0:0:
384,98,7185,1,2,0:0:0:0:
304,114,7387,1,0,0:0:0:0:
304,114,7488,2,0,L|171:103,1,125,2|2,0:0|0:0,0:0:0:0:
138,117,7892,6,0,P|116:182|173:271,1,166.666666666667,2|0,0:0|0:0,0:0:0:0:
198,277,8398,1,2,0:0:0:0:
309,213,8701,2,0,P|400:205|444:236,1,125,2|0,0:0|0:0,0:0:0:0:
483,263,9106,2,0,P|424:217|402:89,1,208.333333333333,2|2,0:0|0:0,0:0:0:0:
264,33,9813,1,0,0:0:0:0:
264,33,9915,2,0,P|252:88|232:114,1,83.3333333333333,2|0,0:0|0:0,0:0:0:0:
172,150,10218,2,0,P|150:114|144:73,1,83.3333333333333,2|0,0:0|0:0,0:0:0:0:
72,47,10521,6,0,P|66:119|32:173,1,125,2|0,1:0|0:0,0:0:0:0:
113,277,11128,2,0,L|243:271,1,125,2|2,0:0|0:0,0:0:0:0:
321,234,11634,1,0,0:0:0:0:
321,234,11735,2,0,P|343:193|340:149,1,83.3333333333333,2|0,0:0|0:0,0:0:0:0:
322,122,12038,1,2,0:0:0:0:
374,48,12240,2,0,L|364:6,1,41.6666666666667,0|2,0:0|0:0,0:0:0:0:
462,52,12544,2,0,L|472:10,1,41.6666666666667,0|2,0:0|0:0,0:0:0:0:
500,134,12847,5,0,0:0:0:0:
500,134,12948,2,0,B|502:183|472:215|472:215|509:281|509:281|479:306|471:361,1,250,2|2,0:0|0:0,0:0:0:0:
321,243,13858,1,2,0:0:0:0:
347,57,14161,1,2,0:0:0:0:
397,143,14364,1,0,0:0:0:0:
397,143,14465,2,0,P|341:157|311:150,1,83.3333333333333,2|0,0:0|0:0,0:0:0:0:
244,121,14768,2,0,P|181:115|118:138,1,125,2|2,0:0|0:0,0:0:0:0:
83,246,15375,5,2,0:0:0:0:
140,370,15678,1,0,0:0:0:0:
256,272,15981,1,2,0:0:0:0:
256,136,16285,1,0,0:0:0:0:
429,246,16588,1,2,0:0:0:0:
372,370,16891,1,0,0:0:0:0:
256,272,17195,1,2,0:0:0:0:
68,20,17801,5,2,0:0:0:0:
157,124,18105,1,0,0:0:0:0:
21,153,18408,2,0,P|15:227|49:286,1,125,0|0,0:0|0:0,0:0:0:0:
138,270,18914,1,0,0:0:0:0:
138,270,19015,2,0,P|161:212|153:151,1,125,0|2,1:0|0:0,0:0:0:0:
228,36,19621,1,2,0:0:0:0:
319,139,19925,1,2,0:0:0:0:
454,114,20228,6,0,P|481:70|467:-2,2,125,4|2|2,1:0|0:0|0:0,0:0:0:0:
319,139,21037,2,0,L|186:119,1,125,2|0,0:0|0:0,0:0:0:0:
125,146,21441,2,0,P|108:215|129:278,1,125,2|0,0:0|0:0,0:0:0:0:
225,208,21947,2,0,P|272:250|380:238,1,166.666666666667,2|2,0:0|0:0,0:0:0:0:
474,136,22655,5,2,0:0:0:0:
497,309,22958,1,2,0:0:0:0:
327,348,23261,2,0,L|197:352,1,125,2|0,0:0|0:0,0:0:0:0:
86,340,23767,1,0,0:0:0:0:
86,340,23868,2,0,P|53:299|46:226,1,125,2|0,0:0|0:0,0:0:0:0:
128,135,24374,2,0,P|161:176|168:249,1,125,2|0,0:0|0:0,0:0:0:0:
158,280,24778,1,0,0:0:0:0:
249,277,24980,5,0,0:0:0:0:
249,277,25081,2,0,L|381:285,1,125,0|2,0:0|0:0,0:0:0:0:
467,218,25587,1,0,0:0:0:0:
467,218,25688,2,0,P|418:170|340:168,1,125,2|0,0:0|0:0,0:0:0:0:
249,38,26295,2,0,P|186:73|115:75,1,125,2|0,0:0|0:0,0:0:0:0:
34,110,26800,2,0,P|113:108|191:179,1,166.666666666667,2|2,0:0|0:0,0:0:0:0:
221,250,27407,5,0,0:0:0:0:
221,250,27508,2,0,P|285:300|337:300,1,125,2|0,0:0|0:0,0:0:0:0:
417,254,28014,2,0,P|352:203|301:204,1,125,2|0,0:0|0:0,0:0:0:0:
237,170,28418,1,0,0:0:0:0:
139,73,28721,1,2,0:0:0:0:
51,179,29025,6,0,L|36:207,4,20.8333333333333,0|0|0|0|0,0:0|0:0|0:0|0:0|0:0,0:0:0:0:
77,141,29328,1,4,0:0:0:0:
256,192,29783,12,0,32968,0:0:0:0:
