osu file format v14

[General]
AudioFilename: find-the-weed-in-you.mp3
AudioLeadIn: 0
PreviewTime: 19974
Countdown: 0
SampleSet: Soft
StackLeniency: 0.7
Mode: 0
LetterboxInBreaks: 0
WidescreenStoryboard: 1

[Editor]
Bookmarks: 7108
DistanceSpacing: 1
BeatDivisor: 4
GridSize: 4
TimelineZoom: 1

[Metadata]
Title:Find The Memes In You
TitleUnicode:Find The Memes In You
Artist:Thunderclowns
ArtistUnicode:Thunderclowns
Creator:Kyshiro
Version:Easy
Source:
Tags:toybot soundclown
BeatmapID:712858
BeatmapSetID:314211

[Difficulty]
HPDrainRate:2
CircleSize:3
OverallDifficulty:2
ApproachRate:3
SliderMultiplier:0.8
SliderTickRate:1

[Events]
//Background and Video events
0,0,"Meme-Wallpaper-memes-30218774-1600-1024.jpg",0,0
//Break Periods
//Storyboard Layer 0 (Background)
//Storyboard Layer 1 (Fail)
//Storyboard Layer 2 (Pass)
//Storyboard Layer 3 (Foreground)
//Storyboard Sound Samples

[TimingPoints]
774,400,4,2,0,100,1,0
19974,-100,4,2,0,100,0,1
32774,-100,4,2,0,100,0,0
45574,-100,4,2,0,100,0,1
57974,-100,4,2,0,100,0,0

[Colours]
Combo1 : 207,146,220
Combo2 : 243,129,129
Combo3 : 121,158,255
Combo4 : 154,214,220

[HitObjects]
192,36,7174,6,0,L|162:199,1,160,8|8,0:0|0:0,0:0:0:0:
85,213,8374,1,2,0:0:0:0:
141,269,8774,2,0,P|214:283|298:236,1,160,8|8,0:0|0:0,0:0:0:0:
320,173,9974,1,2,0:0:0:0:
374,231,10374,6,0,P|386:284|379:313,2,80,8|2|8,0:0|0:0|0:0,0:0:0:0:
320,173,11574,1,2,0:0:0:0:
288,246,11975,2,0,P|218:282|141:269,1,160,8|8,0:0|0:0,0:0:0:0:
101,199,13174,1,2,0:0:0:0:
168,156,13574,6,0,P|179:109|166:69,1,80,8|8,0:0|0:0,0:0:0:0:
102,38,14374,2,0,P|91:85|104:125,1,80,8|8,0:0|0:0,0:0:0:0:
168,156,15174,2,0,L|335:144,1,160,8|8,0:0|0:0,0:0:0:0:
383,201,16374,1,8,0:0:0:0:
329,260,16774,6,0,P|322:310|334:341,2,80,12|12|12,0:0|0:0|0:0,0:0:0:0:
400,296,17974,1,12,0:0:0:0:
450,234,18374,2,0,L|456:151,2,80,12|2|0,0:0|0:0|0:0,0:0:0:0:
351,108,19974,6,0,P|282:81|206:117,1,160,4|2,0:0|0:0,0:0:0:0:
182,190,21174,1,8,0:0:0:0:
118,141,21574,2,0,B|79:41|79:41|29:20,1,160,2|2,0:0|0:0,0:0:0:0:
17,102,22774,1,8,0:0:0:0:
44,177,23174,6,0,L|80:257,1,80,2|8,0:0|0:0,0:0:0:0:
143,198,23974,2,0,L|179:278,1,80,2|8,0:0|0:0,0:0:0:0:
233,326,24774,2,0,P|305:338|359:269,1,160,2|2,0:0|0:0,0:0:0:0:
280,261,25974,1,8,0:0:0:0:
299,183,26374,6,2,P|376:167|438:357,1,320,6|2,0:0|0:0,1:0:0:0:
371,314,28374,1,8,0:0:0:0:
299,350,28774,2,0,P|244:356|214:348,1,80,2|8,0:0|0:0,0:0:0:0:
151,307,29574,6,2,B|113:280|86:213|140:157|193:156|193:156|156:135|144:84|163:52,1,320,6|2,0:0|0:0,1:0:0:0:
235,87,31574,1,8,0:0:0:0:
304,46,31974,2,0,P|351:39|390:58,1,80,2|0,0:0|0:0,0:0:0:0:
441,102,32774,6,0,L|461:183,2,80,4|10|2,0:0|0:0|0:0,0:0:0:0:
380,50,33974,1,10,0:0:0:0:
307,83,34374,2,0,P|276:133|309:223,1,160,2|2,0:0|0:0,0:0:0:0:
381,253,35574,1,10,0:0:0:0:
319,303,35974,6,0,L|154:283,1,160,2|2,0:0|0:0,0:0:0:0:
85,311,37174,1,10,0:0:0:0:
36,247,37574,2,0,P|15:204|52:95,2,160,2|2|6,0:0|0:0|0:0,0:0:0:0:
110,217,39574,5,10,0:0:0:0:
178,258,39974,2,0,L|267:253,1,80,2|10,0:0|0:0,0:0:0:0:
329,216,40774,2,0,P|349:172|316:68,1,160,2|2,0:0|0:0,0:0:0:0:
245,103,41974,1,10,0:0:0:0:
171,71,42374,6,0,P|124:77|76:65,1,80,2|10,0:0|0:0,0:0:0:0:
33,125,43174,2,0,L|29:221,1,80,2|10,0:0|0:0,0:0:0:0:
87,260,43974,1,2,0:0:0:0:
375,178,45574,6,0,L|386:90,2,80,4|10|2,0:0|0:0|0:0,0:0:0:0:
317,233,46774,1,10,0:0:0:0:
262,174,47174,2,0,P|210:160|115:213,1,160,2|2,0:0|0:0,0:0:0:0:
80,275,48374,1,10,0:0:0:0:
37,207,48774,6,0,L|25:115,1,80,2|10,0:0|0:0,0:0:0:0:
106,125,49574,2,0,L|94:33,1,80,2|10,0:0|0:0,0:0:0:0:
174,28,50374,2,0,P|211:45|260:45,2,80,2|10|2,0:0|0:0|0:0,0:0:0:0:
256,192,51974,12,4,55174,0:0:0:0:
119,129,56774,5,2,0:0:0:0:
188,167,57174,1,10,0:0:0:0:
148,236,57574,1,2,3:0:0:0:
79,198,57974,1,12,3:0:0:0:
