osu file format v14

[General]
AudioFilename: Three Days Grace - Unbreakable Heart.mp3
AudioLeadIn: 1500
PreviewTime: 27127
Countdown: 0
SampleSet: Soft
StackLeniency: 0.7
Mode: 0
LetterboxInBreaks: 0
WidescreenStoryboard: 0

[Editor]
DistanceSpacing: 1.1
BeatDivisor: 4
GridSize: 4
TimelineZoom: 1.6

[Metadata]
Title:Unbreakable Heart
TitleUnicode:Unbreakable Heart
Artist:Three Days Grace
ArtistUnicode:Three Days Grace
Creator:Lumael
Version:Unbreakable
Source:
Tags:Hoen metal rock alternative cut version short ver. small lead fire hell adam gontier heaven soul apocalyptica matt walst human transit of venus pain
BeatmapID:764517
BeatmapSetID:346339

[Difficulty]
HPDrainRate:6
CircleSize:4
OverallDifficulty:7
ApproachRate:8
SliderMultiplier:1.8
SliderTickRate:1

[Events]
//Background and Video events
0,0,"broken-heart-wallpaper-1920-1080-6501-1366x768.jpg",0,0
//Break Periods
//Storyboard Layer 0 (Background)
//Storyboard Layer 1 (Fail)
//Storyboard Layer 2 (Pass)
//Storyboard Layer 3 (Foreground)
//Storyboard Sound Samples

[TimingPoints]
1413,428.571428571429,4,2,1,40,1,0
28413,-200,4,2,1,40,0,0
28734,-200,4,2,1,5,0,0
28841,-80,4,2,1,60,0,1
42555,-100,4,2,1,20,0,0
42984,-100,4,2,1,15,0,0
43413,-100,4,2,1,10,0,0
43841,-100,4,2,1,5,0,0

[Colours]
Combo1 : 128,64,64
Combo2 : 192,192,192
Combo3 : 128,0,0
Combo4 : 128,128,128

[HitObjects]
424,56,1413,6,0,L|416:168,1,90,2|0,0:0|0:0,0:0:0:0:
296,248,1841,2,0,L|304:136,1,90,8|0,0:0|0:0,0:0:0:0:
392,284,2270,2,0,P|356:332|216:312,1,180,2|8,0:0|0:0,0:0:0:0:
184,260,2913,1,0,0:0:0:0:
88,284,3127,6,0,B|84:336|84:336|96:396,1,90,2|0,0:0|0:0,0:0:0:0:
299,337,3555,2,0,B|303:285|303:285|291:225,1,90,8|0,0:0|0:0,0:0:0:0:
96,164,3984,1,2,0:0:0:0:
180,132,4198,1,0,0:0:0:0:
164,228,4413,2,0,P|156:280|180:344,1,90,8|0,0:0|0:0,0:0:0:0:
276,172,4841,6,0,P|284:120|260:56,1,90,2|0,0:0|0:0,0:0:0:0:
164,228,5270,1,8,0:0:0:0:
252,272,5484,1,0,0:0:0:0:
384,168,5698,2,0,L|380:257,1,90,2|0,0:0|0:0,0:0:0:0:
464,356,6127,2,0,L|467:266,1,90,8|0,0:0|0:0,0:0:0:0:
428,124,6555,6,0,B|360:120|360:120|308:132|308:132|220:124,1,180,2|8,0:0|0:0,0:0:0:0:
160,80,7198,1,0,0:0:0:0:
60,200,7413,2,0,B|52:244|52:244|60:296,1,90,2|0,0:0|0:0,0:0:0:0:
184,224,7841,1,8,0:0:0:0:
200,308,8055,1,0,0:0:0:0:
333,200,8270,6,0,P|341:148|325:84,1,90,2|0,0:0|0:0,0:0:0:0:
186,135,8698,2,0,P|178:187|194:251,1,90,8|0,0:0|0:0,0:0:0:0:
264,80,9127,2,0,P|212:44|92:100,1,180,2|8,0:0|0:0,0:0:0:0:
80,168,9770,1,0,0:0:0:0:
171,314,9984,6,0,L|187:118,1,180,2|8,0:0|0:0,0:0:0:0:
264,80,10627,1,0,0:0:0:0:
108,84,10841,2,0,L|8:96,1,90,2|0,0:0|0:0,0:0:0:0:
150,170,11270,2,0,L|250:158,1,90,8|0,0:0|0:0,0:0:0:0:
380,44,11698,6,0,P|364:96|376:160,1,90,2|0,0:0|0:0,0:0:0:0:
456,284,12127,1,8,0:0:0:0:
372,240,12341,1,0,0:0:0:0:
211,320,12555,2,0,P|123:340|27:308,1,180,2|8,0:0|0:0,0:0:0:0:
7,221,13198,1,0,0:0:0:0:
108,32,13413,6,0,B|120:76|120:76|112:148,1,90,2|0,0:0|0:0,0:0:0:0:
39,316,13841,2,0,B|27:272|27:272|35:200,1,90,8|0,0:0|0:0,0:0:0:0:
208,172,14270,1,2,0:0:0:0:
156,248,14484,1,0,0:0:0:0:
332,152,14698,2,0,B|344:196|344:196|336:268,1,90,8|0,0:0|0:0,0:0:0:0:
136,360,15127,6,0,L|128:168,1,180,6|8,0:0|0:0,0:0:0:0:
72,96,15770,1,0,0:0:0:0:
242,158,15984,2,0,L|350:150,1,90,2|0,0:0|0:0,0:0:0:0:
268,60,16413,2,0,L|160:68,1,90,8|0,0:0|0:0,0:0:0:0:
360,100,16841,6,0,B|352:160|352:160|376:224|376:224|368:292,1,180,2|8,0:0|0:0,0:0:0:0:
312,344,17484,1,0,0:0:0:0:
164,280,17698,2,0,B|124:276|124:276|60:284,1,90,2|0,0:0|0:0,0:0:0:0:
152,192,18127,2,0,B|192:196|192:196|256:188,1,90,8|0,0:0|0:0,0:0:0:0:
360,100,18555,6,0,P|392:160|368:276,1,180,2|8,0:0|0:0,0:0:0:0:
280,324,19198,1,0,0:0:0:0:
416,248,19413,2,0,L|516:244,1,90,2|0,0:0|0:0,0:0:0:0:
280,324,19841,2,0,L|180:328,1,90,8|0,0:0|0:0,0:0:0:0:
68,100,20270,6,0,P|56:156|84:284,1,180,2|8,0:0|0:0,0:0:0:0:
48,360,20913,1,0,0:0:0:0:
192,244,21127,1,2,0:0:0:0:
160,336,21341,1,0,0:0:0:0:
132,168,21555,1,8,0:0:0:0:
192,244,21770,1,0,0:0:0:0:
320,160,21984,6,0,L|508:152,1,180,2|8,0:0|0:0,0:0:0:0:
464,248,22627,1,0,0:0:0:0:
392,68,22841,1,2,0:0:0:0:
464,124,23055,1,0,0:0:0:0:
352,252,23270,2,0,L|356:348,1,90,8|0,0:0|0:0,0:0:0:0:
191,243,23698,6,0,P|168:157|189:71,1,180,2|8,0:0|0:0,0:0:0:0:
92,64,24341,1,0,0:0:0:0:
92,64,24555,2,0,L|-12:68,1,90,2|0,0:0|0:0,0:0:0:0:
96,152,24984,2,0,L|200:148,1,90,8|0,0:0|0:0,0:0:0:0:
191,243,25413,6,0,B|139:239|139:239|71:255|71:255|3:251,1,180,2|8,0:0|0:0,0:0:0:0:
56,152,26055,1,0,0:0:0:0:
184,20,26270,2,0,P|192:64|184:112,1,90,2|0,0:0|0:0,0:0:0:0:
57,240,26698,2,0,P|49:196|57:148,1,90,8|0,0:0|0:0,0:0:0:0:
220,368,27127,6,0,P|236:332|128:244,1,180,2|8,0:0|0:0,0:0:0:0:
156,320,27770,1,0,0:0:0:0:
316,192,27984,1,10,0:0:0:0:
164,156,28198,1,8,0:0:0:0:
288,116,28413,6,0,P|320:112|368:132,1,67.5
316,192,28841,6,0,P|264:208|244:364,1,225,6|0,0:0|0:0,0:0:0:0:
376,284,29484,1,0,0:0:0:0:
400,100,29698,2,0,L|404:224,1,112.5,12|0,0:0|0:0,0:0:0:0:
257,262,30127,1,2,0:0:0:0:
412,296,30341,1,2,0:0:0:0:
200,340,30555,6,0,L|80:348,1,112.5,4|0,0:0|0:0,0:0:0:0:
16,260,30984,2,0,L|136:252,1,112.5,0|0,0:0|0:0,0:0:0:0:
324,280,31413,1,12,0:0:0:0:
200,340,31627,1,0,0:0:0:0:
252,176,31841,2,0,P|260:116|228:60,1,112.5,2|2,0:0|0:0,0:0:0:0:
76,235,32270,6,0,L|88:359,1,112.5,4|0,0:0|0:0,0:0:0:0:
184,256,32698,1,0,0:0:0:0:
100,360,32913,1,0,0:0:0:0:
264,312,33127,2,0,L|272:180,1,112.5,12|0,0:0|0:0,0:0:0:0:
148,220,33555,1,2,0:0:0:0:
284,200,33770,1,2,0:0:0:0:
128,140,33984,6,0,L|0:156,1,112.5,4|0,0:0|0:0,0:0:0:0:
44,264,34413,2,0,L|172:248,1,112.5
264,72,34841,2,0,L|272:196,1,112.5,12|0,0:0|0:0,0:0:0:0:
328,284,35270,1,2,0:0:0:0:
200,328,35484,1,2,0:0:0:0:
392,336,35698,6,0,P|408:272|376:220,1,112.5,4|0,0:0|0:0,0:0:0:0:
248,180,36127,1,0,0:0:0:0:
328,284,36341,1,0,0:0:0:0:
188,248,36555,2,0,L|64:252,1,112.5,12|0,0:0|0:0,0:0:0:0:
196,124,36984,2,0,P|256:104|316:144,1,112.5,2|2,0:0|0:0,0:0:0:0:
240,304,37413,6,0,P|184:324|120:284,1,112.5,4|0,0:0|0:0,0:0:0:0:
96,156,37841,1,0,0:0:0:0:
24,296,38055,1,0,0:0:0:0:
300,248,38270,2,0,P|320:300|300:360,1,112.5,12|0,0:0|0:0,0:0:0:0:
188,264,38698,2,0,P|168:212|188:152,1,112.5,2|2,0:0|0:0,0:0:0:0:
56,28,39127,6,0,P|72:88|240:132,1,225,4|0,0:0|0:0,0:0:0:0:
312,72,39770,1,0,0:0:0:0:
324,192,39984,1,12,0:0:0:0:
172,76,40198,1,0,0:0:0:0:
280,16,40413,1,2,0:0:0:0:
276,140,40627,1,2,0:0:0:0:
108,124,40841,6,0,P|92:72|120:16,1,112.5,4|0,0:0|0:0,0:0:0:0:
336,92,41270,2,0,P|352:144|328:196,1,112.5
208,236,41698,1,12,0:0:0:0:
108,164,41913,1,0,0:0:0:0:
176,60,42127,1,10,0:0:0:0:
128,268,42341,1,10,0:0:0:0:
256,192,42555,12,0,43841,0:0:0:0:
