osu file format v5

[General]
AudioFilename: Three Days Grace - Time Of Dying.mp3
AudioLeadIn: 0
PreviewTime: -1
Countdown: 1
SampleSet: Normal

[Metadata]
Title:Time Of Dying
Artist:Three Days Grace
Creator:Alieax
Version:Normal

[Difficulty]
HPDrainRate:5
CircleSize:4
OverallDifficulty:6
SliderMultiplier:1.4
SliderTickRate:1

[Events]
//Background and Video events
0,0,"6867_1209069654.jpg"
//Break Periods
//Storyboard Layer 0 (Background)
//Storyboard Layer 1 (Failing)
//Storyboard Layer 2 (Passing)
//Storyboard Layer 3 (Foreground)
//Storyboard Sound Samples
//Background Colour Transformations
3,100,163,162,255

[TimingPoints]
19500,604.838709677419,4,1,0,100

[HitObjects]
128,64,19500,1,0
352,64,20104,2,0,B|320:160,3,140
160,64,22524,2,0,B|256:160,1,140
96,96,23733,2,0,B|192:192,1,140
160,224,24943,1,0
288,256,26153,1,0
352,224,27362,1,0
256,160,28572,1,0
192,192,29782,1,0
128,160,30387,1,0
64,64,31596,2,0,B|192:128,4,140
256,128,35225,1,0
192,192,36435,1,0
96,160,37645,1,0
96,256,38854,1,0
352,64,40064,1,0
352,192,41274,1,0
224,160,42483,5,0
128,160,43693,1,0
128,256,44298,1,0
224,256,44903,1,0
384,160,46112,5,0
384,256,46717,1,0
288,224,47322,1,0
288,128,48532,1,0
192,192,49137,1,0
96,160,49741,1,0
160,96,50346,1,0
256,96,50951,1,0
416,160,52161,5,0
352,192,53370,1,0
288,192,54580,1,0
224,192,55790,1,0
128,160,57000,1,0
192,96,58209,1,0
288,96,59419,1,0
352,128,60629,1,0
352,192,61838,1,0
96,64,63048,6,0,B|160:128,1,140
320,64,64258,2,0,B|256:128|320:224,3,140
192,192,66677,1,0
128,192,67282,1,0
320,160,68491,1,0
288,96,69096,1,0
224,128,69701,1,0
64,128,70911,5,0
160,224,71516,1,0
256,128,72120,1,0
320,224,73330,1,0
256,224,73935,1,0
96,96,74540,6,0,B|160:128,1,140
352,96,75750,2,0,B|288:128,1,140
224,288,76959,2,0,B|224:224|192:256,2,140
384,224,78774,2,0,B|288:288|256:288,2,140
224,192,80588,1,0
160,192,81193,1,0
352,128,82403,5,0
352,224,83008,1,0
320,128,83612,1,0
256,160,84217,1,0
96,96,85427,5,0
224,96,86032,1,0
160,192,86637,1,0
128,288,87241,1,0
448,96,87846,1,0
320,96,88451,1,0
384,192,89056,1,0
320,288,89661,1,0
224,160,90266,1,0
128,160,90870,1,0
160,256,91475,1,0
256,256,92080,1,0
320,96,93895,5,6
128,160,94500,1,6
288,224,95104,1,0
192,224,95709,1,0
160,320,96314,1,0
288,320,96919,1,0
288,160,98129,1,0
224,160,98733,1,0
96,64,99943,2,0,B|160:160|224:160,2,140
320,96,101758,2,0,B|288:128,1,140
192,320,102967,2,0,B|224:224,1,140
352,288,104177,2,0,B|288:224|384:224,3,140
160,128,106596,1,0
288,224,107806,5,0
352,224,109016,1,0
416,224,109620,1,0
416,160,110225,1,0
320,160,110830,1,0
256,192,111435,1,0
224,256,112040,1,0
192,320,112645,1,0
128,320,113250,1,0
128,256,113854,1,0
192,128,115064,5,0
256,128,116274,1,0
256,192,117483,1,0
64,96,118693,2,0,B|160:160,3,140
448,64,121112,2,0,B|320:384|192:160,3,280
64,128,125951,1,0
192,128,127161,1,0
288,128,127766,1,0
448,160,128975,1,4
352,224,129580,1,4
224,288,130185,1,4
128,352,130790,1,4
384,64,132000,5,4
320,128,132604,1,4
256,192,133209,1,4
192,256,133814,1,4
128,320,134419,1,4
96,224,135024,1,4
96,128,135629,1,4
352,224,136838,1,0
288,224,137443,1,0
224,224,138048,1,0
160,288,138653,1,0
192,352,139258,1,0
224,320,139862,1,0
256,288,140467,1,0
96,32,141677,6,0,B|160:128,1,140
288,64,142887,2,0,B|224:128|224:160,3,140
288,288,145306,2,0,B|224:224,1,140
96,288,146516,2,0,B|192:192,1,140
384,256,147725,2,0,B|288:160|320:160,2,140
384,128,150145,2,0,B|288:128,2,140
128,64,152564,2,0,B|192:128,2,140
416,96,154983,2,0,B|320:160,2,140
416,352,156798,2,0,B|352:224,1,140
160,224,158612,2,0,B|224:192,3,140
64,160,162241,1,0
128,224,162846,1,0
160,288,163451,1,0
256,192,164661,12,0,167080
256,192,168290,12,0,169500
256,192,170709,12,0,171919
256,192,173129,12,0,174338
256,192,175548,12,0,177967
160,128,179782,1,0
160,224,180387,1,0
160,288,180991,1,0
248,210,181596,5,2
