osu file format v5

[General]
AudioFilename: Three Days Grace - Time Of Dying.mp3
AudioLeadIn: 0
PreviewTime: -1
Countdown: 1
SampleSet: Normal

[Metadata]
Title:Time Of Dying
Artist:Three Days Grace
Creator:Alieax
Version:Hard

[Difficulty]
HPDrainRate:6
CircleSize:4
OverallDifficulty:8
SliderMultiplier:1.4
SliderTickRate:1

[Events]
//Background and Video events
0,0,"6867_1209069654.jpg"
//Break Periods
//Storyboard Layer 0 (Background)
//Storyboard Layer 1 (Failing)
//Storyboard Layer 2 (Passing)
//Storyboard Layer 3 (Foreground)
//Storyboard Sound Samples
//Background Colour Transformations
3,100,163,162,255

[TimingPoints]
19500,604.838709677419,4,1,0,100

[HitObjects]
96,128,20104,1,0
96,192,20709,1,0
96,256,21314,1,0
160,256,21919,1,0
224,256,22524,1,0
288,256,23129,1,0
288,160,23733,2,0,B|256:160,1,140
64,160,24943,1,0
128,160,25548,1,0
192,160,26153,1,0
192,96,26758,1,0
96,128,27967,1,0
160,224,28572,1,0
256,192,29782,1,4
256,128,30387,1,4
64,64,31596,5,6
160,128,32201,1,6
288,64,32806,1,6
384,128,33411,1,6
64,192,34620,5,0
224,192,35225,1,0
128,96,35830,1,0
128,256,36435,1,0
448,192,37040,1,0
320,192,37645,1,0
384,288,38250,1,0
384,64,38854,1,0
96,128,39459,5,0
224,128,40064,1,0
160,128,40669,1,0
320,128,41274,1,0
64,160,43088,6,0,B|96:160|160:192,1,140
192,128,44298,1,0
128,128,44903,1,0
128,192,45508,1,0
192,192,46112,1,0
320,96,46717,2,0,B|320:160,1,140
256,224,47927,2,0,B|224:224,1,140
128,160,49137,1,0
160,96,49741,1,0
224,96,50346,1,0
224,160,50951,1,0
352,96,51556,2,0,B|352:192,1,140
288,224,52766,2,0,B|224:224,1,140
160,160,53370,6,0,B|224:96,1,140
256,192,54580,12,0,55790
256,192,57000,12,0,58209
32,64,58814,2,0,B|352:288,3,280
192,192,63048,1,0
192,256,63653,1,0
256,256,64258,1,0
256,192,64862,1,0
320,192,65467,1,6
320,128,66072,1,6
256,128,66677,1,6
256,224,67282,1,6
192,224,68491,5,6
128,192,69096,1,6
128,128,69701,1,6
192,128,70306,1,6
64,128,71516,5,6
64,192,72120,1,6
128,192,72725,1,6
160,256,73330,1,6
256,256,73935,1,6
288,192,74540,1,6
416,128,75750,5,0
416,192,76354,1,0
352,192,76959,1,0
352,256,77564,1,0
288,256,78169,1,0
249,206,78774,1,0
200,212,79379,1,0
128,96,80588,2,0,B|224:160,1,140
128,128,82403,1,0
128,224,83008,1,0
192,192,83612,1,0
256,128,84217,1,0
64,96,85427,5,0
64,192,86032,1,0
160,192,86637,1,0
160,288,87241,1,0
448,96,87846,1,0
448,192,88451,1,0
384,192,89056,1,0
384,256,89661,1,0
160,160,90266,5,0
224,160,90870,1,0
288,160,91475,1,0
224,224,92080,1,0
64,96,93895,6,0,B|160:160,1,140
192,128,95104,1,0
192,192,95709,1,0
256,192,96314,1,0
256,256,96919,1,0
128,96,98129,6,0,B|192:160,1,140
320,96,99338,2,0,B|256:160|256:192,4,140
96,128,102967,1,0
160,128,103572,1,0
128,192,104177,1,0
96,224,104782,1,0
96,320,105387,1,0
128,320,105991,1,0
160,320,106596,1,0
128,64,107201,2,0,B|320:288|96:160,3,280
64,160,111435,1,0
96,192,112040,1,0
128,224,112645,1,0
160,256,113250,1,0
224,288,113854,1,0
288,256,115064,1,0
96,128,116274,5,0
96,224,116879,1,0
352,128,117483,1,6
288,128,118088,1,6
224,128,118693,1,6
128,192,119298,1,0
224,256,120508,5,0
288,192,121112,1,0
224,160,121717,1,0
160,224,122322,1,0
128,288,122927,1,0
224,320,123532,1,0
288,320,124137,1,0
96,128,125346,1,0
192,192,126556,1,0
192,288,127766,1,0
96,288,128975,1,0
128,160,129580,1,0
192,192,130185,1,0
192,256,130790,1,0
64,96,132000,6,0,B|160:192|224:192,3,140
224,96,134419,2,0,B|448:320|320:384|448:96,2,420
64,96,138653,2,0,B|160:224,1,140
224,192,139862,2,0,B|288:96,1,140
352,160,141072,2,0,B|320:224,1,140
224,224,142282,2,0,B|160:160,1,140
288,96,143491,2,0,B|320:96,1,140
160,160,144701,1,0
224,160,145306,1,0
288,160,145911,1,0
352,160,146516,1,0
352,256,147120,1,0
288,256,147725,1,0
160,256,148330,1,6
192,192,148935,1,6
256,192,149540,1,6
320,192,150145,1,6
96,96,152564,5,6
96,160,153169,1,6
96,224,153774,1,6
160,224,154379,1,6
416,96,154983,2,6,B|96:320|0:128|32:128,3,420
32,128,161032,1,6
96,128,161637,1,6
160,128,162241,1,6
224,128,162846,1,6
288,128,163451,1,6
320,256,164056,1,6
224,256,164661,1,6
160,256,165266,1,6
288,256,166475,1,6
192,160,167685,1,6
384,224,168895,5,0
320,256,169500,1,0
288,288,170104,1,0
128,192,171314,1,0
160,256,171919,1,0
192,288,172524,1,0
384,64,173129,1,0
352,96,173733,1,0
320,128,174338,1,0
160,96,174943,1,0
192,128,175548,1,0
224,160,176153,1,0
224,192,176758,1,0
224,224,177362,1,0
224,256,177967,1,0
224,320,178572,1,0
256,320,179177,1,0
288,320,179782,1,0
288,128,180991,5,0
192,128,181596,1,0
