osu file format v9

[General]
AudioFilename: 3 Days Grace - Break.mp3
AudioLeadIn: 0
PreviewTime: 44094
Countdown: 0
SampleSet: Normal
StackLeniency: 0.7
Mode: 0
LetterboxInBreaks: 0

[Editor]
Bookmarks: 19750,44165,65464,114881
DistanceSpacing: 1
BeatDivisor: 2
GridSize: 8

[Metadata]
Title:Break
Artist:Three Days Grace
Creator:Vass_Bass
Version:Easy
Source:
Tags:

[Difficulty]
HPDrainRate:2
CircleSize:3
OverallDifficulty:2
ApproachRate:3
SliderMultiplier:1
SliderTickRate:1

[Events]
//Background and Video events
0,0,"BG.jpg"
//Break Periods
2,61053,64088
2,106769,113441
2,135861,142533
//Storyboard Layer 0 (Background)
//Storyboard Layer 1 (Fail)
//Storyboard Layer 2 (Pass)
//Storyboard Layer 3 (Foreground)
//Storyboard Sound Samples
//Background Colour Transformations
3,100,163,162,255

[TimingPoints]
10981,519.503008788259,4,1,1,71,1,0
44165,-100,4,1,1,71,0,0
44229,-100,4,1,1,71,0,1
44420,-100,4,1,1,71,0,0
48385,-100,4,1,1,71,0,1
48581,-100,4,1,1,71,0,0
89945,-100,4,1,1,71,0,1
90138,-100,4,1,1,71,0,0
94101,-100,4,1,1,71,0,1
94294,-100,4,1,1,71,0,0
143973,-100,4,1,1,72,0,1
147870,-100,4,1,1,72,0,0
148129,-100,4,1,1,72,0,1
177221,-100,4,1,1,72,0,0
177481,-100,4,2,1,36,0,0
180728,-100,4,2,1,0,0,0

[Colours]
Combo1 : 204,6,100
Combo2 : 224,224,224
SliderBorder : 255,255,255

[HitObjects]
48,72,19812,2,0,B|144:152|232:72,1,200,0|8
328,72,21371,1,4
424,72,21890,2,0,B|488:176|416:272,1,200,8|4
328,264,23449,6,0,B|280:264,2,50,8|0|8
328,160,24488,1,0
232,160,25007,1,4
128,160,25527,6,0,B|128:280,1,100,0|4
216,312,26566,2,0,B|432:312,1,200,0|4
448,216,28124,6,0,B|464:88|344:72,1,200,0|8
248,80,29683,1,0
192,168,30202,2,8,B|160:168|128:168,2,50,8|0|8
272,224,31241,1,0
328,304,31761,6,0,B|112:304,1,200
168,216,33319,1,4
216,128,33839,6,0,B|320:128,1,100
320,232,34878,1,0
416,232,35397,2,0,B|416:120,1,100,0|4
328,80,36436,5,2
264,160,36956,1,0
272,352,37995,2,0,B|304:240|456:240|496:360,1,300,2|4
488,48,40592,6,0,B|441:172|313:172|272:48,1,300,0|2
80,88,43190,2,0,B|8:88,2,50
184,88,44229,6,0,B|304:32|408:64|448:144|408:224|296:256|160:184,1,500,4|0
112,264,47346,1,0
112,264,47865,1,2
16,208,48385,6,0,B|32:104|144:-16|360:0|424:64,1,500,4|0
448,160,51502,1,0
448,160,52021,1,8
448,264,52541,5,0
352,264,53060,1,8
248,264,53580,2,2,B|112:264,1,100,2|0
120,168,54619,5,0
216,168,55138,1,8
320,168,55658,2,0,B|360:120|320:80,2,100,0|4|0
144,80,57736,1,2
72,272,58775,5,0
168,272,59294,1,2
264,272,59814,1,0
360,272,60333,1,8
456,272,60853,1,4
256,40,65528,6,0,B|376:80|424:192,1,200,0|8
424,264,67087,1,0
352,336,67606,2,0,B|248:336,2,100,8|0|8
256,216,69425,6,0,B|216:176,1,50,0|8
120,184,70204,1,0
304,184,71243,6,0,L|304:304|376:264,2,200,4|0|4
304,80,73840,5,0
208,80,74360,1,8
112,80,74879,2,0,L|56:168,1,100
160,168,75918,1,8
264,168,76438,1,0
360,168,76957,2,0,L|392:184|392:264,2,100,0|8|0
400,80,78516,1,8
296,80,79035,6,0,L|168:80,3,100,4|2|4|2
96,80,81113,1,0
96,176,81633,1,4
176,240,82152,5,8
256,304,82672,1,0
256,104,83711,6,0,B|368:104,1,100,0|8
408,24,84750,1,0
464,104,85269,2,0,L|464:320,1,200
360,304,86828,5,0
280,248,87347,1,8
176,248,87867,2,0,B|80:232|96:136,1,150,0|8
96,96,88906,2,2,B|96:32,2,50
208,96,89945,6,0,B|368:112|416:288,2,300,4|0|0
112,96,93581,1,0
72,192,94101,6,0,B|144:352|320:328,2,300,2|0|0
160,128,97738,1,8
72,80,98257,6,0,L|160:32|160:32|248:88,1,200,0|4
328,144,99816,2,0,B|376:96|328:48,3,100,0|2|0|2
248,88,101894,1,0
176,160,102413,6,0,B|176:272,1,100,0|4
272,288,103452,2,0,B|392:288,1,100,0|4
400,192,104491,6,0,B|400:80|288:40,1,200
184,40,106050,1,8
184,40,106569,1,4
152,56,114881,6,0,B|272:56,2,100
80,120,116440,2,8,B|30:120,2,50
80,224,117479,2,0,B|80:352,2,100,0|4|0
176,216,119037,6,0,B|224:112|336:112,1,200,0|4
360,208,120596,1,0
312,296,121115,1,8
208,296,121635,2,0,B|104:296,1,100,0|4
72,200,122674,1,0
168,168,123193,6,0,B|176:104,2,50,8|0|8
272,168,124232,2,0,B|312:128,2,50,8|0|8
368,200,125271,6,0,B|320:368|120:344,1,300,0|4
136,248,127349,2,0,B|168:80|384:104,1,300,0|4
456,136,129427,2,0,B|456:336,1,200
240,304,131505,6,0,B|32:304,2,200,0|8|0
272,104,134622,2,0,B|384:104,2,100
64,104,143973,6,0,B|160:32|256:112,2,200,4|2|0
64,208,146571,1,8
64,312,147090,1,0
160,312,147610,1,8
264,312,148129,6,0,B|336:216|256:112,2,200,4|2|0
368,312,150727,1,8
424,224,151246,1,4
256,128,152285,6,0,B|176:224,2,100,0|8|0
448,184,154363,2,0,B|448:112,2,50,0|8|0
376,248,155402,2,0,B|312:248,2,50,0|8|0
480,248,156441,5,2
312,136,157480,1,2
144,240,158519,2,0,B|112:296|168:344,3,100,0|8|0|8
352,280,161117,6,0,B|488:280,2,100
248,112,163195,2,0,B|288:8|416:32,1,200,2|2
496,208,165273,6,0,B|456:320|320:280,1,200
256,96,167351,2,0,B|256:196,2,100,0|2|0
256,192,168909,8,8,170468
352,88,171507,6,0,B|296:48|216:48|160:96,1,200,0|4
208,184,173065,5,8
312,184,173585,2,0,B|384:184|384:184|416:216,1,100,0|8
392,304,174624,6,0,B|512:304,2,100,0|8|0
296,304,176182,2,0,B|248:336|200:304,2,100,8|0|8
256,192,177481,8,0,180858
