osu file format v5

[General]
AudioFilename: Animal I have become.mp3
AudioLeadIn: 0
PreviewTime: -1
Countdown: 1
SampleSet: Normal
StackLeniency: 0.7
Mode: 0
LetterboxInBreaks: 1
EditorDistanceSpacing: 0.800000011920929

[Metadata]
Title:Animal I have Become
Artist:Three Days Grace
Creator:EBAfan101
Version:Easy
Source:Three days Grace grase
Tags:Animal I have Become Anime bleach Hollow Devil Evil Hell

[Difficulty]
HPDrainRate:4
CircleSize:4
OverallDifficulty:3
SliderMultiplier:1
SliderTickRate:1

[Events]
//Background and Video events
//Break Periods
2,46702,56374
2,73260,75554
2,132276,150308
2,169653,175882
//Storyboard Layer 0 (Background)
//Storyboard Layer 1 (Failing)
//Storyboard Layer 2 (Passing)
//Storyboard Layer 3 (Foreground)
//Storyboard Sound Samples
//Background Colour Transformations
3,100,163,162,255

[TimingPoints]
2240.39344262295,983.606557377049,4,1,0,80,1,0

[HitObjects]
256,40,10109,5,2
256,304,12076,1,2
48,192,14043,5,2
440,192,16010,1,2
64,192,17978,5,0
256,48,19945,1,0
448,192,21912,1,0
256,336,23879,1,0
64,192,26338,6,0,C|152:168,2,50
256,128,27814,1,0
48,328,29289,1,0
256,48,30764,5,0
256,192,31748,1,0
40,200,32732,1,0
256,320,33715,1,0
264,128,34699,5,0
72,192,35437,2,0,C|112:296,1,100
256,288,36912,2,0,C|392:152,1,175
248,56,42076,5,0
64,192,43551,1,0
256,192,44289,1,0
480,192,45027,2,0,C|392:320,1,150
40,192,57814,5,0
248,192,58797,1,0
424,184,59781,1,0
424,128,60273,1,0
424,64,60764,1,0
256,184,61748,5,0
72,184,62732,1,0
152,184,63224,5,0
368,184,64207,1,0
160,192,64945,2,0,C|160:232,1,25
360,192,66174,5,0
96,192,67650,1,0
96,136,68142,1,0
96,72,68633,1,0
256,64,69617,5,0
256,184,70601,1,0
256,192,71092,12,0,73060
256,48,76994,5,0
264,328,78961,1,0
40,336,80437,2,0,C|40:184,1,150
256,56,84863,5,0
256,256,85846,1,0
400,256,86584,1,0
400,32,88305,2,0,C|232:32,1,150
56,192,93224,5,0
120,192,93715,1,0
296,192,94699,1,0
368,256,96174,6,0,C|344:280|336:264|336:264,1,50
248,48,97650,5,0
248,208,98633,1,0
104,272,99617,1,0
264,192,100601,1,0
264,104,101092,5,0
264,256,102076,1,0
424,192,103551,1,0
424,192,104043,1,0
136,192,105027,6,0,C|136:256,5,50
256,96,108961,5,0
256,264,109945,1,0
120,184,110928,1,0
160,184,111420,1,0
200,184,111912,1,0
256,40,112896,5,0
256,184,113879,1,0
152,184,114371,1,0
152,304,115355,1,0
296,304,116092,1,0
296,304,116338,1,0
264,48,117322,5,0
272,320,118797,1,0
136,320,119781,1,0
256,192,122240,5,0
256,192,123223,1,0
464,56,123961,1,0
464,56,124207,1,0
256,64,125191,6,0,C|256:288,1,200
160,272,127650,1,0
264,208,128633,5,0
456,120,129617,1,0
440,208,130109,2,0,C|352:280,2,100
256,96,151748,5,0
248,256,152732,1,0
120,192,153715,1,0
40,192,154699,6,4,C|504:192,1,450
256,192,160601,12,4,163551
256,192,164535,12,4,169453
256,88,177322,5,0
256,224,178305,1,0
256,224,178797,1,0
96,216,179781,5,0
96,216,180273,1,0
96,216,180764,1,0
256,80,181748,5,0
256,80,182240,1,0
256,80,182732,1,0
256,288,183223,5,0
96,288,184207,1,0
96,152,185191,1,0
464,184,186174,6,0,C|384:320,1,150
256,312,188142,2,0,C|256:160,1,150
256,192,191092,12,0,193060
