osu file format v14

[General]
AudioFilename: Mei Jian Xue.mp3
AudioLeadIn: 0
PreviewTime: 126671
Countdown: 0
SampleSet: Soft
StackLeniency: 0.7
Mode: 0
LetterboxInBreaks: 0
WidescreenStoryboard: 1

[Editor]
DistanceSpacing: 1.4
BeatDivisor: 16
GridSize: 16
TimelineZoom: 1

[Metadata]
Title:Snow on the Eye-brows
TitleUnicode:眉間雪
Artist:Three Cao Boys & One Ruan Girl
ArtistUnicode:三个糙汉一个软妹
Creator:cmn_891127
Version:Normal
Source:剑侠情缘网络版叁
Tags:Megurine Luka Shad0w1and 純陽 楊淽 李智勝
BeatmapID:694218
BeatmapSetID:310638

[Difficulty]
HPDrainRate:4
CircleSize:4
OverallDifficulty:4
ApproachRate:5
SliderMultiplier:2.4
SliderTickRate:1

[Events]
//Background and Video events
Video,0,"Mei Jian Xue.flv"
0,0,"BG.png",0,0
//Break Periods
2,41307,59568
//Storyboard Layer 0 (Background)
//Storyboard Layer 1 (Fail)
//Storyboard Layer 2 (Pass)
//Storyboard Layer 3 (Foreground)
//Storyboard Sound Samples

[TimingPoints]
20438,1304.34782608696,4,2,1,50,1,0
83046,-100,4,2,1,60,0,0
124785,-100,4,2,1,50,0,0
147937,-133.333333333333,4,2,1,50,0,0

[Colours]
Combo1 : 191,207,255
Combo2 : 96,122,202
SliderBorder : 255,255,255
SliderTrackOverride : 255,255,255

[HitObjects]
342,165,20437,6,0,B|305:165|269:193|220:173,1,120,2|0,0:0|0:0,0:0:0:0:
375,92,21742,2,0,P|422:174|375:241,1,180,0|0,0:0|0:0,0:0:0:0:
305,272,23046,2,0,B|254:286|221:259|187:257,1,120,0|0,0:0|0:0,0:0:0:0:
103,258,24024,1,0,0:0:0:0:
116,90,24677,6,0,P|80:68|47:65,2,60,0|0|0,0:0|0:0|0:0,0:0:0:0:
186,135,25655,2,0,P|235:147|301:119,1,120,2|0,0:0|0:0,0:0:0:0:
429,226,26959,2,0,P|392:200|317:204,1,120,0|0,0:0|0:0,0:0:0:0:
362,275,27937,1,0,0:0:0:0:
286,312,28264,2,0,B|234:332|192:300|163:307,2,120,0|0|0,0:0|0:0|0:0,0:0:0:0:
422,100,30546,2,0,P|386:118|355:118,1,60,0|2,0:0|0:0,0:0:0:0:
230,146,31524,6,0,P|269:155|294:151,1,60,0|0,0:0|0:0,0:0:0:0:
278,236,32177,2,0,P|296:270|279:348,1,120,0|0,0:0|0:0,0:0:0:0:
214,293,33155,2,0,P|173:299|148:293,1,60,0|0,0:0|0:0,0:0:0:0:
180,215,33807,2,0,P|126:189|63:200,2,120
325,129,35764,2,0,P|354:128|382:117,2,60,0|2|0,0:0|0:0|0:0,0:0:0:0:
304,210,36660,6,0,P|328:209|346:215,2,37.5
232,232,37312,2,0,P|212:243|189:243,2,45
246,157,38046,2,0,P|237:139|235:113,2,45
95,134,62177,6,0,P|109:181|70:260,1,120,2|0,0:0|0:0,0:0:0:0:
262,171,63481,2,0,P|254:135|267:94,1,60,0|0,0:0|0:0,0:0:0:0:
338,137,64133,2,0,P|364:125|394:124,1,60
386,205,64785,2,0,P|419:232|430:312,1,120,0|0,0:0|0:0,0:0:0:0:
350,283,65764,2,0,P|344:315|359:348,1,60,0|0,0:0|0:0,0:0:0:0:
300,213,66742,6,0,P|243:213|231:207,1,60,0|0,0:0|0:0,0:0:0:0:
185,150,67394,2,0,P|144:142|68:176,1,120,2|0,0:0|0:0,0:0:0:0:
241,212,68698,2,0,B|290:224|322:201|368:207,1,120,0|0,0:0|0:0,0:0:0:0:
439,233,69677,1,0,0:0:0:0:
483,161,70003,2,0,P|499:100|477:47,1,120
416,107,70981,2,0,P|386:85|351:78,1,60
218,160,71959,6,0,P|181:167|155:162,1,60,0|0,0:0|0:0,0:0:0:0:
185,83,72611,2,0,P|240:81|297:131,1,120,2|0,0:0|0:0,0:0:0:0:
322,196,73590,1,0,0:0:0:0:
384,251,73916,2,0,P|432:262|460:258,1,60,0|0,0:0|0:0,0:0:0:0:
426,178,74568,2,0,P|468:171|491:151,1,60,0|0,0:0|0:0,0:0:0:0:
432,93,75220,2,0,B|406:95|368:128|312:109,1,120,0|0,0:0|0:0,0:0:0:0:
234,130,76198,2,0,P|200:117|177:117,1,60,0|0,0:0|0:0,0:0:0:0:
279,202,77177,6,0,P|251:214|212:212,1,60,0|0,0:0|0:0,0:0:0:0:
156,266,77829,2,0,P|111:238|45:244,1,120,2|0,0:0|0:0,0:0:0:0:
89,315,78807,1,0,0:0:0:0:
164,351,79133,2,0,P|203:338|221:323,1,60,0|0,0:0|0:0,0:0:0:0:
290,284,79785,2,0,B|325:290|356:317|408:296,2,120
259,206,81416,2,0,L|274:148,2,60
189,254,82394,2,0,L|178:195,1,60
129,125,83046,6,0,P|184:113|248:144,1,120,4|0,0:0|0:0,0:0:0:0:
178,195,84024,1,0,0:0:0:0:
139,268,84351,2,0,P|168:278|197:276,1,60,8|0,0:0|0:0,0:0:0:0:
261,221,85003,2,0,B|291:222|334:254|378:238,1,120,0|8,0:0|0:0,0:0:0:0:
456,209,85981,2,0,P|471:176|471:144,1,60,0|0,0:0|0:0,0:0:0:0:
390,156,86633,2,0,P|379:130|379:96,1,60,0|8,0:0|0:0,0:0:0:0:
295,89,87285,6,0,P|269:49|195:35,1,120,0|0,0:0|0:0,0:0:0:0:
156,101,88264,2,0,P|183:113|213:113,1,60,8|0,0:0|0:0,0:0:0:0:
270,174,88916,2,0,P|299:168|334:175,1,60,0|0,0:0|0:0,0:0:0:0:
359,251,89568,2,0,P|305:275|251:256,1,120,8|0,0:0|0:0,0:0:0:0:
190,197,90546,1,0,0:0:0:0:
127,140,90872,2,0,P|90:123|53:122,2,60,8|0|0,0:0|0:0|0:0,0:0:0:0:
206,113,91851,2,0,P|238:116|270:108,1,60,0|8,0:0|0:0,0:0:0:0:
401,69,92829,6,0,P|372:68|333:85,1,60,0|0,0:0|0:0,0:0:0:0:
385,150,93481,2,0,P|355:191|366:270,1,120,8|0,0:0|0:0,0:0:0:0:
433,220,94459,2,0,P|450:252|448:290,1,60,0|8,0:0|0:0,0:0:0:0:
391,333,95111,2,0,B|345:343|318:320|267:323,1,120,0|0,0:0|0:0,0:0:0:0:
197,283,96090,2,0,P|162:287|130:282,2,60,8|0|0,0:0|0:0|0:0,0:0:0:0:
258,225,97068,2,0,P|292:196|373:204,1,120,0|0,0:0|0:0,0:0:0:0:
328,274,98046,2,0,P|356:281|386:279,1,60,0|0,0:0|0:0,0:0:0:0:
443,217,98698,2,0,P|439:165|383:119,1,120,8|0,0:0|0:0,0:0:0:0:
307,130,99677,2,0,P|261:146|238:140,1,60,0|8,0:0|0:0,0:0:0:0:
95,207,100655,6,0,B|127:207|169:239|217:215,1,120,0|8,0:0|0:0,0:0:0:0:
296,241,101633,2,0,P|325:237|354:244,1,60,8|8,0:0|0:0,0:0:0:0:
425,200,102285,2,0,P|459:192|485:195,1,60,8|8,0:0|0:0,0:0:0:0:
459,276,102937,2,0,P|400:279|353:243,1,120
358,160,103916,6,0,P|362:123|351:96,1,60,4|0,0:0|0:0,0:0:0:0:
278,137,104568,2,0,P|243:123|200:127,1,60,0|0,0:0|0:0,0:0:0:0:
232,205,105220,2,0,P|185:219|116:183,1,120,8|0,0:0|0:0,0:0:0:0:
80,118,106198,1,0,0:0:0:0:
43,193,106524,2,0,B|36:233|73:268|44:320,1,120,8|0,0:0|0:0,0:0:0:0:
125,345,107503,2,0,P|174:346|198:335,1,60,0|8,0:0|0:0,0:0:0:0:
255,298,108155,6,0,P|291:273|371:281,1,120,0|0,0:0|0:0,0:0:0:0:
379,357,109133,2,0,P|349:359|322:348,1,60,8|0,0:0|0:0,0:0:0:0:
364,277,109785,2,0,P|371:246|363:211,1,60,0|0,0:0|0:0,0:0:0:0:
299,167,110437,1,8,0:0:0:0:
218,191,110764,2,0,B|172:193|144:170|83:185,1,120,0|0,0:0|0:0,0:0:0:0:
99,265,111742,2,0,P|138:263|170:274,2,60,8|0|0,0:0|0:0|0:0,0:0:0:0:
35,320,112720,2,0,P|1:333|-36:330,1,60,0|8,0:0|0:0,0:0:0:0:
99,265,113698,6,0,P|142:260|219:308,1,120,0|8,0:0|0:0,0:0:0:0:
285,259,114677,2,0,P|326:267|365:256,1,60,0|0,0:0|0:0,0:0:0:0:
414,219,115329,2,0,P|446:209|482:212,1,60,0|8,0:0|0:0,0:0:0:0:
511,140,115981,1,0,0:0:0:0:
428,124,116307,2,0,B|395:124|360:154|309:134,1,120,0|8,0:0|0:0,0:0:0:0:
236,96,117285,2,0,P|209:83|179:78,1,60,0|0,0:0|0:0,0:0:0:0:
183,162,117937,6,0,P|140:179|65:164,1,120,0|0,0:0|0:0,0:0:0:0:
223,232,119242,1,0,0:0:0:0:
296,271,119568,2,0,P|304:212|271:163,1,120,8|0,0:0|0:0,0:0:0:0:
211,105,120546,2,0,P|196:73|198:34,1,60,0|8,0:0|0:0,0:0:0:0:
395,43,121524,6,0,B|361:43|326:71|278:55,1,120,0|8,0:0|0:0,0:0:0:0:
256,192,122285,12,0,124785,0:0:0:0:
96,207,127394,6,0,P|149:219|215:184,1,120,2|0,0:0|0:0,0:0:0:0:
282,155,128372,2,0,P|311:147|348:153,1,60,0|0,0:0|0:0,0:0:0:0:
379,224,129024,2,0,P|343:232|308:225,1,60,0|0,0:0|0:0,0:0:0:0:
236,225,129677,1,0,0:0:0:0:
193,151,130003,2,0,P|141:124|83:133,1,120,0|0,0:0|0:0,0:0:0:0:
69,216,130981,2,0,P|99:216|127:204,1,60,0|0,0:0|0:0,0:0:0:0:
268,189,131959,6,0,P|294:198|337:197,1,60,0|0,0:0|0:0,0:0:0:0:
310,116,132611,2,0,B|344:120|380:144|432:129,1,120,2|0,0:0|0:0,0:0:0:0:
422,46,133590,2,0,P|386:47|362:38,1,60,0|0,0:0|0:0,0:0:0:0:
254,130,134568,2,0,P|283:130|309:115,1,60,0|0,0:0|0:0,0:0:0:0:
262,46,135220,2,0,P|202:64|148:46,1,120,0|0,0:0|0:0,0:0:0:0:
160,131,136198,1,0,0:0:0:0:
172,214,136524,2,0,B|179:260|155:309|169:346,1,120,0|0,0:0|0:0,0:0:0:0:
249,319,137503,2,0,P|278:309|316:310,1,60,0|2,0:0|0:0,0:0:0:0:
498,265,138481,6,0,P|444:288|386:274,1,120,0|0,0:0|0:0,0:0:0:0:
322,221,139459,2,0,P|290:203|258:201,1,60,0|0,0:0|0:0,0:0:0:0:
189,169,140111,2,0,P|154:178|120:174,1,60,0|0,0:0|0:0,0:0:0:0:
70,117,140764,1,0,0:0:0:0:
151,98,141090,2,0,B|185:103|222:131|267:116,1,120,0|0,0:0|0:0,0:0:0:0:
430,238,142720,2,0,P|398:235|370:245,1,60,0|2,0:0|0:0,0:0:0:0:
240,192,143698,6,0,P|278:197|310:184,1,60
267,115,144351,2,0,P|220:78|160:80,2,120
195,160,145981,2,0,B|186:204|214:235|199:278,1,120
193,165,147937,6,0,P|151:179|116:175,1,78.7500030040742
272,137,149568,2,0,B|303:139|349:170|395:153,1,123.750004720688
256,192,150628,12,0,152503,0:0:0:0:
256,192,153481,5,0,0:0:0:0:
