osu file format v14

[General]
AudioFilename: Mei Jian Xue.mp3
AudioLeadIn: 0
PreviewTime: 126671
Countdown: 0
SampleSet: Soft
StackLeniency: 0.7
Mode: 0
LetterboxInBreaks: 0
WidescreenStoryboard: 1

[Editor]
Bookmarks: 6386
DistanceSpacing: 1.4
BeatDivisor: 8
GridSize: 16
TimelineZoom: 1

[Metadata]
Title:Snow on the Eye-brows
TitleUnicode:眉間雪
Artist:Three Cao Boys & One Ruan Girl
ArtistUnicode:三个糙汉一个软妹
Creator:cmn_891127
Version:Hard
Source:剑侠情缘网络版叁
Tags:Megurine Luka Shad0w1and 純陽 楊淽 李智勝
BeatmapID:704740
BeatmapSetID:310638

[Difficulty]
HPDrainRate:5
CircleSize:4.5
OverallDifficulty:5
ApproachRate:5
SliderMultiplier:2.4
SliderTickRate:1

[Events]
//Background and Video events
Video,0,"Mei Jian Xue.flv"
0,0,"BG.png",0,0
//Break Periods
2,41307,59568
//Storyboard Layer 0 (Background)
//Storyboard Layer 1 (Fail)
//Storyboard Layer 2 (Pass)
//Storyboard Layer 3 (Foreground)
//Storyboard Sound Samples

[TimingPoints]
20438,1304.34782608696,4,2,1,50,1,0
83046,-100,4,2,1,60,0,0
124785,-100,4,2,1,50,0,0

[Colours]
Combo1 : 191,207,255
Combo2 : 96,122,202
SliderBorder : 255,255,255
SliderTrackOverride : 255,255,255

[HitObjects]
164,156,20437,6,0,P|194:156|223:147,1,60,2|0,0:0|0:0,0:0:0:0:
349,199,21090,2,0,P|320:190|291:190,1,60
113,227,21742,2,0,B|148:229|183:255|231:244,1,120
314,269,22720,2,0,P|322:298|315:326,1,60
291,190,23372,2,0,P|277:133|306:80,1,120
358,143,24351,2,0,B|334:144|300:174|240:162,1,120
104,74,25329,5,0,0:0:0:0:
153,139,25655,2,0,P|157:180|148:203,1,60,2|0,0:0|0:0,0:0:0:0:
65,253,26307,2,0,B|91:256|127:287|181:271,1,120
261,253,27285,1,0,0:0:0:0:
324,202,27611,1,0,0:0:0:0:
347,124,27937,1,0,0:0:0:0:
293,63,28264,2,0,P|343:81|410:62,1,120
478,26,29242,1,0,0:0:0:0:
58,297,30546,6,0,P|87:293|116:300,1,60,0|2,0:0|0:0,0:0:0:0:
222,178,31524,2,0,P|188:171|162:175,1,60
302,201,32177,2,0,P|351:218|413:187,1,120
350,136,33155,1,0,0:0:0:0:
299,72,33481,1,0,0:0:0:0:
221,96,33807,1,0,0:0:0:0:
222,178,34133,2,0,L|222:237,1,60
146,209,34785,2,0,B|120:211|81:249|28:222,1,120
65,148,35764,5,0,0:0:0:0:
135,106,36090,2,0,P|163:101|205:107,1,60,2|0,0:0|0:0,0:0:0:0:
261,153,36660,2,0,L|271:192,2,37.5
352,185,37312,2,0,L|346:236,2,45
425,249,38046,2,0,L|395:289,2,45
149,113,62177,5,2,0:0:0:0:
167,192,62503,1,0,0:0:0:0:
87,208,62829,1,0,0:0:0:0:
70,128,63155,1,0,0:0:0:0:
167,192,63481,2,0,P|202:203|232:198,1,60
358,164,64133,2,0,P|328:161|298:167,1,60
343,324,64785,6,0,P|352:281|336:240,1,90
270,287,65437,2,0,P|251:281|206:282,2,60
386,181,66416,2,0,L|392:144,1,30
332,95,66742,2,0,P|302:102|270:99,1,60
202,246,67394,6,0,P|222:204|216:156,1,90,2|0,0:0|0:0,0:0:0:0:
139,185,68046,2,0,P|117:170|76:163,1,60
0,256,68698,2,0,P|40:264|87:242,1,90
139,185,69351,2,0,L|199:185,1,60
336,118,70003,6,0,L|276:118,1,60
260,118,70492,1,0,0:0:0:0:
247,118,70655,1,0,0:0:0:0:
380,186,70981,2,0,P|389:206|382:248,1,60
394,107,71959,6,0,P|364:108|336:117,1,60
171,76,72611,2,0,B|192:78|221:104|257:90,1,90,2|0,0:0|0:0,0:0:0:0:
256,176,73264,2,0,P|246:207|248:235,1,60
373,253,73916,2,0,P|351:228|325:216,1,60
249,316,74568,2,0,P|280:309|304:293,1,60
173,282,75220,6,0,P|133:264|88:269,1,90
121,343,75872,1,0,0:0:0:0:
166,191,76198,2,0,L|177:158,1,30
247,202,76524,2,0,P|264:194|311:192,1,60
439,233,77177,2,0,P|409:232|382:222,1,60
373,55,77829,6,0,P|383:99|369:141,2,90,2|0|0,0:0|0:0|0:0,0:0:0:0:
302,94,78970,1,0,0:0:0:0:
233,138,79133,2,0,P|206:150|176:150,1,60
132,19,79785,2,0,P|172:0|217:2,1,90
189,73,80437,6,0,B|216:76|256:117|302:94,1,120
433,129,81416,2,0,P|403:128|375:138,1,60,0|8,0:0|0:0,0:0:0:0:
364,149,81905,1,0,0:0:0:0:
353,159,82068,1,0,0:0:0:0:
346,172,82231,1,0,0:0:0:0:
339,185,82394,2,0,L|329:226,2,30,8|0|0,0:0|0:0|0:0,0:0:0:0:
171,198,83046,6,0,P|216:202|257:186,1,90,4|0,0:0|0:0,0:0:0:0:
229,109,83698,2,0,P|198:108|168:120,1,60
223,243,84351,2,0,L|212:184,1,60,8|0,0:0|0:0,0:0:0:0:
300,272,85003,2,0,L|310:330,1,60
359,214,85655,6,0,B|380:214|407:241|446:227,1,90,8|0,0:0|0:0,0:0:0:0:
422,149,86307,2,0,P|418:118|427:88,2,60,0|0|8,0:0|0:0|0:0,0:0:0:0:
285,178,87285,1,0,0:0:0:0:
359,214,87611,1,0,0:0:0:0:
350,295,87937,1,0,0:0:0:0:
269,308,88264,1,8,0:0:0:0:
228,236,88590,6,0,P|199:226|169:226,1,60
176,362,89242,2,0,P|185:333|185:303,1,60,0|8,0:0|0:0,0:0:0:0:
50,308,89894,2,0,P|78:317|108:317,1,60
103,183,90546,2,0,P|93:211|93:241,1,60,0|8,0:0|0:0,0:0:0:0:
173,133,91198,2,0,P|183:104|183:74,1,60
46,90,91851,2,0,L|106:90,1,60,0|8,0:0|0:0,0:0:0:0:
321,69,92666,5,0,0:0:0:0:
244,95,92829,2,0,P|240:71|250:27,1,60
321,69,93318,1,0,0:0:0:0:
395,104,93481,2,0,P|400:75|397:46,2,60,8|0|0,0:0|0:0|0:0,0:0:0:0:
375,218,94459,2,0,L|347:209,1,30
275,169,94785,2,0,P|246:175|208:165,1,60,8|0,0:0|0:0,0:0:0:0:
86,193,95437,2,0,P|116:193|144:204,1,60
199,268,95927,1,0,0:0:0:0:
263,319,96090,6,0,P|298:329|332:326,2,60,8|0|0,0:0|0:0|0:0,0:0:0:0:
308,194,97068,2,0,L|301:254,1,60,0|8,0:0|0:0,0:0:0:0:
381,151,97720,2,0,L|388:91,2,60
307,118,98535,1,0,0:0:0:0:
228,98,98698,6,0,P|203:93|137:116,1,90,8|0,0:0|0:0,0:0:0:0:
110,186,99351,2,0,P|140:193|174:185,1,60
304,222,100003,2,0,P|275:219|246:226,1,60,8|0,0:0|0:0,0:0:0:0:
380,252,100655,2,0,P|427:250|465:220,1,90
400,176,101307,5,8,0:0:0:0:
332,131,101633,1,8,0:0:0:0:
269,183,101959,1,8,0:0:0:0:
299,259,102285,1,8,0:0:0:0:
379,252,102611,2,0,P|413:249|445:258,2,60,8|0|8,0:0|0:0|0:0,0:0:0:0:
364,257,103427,1,0,0:0:0:0:
349,261,103590,1,0,0:0:0:0:
334,265,103753,1,0,0:0:0:0:
320,270,103916,1,4,0:0:0:0:
194,184,104242,6,0,P|187:154|195:126,1,60
230,258,104894,2,0,P|236:287|228:315,2,60,0|8|0,0:0|0:0|0:0,0:0:0:0:
69,274,105872,2,0,B|91:275|125:293|158:284,1,90
230,258,106524,6,0,P|264:251|296:258,1,60,8|0,0:0|0:0,0:0:0:0:
421,287,107177,2,0,P|385:296|355:290,2,60,0|0|8,0:0|0:0|0:0,0:0:0:0:
512,190,108155,1,0,0:0:0:0:
439,153,108481,1,0,0:0:0:0:
385,214,108807,1,0,0:0:0:0:
421,287,109133,1,8,0:0:0:0:
502,272,109459,1,0,0:0:0:0:
439,153,109785,6,0,P|425:113|429:86,1,60
385,214,110437,2,0,P|345:228|318:224,1,60,8|0,0:0|0:0,0:0:0:0:
248,123,111090,2,0,L|261:183,1,60
267,321,111742,2,0,L|254:261,2,60,8|0|0,0:0|0:0|0:0,0:0:0:0:
397,262,112720,2,0,L|337:275,1,60,0|8,0:0|0:0,0:0:0:0:
436,195,113372,5,0,0:0:0:0:
441,181,113535,1,0,0:0:0:0:
444,166,113698,2,0,P|441:137|399:85,1,90
363,158,114351,2,0,P|332:164|304:158,1,60,8|0,0:0|0:0,0:0:0:0:
172,118,115003,2,0,P|203:112|231:118,1,60
201,252,115655,2,0,L|201:192,2,60,8|0|0,0:0|0:0|0:0,0:0:0:0:
340,216,116633,6,0,P|302:215|276:228,1,60,0|8,0:0|0:0,0:0:0:0:
411,259,117285,2,0,P|448:271|480:267,1,60
463,134,117937,2,0,P|462:163|452:191,1,60,0|8,0:0|0:0,0:0:0:0:
329,136,118590,2,0,P|358:136|386:146,2,60
250,154,119405,1,0,0:0:0:0:
169,157,119568,6,0,B|148:162|121:186|83:177,1,90,8|0,0:0|0:0,0:0:0:0:
49,252,120220,2,0,P|17:244|-12:246,1,60
125,282,120872,2,0,P|159:296|214:289,1,90,8|0,0:0|0:0,0:0:0:0:
290,271,121524,2,0,B|313:274|341:301|376:287,1,90
451,254,122177,1,8,0:0:0:0:
256,192,122340,12,0,124785,0:0:0:0:
119,131,127394,6,0,P|169:145|214:134,1,90,2|0,0:0|0:0,0:0:0:0:
286,116,128046,2,0,L|274:185,1,60
417,171,128698,2,0,L|348:159,1,60
365,303,129351,2,0,L|377:234,1,60
236,247,130003,6,0,L|305:259,2,60
170,294,130981,2,0,L|101:306,2,60
236,247,131959,1,0,0:0:0:0:
269,173,132285,1,0,0:0:0:0:
328,118,132611,6,0,P|358:100|418:105,1,90,2|0,0:0|0:0,0:0:0:0:
441,178,133264,2,0,P|412:185|384:178,1,60
328,319,133916,2,0,P|338:276|325:234,1,90
258,279,134568,2,0,L|198:279,1,60
118,278,135220,6,0,B|96:282|67:307|24:291,1,90
57,213,135872,2,0,P|63:193|53:146,1,60
50,141,136361,1,0,0:0:0:0:
41,128,136524,1,0,0:0:0:0:
28,120,136687,1,0,0:0:0:0:
14,113,136851,2,0,L|-16:107,2,30
103,76,137503,5,0,0:0:0:0:
185,76,137829,2,0,B|207:80|236:105|279:89,1,90,2|0,0:0|0:0,0:0:0:0:
351,73,138481,2,0,P|375:66|409:68,2,60
391,203,139459,2,0,P|394:173|387:145,1,60
256,186,140111,6,0,P|285:188|314:181,2,60
178,161,141090,2,0,P|145:150|118:150,1,60
48,244,141742,2,0,P|93:248|133:229,1,90
178,161,142394,2,0,P|145:150|118:150,1,60
246,114,143046,6,0,P|273:101|334:104,1,90,2|0,0:0|0:0,0:0:0:0:
341,186,143698,2,0,P|314:199|253:196,1,90
179,163,144351,2,0,L|179:223,1,60
103,190,145003,2,0,P|112:119|159:88,1,120
256,192,145818,12,0,147937,0:0:0:0:
127,145,148508,6,0,B|164:148|206:186|257:166,1,135
228,90,149568,2,0,P|180:165|224:240,1,180
256,192,150709,12,0,152503,0:0:0:0:
256,192,153481,5,0,0:0:0:0:
