osu file format v7

[General]
AudioFilename: 11 First Date.mp3
AudioLeadIn: 1985
PreviewTime: 41766
Countdown: 0
SampleSet: Soft
StackLeniency: 0.7
Mode: 0
LetterboxInBreaks: 1

[Editor]
DistanceSpacing: 1
BeatDivisor: 4
GridSize: 8

[Metadata]
Title:First Date
Artist:Thomas Newman
Creator:gadasiu
Version:Normal
Source:WALL-E
Tags:Ost Movie Pixar Soundtrack

[Difficulty]
HPDrainRate:2
CircleSize:4
OverallDifficulty:2
SliderMultiplier:1.3
SliderTickRate:1

[Events]
//Background and Video events
0,0,"Background.jpg"
Video,0,"background.avi"
//Break Periods
//Storyboard Layer 0 (Background)
//Storyboard Layer 1 (Fail)
//Storyboard Layer 2 (Pass)
//Storyboard Layer 3 (Foreground)
//Storyboard Sound Samples
//Background Colour Transformations
3,100,0,0,0

[TimingPoints]
162,504.201680672269,4,2,0,50,1,0
17417,-100,4,1,0,29,0,0
19182,-100,4,2,0,50,0,0
22207,-100,4,1,0,29,0,0
23216,-100,4,2,0,50,0,0
49434,-100,4,1,0,85,0,0
50465,-100,4,1,0,32,0,0
50709,-100,4,2,0,51,0,0
66528,-100,4,1,2,0,0,0

[Colours]
Combo1 : 0,255,0
Combo2 : 0,128,255
Combo3 : 255,0,0
Combo4 : 255,128,0

[HitObjects]
184,120,1170,1,2
248,120,1422,1,2
377,120,1926,2,0,B|473:120|473:328|361:328,1,260
195,322,3691,1,0
130,322,3943,1,2
359,92,5204,6,2,B|359:172,1,65
229,157,5960,2,0,B|229:309|509:309,1,325
477,178,7725,1,0
477,48,8229,1,2
87,48,9741,5,2
151,48,9993,2,0,B|302:77|303:232,1,260,0|2
302,293,11254,1,0
366,293,11506,1,2
366,228,11758,1,0
366,163,12010,1,2
25,353,13523,5,2
89,353,13775,1,2
153,353,14027,2,0,B|385:353|385:161,1,325,0|4
449,180,15540,6,0,B|449:112,1,65,0|0
384,115,16044,1,0
319,115,16296,1,2
319,244,16800,1,2
254,244,17052,2,0,B|254:156,1,65,0|2
254,114,17556,6,0,B|326:114,1,65,0|8
319,179,18061,1,0
383,179,18313,1,8
383,114,18565,1,0
253,114,19069,1,8
253,243,19573,6,0,B|252:318,1,65
187,307,20077,1,0
122,308,20330,5,2
32,222,20834,1,2
96,222,21086,2,0,B|96:142,1,65,0|2
160,157,21590,1,0
160,221,21842,1,2
224,221,22094,1,0
269,175,22346,6,0,B|269:247,1,65,4|8
334,240,22851,2,0,B|334:152,1,65,4|8
139,175,23859,1,2
139,45,24363,1,4
139,239,25119,5,0
204,239,25372,2,2,B|204:159,1,65,2|2
204,44,26128,2,0,B|473:44,1,260
464,239,27893,2,0,B|376:239,1,65,0|2
74,239,29405,5,2
74,239,29657,1,2
165,147,30161,1,0
490,147,31422,5,0
360,147,31926,1,0
360,276,32430,1,2
33,63,33943,5,2
97,63,34195,1,2
161,63,34447,2,0,B|161:287,1,195,0|2
226,258,35456,1,0
290,258,35708,2,0,B|362:258,1,65,2|0
419,258,36212,1,2
144,8,37725,5,2
144,72,37977,1,2
144,136,38229,2,0,B|209:25|270:124|126:236|126:236|-18:124|46:28|110:140,1,520,0|2
484,29,41758,5,0
419,29,42010,1,0
354,29,42262,2,0,B|274:29,1,65,0|2
158,29,43019,5,2
158,93,43271,1,0
158,157,43523,1,2
158,286,44027,5,2
222,286,44279,1,0
286,286,44531,2,2,B|286:206,1,65
286,90,45288,1,2
415,90,45792,5,0
415,154,46044,1,2
415,218,46296,1,0
350,218,46548,1,2
220,218,47052,5,2
220,282,47304,1,0
155,282,47556,1,2
155,282,47809,1,2
155,217,48061,1,0
155,152,48313,1,0
155,87,48565,5,2
219,87,48817,1,2
283,87,49069,2,2,B|284:177,1,65,0|6
256,192,49573,12,4,50582
256,40,51338,6,0,L|480:40,1,195
451,104,52346,1,2
125,104,53607,5,2
125,168,53859,1,2
125,297,54363,2,0,B|125:153|397:177|397:177,1,325
391,306,56128,1,0
261,306,56632,1,2
60,310,58145,5,2
60,245,58397,2,0,B|60:118|284:117,1,260,0|2
319,117,59657,1,0
383,117,59909,1,2
383,181,60161,1,0
317,181,60414,1,2
29,181,61926,6,2,B|125:181,1,65
158,181,62430,2,0,B|157:61|277:45|421:45,1,325
410,110,63943,1,2
410,239,64447,1,2
84,239,65708,5,2
84,239,65960,1,2
256,192,66464,12,0,73271
