osu file format v7

[General]
AudioFilename: 11 First Date.mp3
AudioLeadIn: 2000
PreviewTime: 41766
Countdown: 0
SampleSet: Soft
StackLeniency: 0.7
Mode: 0
LetterboxInBreaks: 1

[Editor]
DistanceSpacing: 0.800000011920929
BeatDivisor: 4
GridSize: 8

[Metadata]
Title:First Date
Artist:Thomas Newman
Creator:gadasiu
Version:Hard
Source:WALL-E
Tags:Ost Movie Pixar Soundtrack

[Difficulty]
HPDrainRate:5
CircleSize:5
OverallDifficulty:6
SliderMultiplier:2
SliderTickRate:2

[Events]
//Background and Video events
Video,0,"background.avi"
0,0,"Background.jpg"
//Break Periods
//Storyboard Layer 0 (Background)
//Storyboard Layer 1 (Fail)
//Storyboard Layer 2 (Pass)
//Storyboard Layer 3 (Foreground)
//Storyboard Sound Samples
//Background Colour Transformations
3,100,0,0,0

[TimingPoints]
162,504.201680672269,4,2,0,50,1,0
4082,-100,4,1,1,40,0,0
5090,-100,4,2,1,49,0,0
12149,-100,4,1,1,40,0,0
13410,-100,4,2,1,51,0,0
16178,-100,4,2,1,100,0,0
18699,-100,4,1,2,50,0,0
18951,-100,4,2,1,100,0,0
23867,-100,4,2,1,75,0,0
24124,-100,4,2,1,49,0,0
28284,-100,4,1,1,40,0,0
29292,-100,4,2,1,50,0,0
32569,-100,4,1,1,40,0,0
33830,-100,4,2,1,50,0,0
36351,-100,4,1,1,27,0,0
37485,-100,4,2,1,50,0,0
42401,-100,4,2,1,100,0,0
44922,-100,4,1,2,50,0,0
45175,-100,4,2,1,100,0,0
49460,-100,4,2,1,50,0,0
50583,-100,4,2,1,50,0,0
52485,-100,4,1,1,40,0,0
53494,-100,4,2,1,50,0,0
56514,-100,4,1,0,30,0,0
57522,-100,4,2,1,50,0,0
60553,-100,4,1,1,30,0,0
61801,-100,4,2,1,50,0,0
66528,-100,4,1,2,0,0,0

[Colours]
Combo1 : 255,0,0
Combo2 : 255,255,255
Combo3 : 5,5,240
Combo4 : 0,255,0

[HitObjects]
56,48,1170,1,2
135,48,1422,1,2
296,48,1926,2,0,B|478:32|478:168|480:384,1,400
239,331,3691,1,0
159,331,3943,1,2
159,251,4195,5,0
238,251,4447,1,4
238,171,4699,1,8
158,171,4951,1,4
158,90,5204,5,2
158,90,5456,1,2
297,12,5960,2,0,B|457:12|449:284|353:356|209:356,1,500
76,354,7725,1,0
76,194,8229,1,2
245,24,8985,5,2
301,80,9237,2,0,B|301:184,1,100
301,259,9741,5,2
301,338,9993,2,0,B|386:329|459:258|469:170|389:66|285:82,1,400,0|2
220,80,11254,1,0
220,151,11506,1,2
220,230,11758,1,0
220,310,12010,1,2
140,310,12262,5,0
140,230,12514,1,8
179,230,12640,1,8
220,230,12767,1,0
299,230,13019,1,8
299,150,13271,1,0
378,150,13523,5,2
378,70,13775,1,2
457,70,14027,2,0,B|459:362|91:346,1,500,0|4
121,266,15540,5,0
200,266,15792,1,0
200,186,16044,1,0
143,129,16296,1,2
302,129,16800,5,2
245,185,17052,1,0
245,264,17304,1,2
84,264,17809,5,2
84,184,18061,1,0
84,104,18313,1,2
163,104,18565,1,2
242,104,18817,1,8
321,104,19069,1,2
322,263,19573,5,0
265,206,19825,1,0
208,149,20077,1,0
288,149,20330,1,2
447,149,20834,5,2
447,228,21086,1,0
367,228,21338,1,2
367,228,21590,1,0
287,228,21842,5,2
207,228,22094,1,2
207,228,22220,1,0
207,228,22346,1,2
207,148,22598,1,0
207,148,22851,1,2
286,148,23103,2,0,B|443:146|442:305|246:302,1,300,0|4
256,192,24111,12,8,24867
88,24,25372,5,2
167,24,25624,1,2
326,24,26128,2,0,B|512:24|496:344,1,400
326,162,27893,1,0
246,162,28145,1,2
246,241,28397,5,0
325,241,28649,1,4
404,241,28901,1,8
325,241,29153,1,4
325,320,29405,5,2
325,320,29531,1,0
325,320,29657,1,2
484,320,30161,2,0,B|489:-9|128:32,1,500
291,126,31926,1,0
291,285,32430,1,2
234,341,32683,5,0
154,341,32935,1,4
154,261,33187,1,0
154,221,33313,1,0
193,221,33439,1,8
193,260,33565,1,0
232,260,33691,1,0
232,180,33943,5,2
232,100,34195,1,2
288,43,34447,2,0,B|288:256|287:350,1,300,0|2
343,286,35456,1,0
343,206,35708,1,2
343,125,35960,1,0
343,45,36212,1,2
422,45,36464,6,0,B|422:189,1,100
422,224,36968,1,8
422,303,37220,1,0
341,123,37725,5,2
261,123,37977,1,2
181,123,38229,2,0,B|126:-32|46:24|78:160|198:280|198:280|318:160|350:16|270:-32|206:128,1,800,0|2
224,32,41758,5,0
303,32,42010,1,0
382,32,42262,1,0
461,32,42514,1,2
461,32,43019,5,2
461,111,43271,1,0
461,111,43523,1,2
461,111,44027,5,2
461,190,44279,1,0
461,269,44531,1,2
461,269,44783,1,2
381,269,45035,1,8
300,269,45288,1,0
140,269,45792,5,0
219,269,46044,1,0
300,269,46296,1,0
300,189,46548,1,2
300,189,47052,5,2
300,269,47304,1,0
300,189,47556,5,2
380,189,47809,1,2
300,189,48061,5,2
300,109,48313,1,0
300,189,48565,5,2
220,189,48817,1,0
300,189,49069,5,2
300,189,49321,1,0
300,268,49573,6,2,B|180:268,1,100
200,188,50077,1,0
256,131,50330,2,0,B|256:236,1,100,2|0
256,131,50834,2,0,B|362:131,1,100
256,131,51338,2,0,B|256:27,1,100,2|0
256,131,51842,2,0,B|126:131,1,100
176,209,52346,1,2
255,209,52598,5,0
255,289,52851,1,4
255,209,53103,1,8
255,288,53355,1,4
334,288,53607,5,2
334,208,53859,1,2
472,288,54363,2,0,B|466:108|378:36|266:28|186:28,1,400
171,85,55624,1,2
250,85,55876,1,0
193,141,56128,1,2
272,141,56380,1,0
215,197,56632,6,0,B|320:197,1,100,0|8
474,197,57388,1,0
474,276,57640,2,0,B|347:276,1,100,2|0
374,195,58145,5,2
374,115,58397,2,0,B|346:6|114:6|86:227,1,400,0|2
89,285,59657,1,0
168,285,59909,1,2
248,285,60161,1,0
328,285,60414,1,2
271,228,60666,5,0
328,176,60918,1,4
328,176,61044,1,4
328,176,61170,1,8
408,176,61422,1,4
408,96,61674,1,0
351,39,61926,5,2
271,39,62178,1,2
191,39,62430,2,0,B|-49:23|-28:304|216:304,1,500
291,303,63943,1,2
450,303,64447,1,2
370,303,64699,6,0,B|210:303|34:303|34:144|34:144,1,400,0|2
115,155,65960,1,2
256,192,66464,12,0,73271
