osu file format v12

[General]
AudioFilename: Thomas Bergersen - Illusions.mp3
AudioLeadIn: 0
PreviewTime: 31527
Countdown: 0
SampleSet: Soft
StackLeniency: 0.5
Mode: 0
LetterboxInBreaks: 1

[Editor]
Bookmarks: 414,465,10345,13655,20276,26896,33517,40138,53379,66692,93103,100138,119586,132827,146069,152689,159310,165931,179172,192414,195724,199034,205655,208965,212276,225517,228827,232138,242069,263534,265241,278482,308276,311586,318207,328138,331448,351310,384414,397655,424138,444000,450620
DistanceSpacing: 1.4
BeatDivisor: 8
GridSize: 16

[Metadata]
Title:Illusions
TitleUnicode:Illusions
Artist:Thomas Bergersen
ArtistUnicode:Thomas Bergersen
Creator:ChivaCookie
Version:Marathon
Source:Two steps from Heaven
Tags:Orchestra, Epic, Jacob, J.
BeatmapID:233473
BeatmapSetID:84818

[Difficulty]
HPDrainRate:6
CircleSize:4
OverallDifficulty:7
ApproachRate:9
SliderMultiplier:1.00000000596047
SliderTickRate:2

[Events]
//Background and Video events
0,0,"Illusion1.PNG",1,1
//Break Periods
2,53579,62710
2,123106,132289
2,212562,223271
2,252210,262944
2,318416,327547
2,424709,433530
2,437640,443409
//Storyboard Layer 0 (Background)
//Storyboard Layer 1 (Fail)
//Storyboard Layer 2 (Pass)
//Storyboard Layer 3 (Foreground)
//Storyboard Sound Samples
//Background Colour Transformations
3,100,163,162,255

[TimingPoints]
10345,413.793103448276,4,2,0,13,1,0
10345,-133.333333333333,4,2,0,15,0,0
13655,-66.6666666666667,4,2,0,10,0,0
16965,-66.6666666666667,4,2,0,10,0,0
20120,-66.6666666666667,4,2,0,5,0,0
20224,-66.6666666666667,4,2,0,10,0,0
33517,-66.6666666666667,4,2,0,15,0,0
39982,-66.6666666666667,4,2,0,9,0,0
43323,-66.6666666666667,4,2,0,12,0,0
44906,-66.6666666666667,4,2,0,16,0,0
46707,-66.6666666666667,4,2,0,19,0,0
66682,413.793103448276,4,2,0,19,1,0
66724,-100,4,2,0,25,0,0
68896,-100,4,1,0,30,0,0
71455,-100,4,1,0,33,0,0
72258,-100,4,1,0,35,0,0
72672,-100,4,1,0,38,0,0
73241,-100,4,3,0,38,0,0
76345,-100,4,1,0,40,0,0
77492,-100,4,1,0,40,0,0
77957,-100,4,1,0,30,0,0
79923,-100,4,2,0,30,0,0
82500,-100,4,2,0,45,0,0
83120,-100,4,2,0,35,0,0
84051,-66.6666666666667,4,2,0,35,0,0
85654,-66.6666666666667,4,2,0,30,0,0
87879,-66.6666666666667,4,2,0,24,0,0
91551,-66.6666666666667,4,1,0,25,0,0
92638,-66.6666666666667,4,3,0,20,0,0
93164,-66.6666666666667,4,1,0,20,0,1
96210,-66.6666666666667,4,1,0,25,0,1
97135,-66.6666666666667,4,1,0,30,0,1
98379,-66.6666666666667,4,1,0,35,0,1
98896,-66.6666666666667,4,1,0,40,0,1
99931,-66.6666666666667,4,1,0,30,0,1
100913,-66.6666666666667,4,1,0,35,0,1
102207,-66.6666666666667,4,1,0,40,0,1
105569,-66.6666666666667,4,1,0,35,0,1
106551,-66.6666666666667,4,1,0,30,0,1
109086,-66.6666666666667,4,1,0,27,0,1
113069,-66.6666666666667,4,1,0,20,0,1
116327,-66.6666666666667,4,1,0,23,0,1
122544,-66.6666666666667,4,2,0,20,0,0
122595,-66.6666666666667,4,1,0,35,0,0
123207,-66.6666666666667,4,2,0,5,0,0
127971,-66.6666666666667,4,2,0,10,0,0
132931,-66.6666666666667,4,3,0,20,0,0
134075,-66.6666666666667,4,3,0,25,0,0
135293,-66.6666666666667,4,3,0,15,0,0
136293,-66.6666666666667,4,3,0,20,0,0
137948,-66.6666666666667,4,3,0,15,0,0
139862,-66.6666666666667,4,3,0,20,0,0
140638,-66.6666666666667,4,3,0,25,0,0
141103,-66.6666666666667,4,3,0,30,0,0
141517,-66.6666666666667,4,3,0,25,0,0
141879,-66.6666666666667,4,3,0,20,0,0
144362,-66.6666666666667,4,3,0,30,0,0
152689,-66.6666666666667,4,3,0,15,0,0
152724,-66.6666666666667,4,2,0,13,0,0
153620,-66.6666666666667,4,2,0,10,0,0
154726,-66.6666666666667,4,2,0,5,0,0
159517,-133.333333333333,4,2,0,5,0,0
159785,-111.111111111111,4,2,0,10,0,0
160199,-125,4,2,0,10,0,0
160613,-133.333333333333,4,2,0,10,0,0
166138,-66.6666666666667,4,1,0,15,0,0
168310,-66.6666666666667,4,2,0,12,0,0
169965,-66.6666666666667,4,2,0,16,0,0
173276,-66.6666666666667,4,2,0,18,0,0
179638,-66.6666666666667,4,1,0,20,0,0
185948,-66.6666666666667,4,3,0,14,0,0
192940,-66.6666666666667,4,3,0,30,0,0
192992,-66.6666666666667,4,3,0,10,0,0
193302,-66.6666666666667,4,3,0,30,0,0
193561,-66.6666666666667,4,3,0,10,0,0
193716,-66.6666666666667,4,3,0,30,0,0
193819,-66.6666666666667,4,3,0,10,0,0
194130,-66.6666666666667,4,1,0,30,0,0
194388,-66.6666666666667,4,1,0,10,0,0
194595,-66.6666666666667,4,1,0,30,0,0
194647,-66.6666666666667,4,1,0,10,0,0
194957,-66.6666666666667,4,3,0,20,0,0
195715,-66.6666666666667,4,2,0,18,0,0
198051,-66.6666666666667,4,2,0,22,0,0
198776,-66.6666666666667,4,2,0,30,0,0
199138,-66.6666666666667,4,2,0,20,0,0
202241,-66.6666666666667,4,2,0,15,0,0
203948,-66.6666666666667,4,2,0,20,0,0
205396,-66.6666666666667,4,2,0,25,0,0
232208,-66.6666666666667,4,1,0,25,0,0
241913,-66.6666666666667,4,1,0,29,0,0
246944,-66.6666666666667,4,2,0,25,0,0
248896,-66.6666666666667,4,1,0,25,0,0
265138,-66.6666666666667,4,2,0,10,0,0
275172,-66.6666666666667,4,2,0,5,0,0
278482,-66.6666666666667,4,3,0,10,0,0
279310,-133.333333333333,4,2,0,10,0,0
285000,-66.6666666666667,4,3,0,10,0,0
287379,-66.6666666666667,4,2,0,10,0,0
287488,-66.6666666666667,4,2,0,10,0,0
291724,-66.6666666666667,4,3,0,15,0,0
292189,-66.6666666666667,4,2,0,12,0,0
295086,-66.6666666666667,4,3,0,12,0,0
298810,-66.6666666666667,4,2,0,10,0,0
300982,-66.6666666666667,4,2,0,15,0,0
305482,-66.6666666666667,4,2,0,12,0,0
305689,-133.333333333333,4,2,0,12,0,0
311534,-66.6666666666667,4,2,0,12,0,0
314562,-66.6666666666667,4,2,0,15,0,0
316582,-66.6666666666667,4,2,0,20,0,0
317586,-66.6666666666667,4,2,0,30,0,0
333879,-66.6666666666667,4,1,0,30,0,0
334406,-66.6666666666667,4,1,0,20,0,1
336000,-66.6666666666667,4,1,0,25,0,1
337189,-66.6666666666667,4,1,0,30,0,1
337668,-66.6666666666667,4,1,0,35,0,1
338224,-66.6666666666667,4,1,0,20,0,1
360164,-66.6666666666667,4,3,0,41,0,1
384475,-66.6666666666667,4,1,0,20,0,0
391834,-66.6666666666667,4,2,0,25,0,0
391923,-66.6666666666667,4,1,0,25,0,0
396496,-66.6666666666667,4,3,0,25,0,0
400138,-66.6666666666667,4,2,0,30,0,0
444000,-66.6666666666667,4,2,0,15,0,0
460293,-66.6666666666667,4,2,0,10,0,0

[Colours]
Combo1 : 0,0,128
Combo2 : 128,255,255
Combo3 : 0,64,128
Combo4 : 0,0,255

[HitObjects]
256,184,10345,5,2,0:0:0:0:
330,183,10551,1,0,0:0:0:0:
256,184,10758,1,0,0:0:0:0:
180,183,10965,1,0,0:0:0:0:
256,184,11172,5,2,0:0:0:0:
307,129,11379,1,0,0:0:0:0:
256,176,11586,1,0,0:0:0:0:
213,245,11793,1,0,0:0:0:0:
256,184,12000,5,2,0:0:0:0:
206,127,12207,1,0,0:0:0:0:
256,184,12413,1,0,0:0:0:0:
305,240,12620,1,0,0:0:0:0:
256,184,12827,5,2,0:0:0:0:
256,108,13034,1,0,0:0:0:0:
256,184,13241,1,0,0:0:0:0:
255,259,13448,1,0,0:0:0:0:
161,259,13655,6,0,L|86:259,2,75.0000033080583,2|0|0,0:0|0:0|0:0,0:0:0:0:
256,184,14276,1,0,0:0:0:0:
351,125,14482,6,0,L|436:125,2,75.0000033080583,2|0|0,0:0|0:0|0:0,0:0:0:0:
256,184,15103,1,0,0:0:0:0:
163,272,15310,6,0,L|88:272,2,75.0000033080583,2|0|0,0:0|0:0|0:0,0:0:0:0:
256,184,15931,1,0,0:0:0:0:
357,280,16138,6,0,L|432:280,2,75.0000033080583,2|0|0,0:0|0:0|0:0,0:0:0:0:
256,184,16758,1,0,0:0:0:0:
58,50,16965,6,0,B|84:256|8:360|172:191|184:298|264:331|320:309|307:109|156:109|176:176|149:185|72:112|88:56|136:24|256:8|376:24|568:80|473:111|389:202|161:206|-73:296|424:192|248:304|380:329|438:313|464:268|384:229|419:142|433:55,1,1162.5000512749,0|0,0:0|0:0,0:0:0:0:
396,47,20276,6,0,B|310:16|198:16|99:50,1,300.000013232233,0|0,0:3|0:3,1:1:0:0:
39,143,21310,1,2,0:0:0:0:
59,253,21517,1,2,0:0:0:0:
152,316,21724,1,2,0:0:0:0:
260,344,21931,2,0,P|405:295|484:151,1,300.000013232233
435,71,22965,1,2,0:0:0:0:
338,13,23172,1,2,0:0:0:0:
225,14,23379,1,2,0:0:0:0:
123,62,23586,6,0,P|99:77|82:120,3,75.0000033080583,0|2|2|2,0:0|0:0|0:0|0:0,0:0:0:0:
136,316,24413,2,0,P|107:306|85:270,3,75.0000033080583,0|2|2|2,0:0|0:0|0:0|0:0,0:0:0:0:
228,315,25241,2,0,L|311:289,1,75.0000033080583,0|2,0:0|0:0,0:0:0:0:
389,224,25655,2,0,L|436:151,1,75.0000033080583,2|2,0:0|0:0,0:0:0:0:
356,74,26069,6,0,L|349:155,1,75.0000033080583,0|2,0:0|0:0,0:0:0:0:
255,193,26482,2,0,L|324:236,1,75.0000033080583,2|2,0:0|0:0,0:0:0:0:
336,160,26896,5,2,0:0:0:0:
240,128,27103,1,0,0:0:0:0:
165,193,27310,1,0,0:0:0:0:
256,192,27517,1,0,0:0:0:0:
256,288,27724,5,2,0:0:0:0:
256,192,27931,1,0,0:0:0:0:
136,192,28138,1,0,0:0:0:0:
256,192,28345,1,0,0:0:0:0:
256,56,28551,5,2,0:0:0:0:
256,192,28758,1,0,0:0:0:0:
408,192,28965,1,0,0:0:0:0:
256,192,29172,1,0,0:0:0:0:
256,352,29379,5,2,0:0:0:0:
256,192,29586,1,0,0:0:0:0:
96,192,29793,1,0,0:0:0:0:
256,192,30000,1,0,0:0:0:0:
184,169,30207,5,2,0:0:0:0:
172,242,30413,1,0,0:0:0:0:
224,295,30620,1,0,0:0:0:0:
298,306,30827,1,0,0:0:0:0:
367,277,31034,1,2,0:0:0:0:
396,208,31240,1,0,0:0:0:0:
367,138,31447,1,0,0:0:0:0:
298,107,31654,1,0,0:0:0:0:
224,123,31862,5,2,0:0:0:0:
297,110,32068,1,0,0:0:0:0:
366,137,32275,1,0,0:0:0:0:
398,204,32482,1,0,0:0:0:0:
368,273,32689,1,2,0:0:0:0:
306,315,32895,1,0,0:0:0:0:
231,304,33102,1,0,0:0:0:0:
181,247,33309,1,0,0:0:0:0:
256,192,33517,5,2,0:0:0:0:
256,112,33724,1,0,0:0:0:0:
292,50,33931,2,0,P|252:38|196:73,2,75.0000033080583
257,116,34551,1,0,0:0:0:0:
317,184,34758,2,0,P|338:134|331:120,2,75.0000033080583
259,232,35379,5,0,0:0:0:0:
194,193,35586,2,0,P|152:169|114:185,2,75.0000033080583
352,248,36207,1,0,0:0:0:0:
408,200,36413,2,2,L|408:120,2,75.0000033080583,0|0|2,0:0|0:0|0:0,0:0:0:0:
162,26,37655,5,0,0:0:0:0:
478,253,38482,1,0,0:0:0:0:
93,186,39310,1,0,0:0:0:0:
16,320,40138,6,2,B|245:250|480:192|499:1|256:-64|3:-2|32:192|263:248|512:336,1,1125.00004962087
477,189,43448,6,0,P|505:131|501:96,3,75.0000033080583
356,96,44276,2,0,P|328:38|332:3,3,75.0000033080583
250,157,45103,2,0,P|249:166|221:224,3,75.0000033080583
136,99,45931,2,0,P|108:41|112:6,3,75.0000033080583,0|0|0|0,0:0|0:0|0:0|0:0,0:0:0:0:
48,96,46758,6,2,P|184:48|344:56,1,300.000013232233
409,121,47793,1,0,0:0:0:0:
447,210,48000,1,0,0:0:0:0:
426,305,48207,1,0,0:0:0:0:
347,362,48413,6,2,P|339:218|227:114,1,300.000013232233
136,142,49448,1,0,0:0:0:0:
88,227,49655,1,0,0:0:0:0:
116,320,49862,1,0,0:0:0:0:
256,192,50069,12,2,53379,0:0:0:0:
256,192,63310,12,0,66620,0:0:0:0:
136,72,66888,5,0,0:0:0:0:
400,72,67095,1,0,0:0:0:0:
136,176,67302,1,0,0:0:0:0:
392,176,67509,1,0,0:0:0:0:
344,96,68130,5,0,0:0:0:0:
144,280,68337,1,0,0:0:0:0:
344,280,68544,1,0,0:0:0:0:
144,96,68750,1,0,0:0:0:0:
184,184,68957,5,0,0:0:0:0:
209,184,69061,1,0,0:0:0:0:
336,184,69371,2,0,L|376:176,2,25.0000001490117
272,64,69785,5,0,2:0:0:0:
368,64,69992,2,0,L|391:64,2,12.5000000745059,0|0|0,2:2|1:2|2:2,0:0:0:0:
115,191,70354,1,0,0:0:0:0:
102,190,70406,5,0,0:0:0:0:
151,287,70768,5,0,0:0:0:0:
163,288,70819,1,0,0:0:0:0:
344,288,71026,1,0,0:0:0:0:
264,216,71595,5,0,0:0:0:0:
264,203,71647,1,0,0:0:0:0:
362,184,71854,1,0,0:0:0:0:
343,70,72061,1,0,0:0:0:0:
208,72,72268,1,0,0:0:0:0:
144,176,72475,1,0,0:0:0:0:
80,72,72682,1,4,0:0:0:0:
8,176,72888,1,0,0:0:0:0:
272,304,73147,6,0,L|304:304,1,25.0000001490117
246,305,73354,1,0,0:0:0:0:
145,305,73509,5,0,0:0:0:0:
58,192,73716,1,2,0:0:0:0:
147,58,73923,1,0,0:0:0:0:
309,34,74130,2,0,P|374:82|394:155,1,150.00000089407
256,192,74957,1,2,0:0:0:0:
120,96,75164,1,0,0:0:0:0:
60,176,75371,2,0,B|36:221|27:272|83:335,1,162.500000968576
448,192,76406,5,0,0:0:0:0:
448,136,76509,1,0,1:1:0:0:
448,80,76613,2,0,B|432:60|387:55|346:65,1,100.000000596047
64,80,77440,2,0,B|80:60|125:55|158:63,1,100.000000596047
172,67,78164,5,0,1:1:0:0:
189,79,78216,1,0,1:1:0:0:
206,96,78267,1,0,1:1:0:0:
256,320,78630,1,0,0:0:0:0:
328,192,79147,2,0,L|168:192,1,150.00000089407
150,262,79923,1,4,0:0:0:0:
104,176,80130,5,0,0:0:0:0:
256,56,80337,1,2,0:0:0:0:
400,176,80544,1,0,0:0:0:0:
256,296,80750,1,2,0:0:0:0:
256,252,80957,6,2,L|256:152,1,100.000000596047,2|2,2:0|0:0,0:0:0:0:
120,312,81578,1,2,0:0:0:0:
256,160,81785,1,0,0:0:0:0:
392,304,81992,1,2,2:2:0:0:
448,160,82199,6,0,L|464:160,2,12.5000000745059
392,64,82561,1,4,3:3:0:0:
296,64,82768,1,0,0:0:0:0:
200,64,82975,1,4,3:3:0:0:
104,64,83233,6,2,L|104:184,1,112.500000670553,0|0,0:0|0:0,0:0:0:0:
256,296,84061,2,0,P|344:296|400:224,1,168.750007443131
288,224,84888,1,0,0:0:0:0:
288,192,84940,1,4,3:0:0:0:
288,56,85302,1,0,0:0:0:0:
310,57,85354,1,4,3:0:0:0:
208,64,85717,1,0,0:0:0:0:
176,56,85768,6,2,P|104:64|72:120,1,131.250005789102,0|0,3:3|0:0,0:0:0:0:
62,258,86337,1,0,1:1:0:0:
187,340,86544,1,0,0:0:0:0:
335,323,86750,5,2,0:0:0:0:
400,192,86957,1,0,0:0:0:0:
314,68,87164,1,0,0:0:0:0:
112,152,87371,6,2,L|192:360,1,206.25000909716
328,320,88148,1,0,0:0:0:0:
352,296,88199,1,0,1:0:0:0:
400,192,88406,1,0,0:0:0:0:
362,86,88561,1,0,1:0:0:0:
338,86,88613,1,0,0:0:0:0:
226,98,88768,1,0,0:0:0:0:
134,216,88975,1,0,0:0:0:0:
97,70,89182,1,0,1:0:0:0:
432,56,89647,1,0,1:0:0:0:
432,248,89855,6,0,P|368:312|328:312,1,131.250005789102
296,312,90268,2,0,L|216:312,1,75.0000033080583,0|0,1:0|0:0,0:0:0:0:
272,288,90681,6,0,P|224:248|216:224,1,75.0000033080583,0|0,0:0|1:1,0:0:0:0:
264,160,91095,2,0,P|320:152|344:168,1,75.0000033080583
400,200,91405,1,0,0:0:0:0:
416,216,91457,1,0,0:0:0:0:
432,232,91509,1,0,0:0:0:0:
72,56,91923,5,0,0:0:0:0:
424,56,92337,1,0,0:0:0:0:
344,160,92647,5,4,0:0:0:0:
320,200,92750,1,0,0:0:0:0:
280,224,92854,1,0,0:0:0:0:
224,224,92957,1,0,0:0:0:0:
192,200,93061,1,0,0:0:0:0:
160,160,93164,1,0,0:0:0:0:
64,72,93371,6,0,L|112:56,2,37.5000016540292
32,208,93786,1,0,0:0:0:0:
152,320,93992,1,0,0:0:0:0:
304,320,94199,2,0,L|344:320,2,37.5000016540292
400,208,94612,1,0,0:0:0:0:
328,64,94819,1,0,0:0:0:0:
184,64,95027,2,0,L|144:64,2,37.5000016540292
64,192,95441,5,0,0:0:0:0:
96,192,95544,1,0,0:0:0:0:
128,192,95648,1,0,0:0:0:0:
128,336,95855,5,0,0:0:0:0:
152,312,95958,1,0,0:0:0:0:
176,288,96061,1,0,0:0:0:0:
321,324,96268,5,0,0:0:0:0:
306,308,96371,1,0,0:0:0:0:
290,291,96475,2,0,L|234:227,1,75.0000033080583
240,184,96786,1,0,0:0:0:0:
256,136,96889,2,0,L|344:112,1,75.0000033080583
336,72,97199,1,0,0:0:0:0:
320,24,97303,2,0,L|232:16,1,75.0000033080583
200,32,97613,1,0,0:0:0:0:
160,64,97717,2,0,L|88:120,1,75.0000033080583
96,152,98027,1,0,0:0:0:0:
96,200,98130,2,0,L|120:280,1,75.0000033080583
160,288,98441,5,0,0:0:0:0:
208,288,98544,1,0,0:0:0:0:
256,288,98648,1,0,0:0:0:0:
304,288,98751,1,0,0:0:0:0:
352,288,98855,1,0,0:0:0:0:
408,264,98958,6,0,L|408:184,1,75.0000033080583
408,144,99268,1,0,0:0:0:0:
400,96,99372,2,0,L|336:40,1,75.0000033080583
296,40,99682,1,0,0:0:0:0:
240,40,99785,1,0,0:0:0:0:
136,88,99992,5,0,0:0:0:0:
176,112,100096,1,0,0:0:0:0:
216,136,100199,1,0,0:0:0:0:
168,280,100406,5,0,0:0:0:0:
200,248,100510,1,0,0:0:0:0:
232,216,100613,2,0,P|320:216|360:88,1,225.000009924175,2|2,2:2|2:2,2:2:0:0:
344,72,101337,1,0,0:0:0:0:
304,48,101441,1,0,0:0:0:0:
168,80,101647,5,0,0:0:0:0:
128,96,101750,1,0,0:0:0:0:
88,112,101854,1,0,0:0:0:0:
88,264,102061,5,0,0:0:0:0:
136,264,102165,1,0,0:0:0:0:
192,264,102268,2,0,L|192:224,2,37.5000016540292
240,264,102579,1,0,0:0:0:0:
296,264,102682,2,0,L|296:216,2,37.5000016540292
352,264,102992,1,0,0:0:0:0:
408,264,103096,6,0,P|448:240|448:208,1,75.0000033080583
440,168,103406,1,0,0:0:0:0:
392,152,103510,2,0,P|352:136|344:104,1,75.0000033080583
320,64,103820,1,0,0:0:0:0:
288,24,103923,2,0,P|248:0|224:16,1,75.0000033080583
184,48,104234,1,0,0:0:0:0:
176,104,104337,2,0,P|176:143|136:144,1,75.0000033080583
104,168,104648,1,0,0:0:0:0:
56,200,104751,2,0,P|16:232|24:256,1,75.0000033080583
56,288,105061,1,0,0:0:0:0:
112,304,105165,2,0,P|144:328|176:320,1,75.0000033080583
224,304,105475,1,0,0:0:0:0:
224,248,105579,5,0,0:0:0:0:
280,248,105682,1,0,0:0:0:0:
336,248,105786,1,0,0:0:0:0:
392,248,105889,1,0,0:0:0:0:
440,216,105992,1,0,0:0:0:0:
440,160,106096,1,0,0:0:0:0:
392,128,106199,1,0,0:0:0:0:
336,128,106303,1,0,0:0:0:0:
280,128,106406,1,0,0:0:0:0:
53,51,106613,5,2,3:2:0:0:
66,97,106717,1,0,0:0:0:0:
80,144,106820,1,2,2:3:0:0:
228,109,107027,1,2,3:2:0:0:
243,163,107130,1,0,0:0:0:0:
256,208,107234,1,2,3:2:0:0:
400,288,107441,2,0,L|416:328,2,37.5000016540292
53,321,107855,5,2,3:2:0:0:
66,270,107958,1,0,0:0:0:0:
82,223,108061,1,2,3:2:0:0:
197,201,108268,1,2,3:2:0:0:
214,153,108372,1,0,0:0:0:0:
226,107,108475,1,2,3:2:0:0:
372,139,108682,2,0,L|396:93,2,37.5000016540292
368,272,109096,6,0,L|384:312,2,37.5000016540292,0|0|0,0:0|0:0|0:0,0:0:0:0:
240,317,109510,6,0,L|196:317,1,37.5000016540292
144,269,109717,2,0,L|229:269,1,75.0000033080583
274,218,110027,1,0,0:0:0:0:
324,162,110130,2,0,L|406:161,1,75.0000033080583
348,104,110441,1,0,0:0:0:0:
330,50,110544,2,0,L|251:49,1,75.0000033080583
209,110,110855,1,0,0:0:0:0:
149,155,110958,2,0,L|62:159,1,75.0000033080583
120,218,111268,1,0,0:0:0:0:
195,214,111372,6,0,L|259:262,1,75.0000033080583
253,183,111682,1,0,0:0:0:0:
320,149,111786,2,0,L|245:120,1,75.0000033080583
300,65,112096,1,0,0:0:0:0:
374,68,112199,2,0,L|320:14,1,75.0000033080583
396,27,112510,1,0,0:0:0:0:
470,23,112613,2,0,L|494:23,8,18.7500008270146
432,192,113234,6,0,L|472:192,2,37.5000016540292
256,104,113648,2,0,L|256:64,2,37.5000016540292
96,192,114061,2,0,L|48:192,2,37.5000016540292
152,320,114475,5,0,0:0:0:0:
200,320,114579,2,0,L|248:320,1,37.5000016540292
448,248,114889,1,0,0:0:0:0:
400,248,114992,2,0,L|352:248,1,37.5000016540292
120,200,115303,1,0,0:0:0:0:
168,200,115406,2,0,L|208:200,1,37.5000016540292
384,112,115717,1,0,0:0:0:0:
328,112,115820,2,0,L|290:112,1,37.5000016540292
48,48,116130,1,0,0:0:0:0:
96,48,116234,1,0,0:0:0:0:
144,64,116337,6,0,L|143:152,1,75.0000033080583
176,168,116648,1,0,0:0:0:0:
216,144,116751,2,0,L|216:56,1,75.0000033080583
256,40,117061,1,0,0:0:0:0:
296,72,117165,2,0,L|296:152,1,75.0000033080583
336,168,117475,1,0,0:0:0:0:
376,144,117579,2,0,L|376:64,1,75.0000033080583
416,40,117889,1,0,0:0:0:0:
472,72,117992,2,0,L|472:120,3,37.5000016540292
472,168,118406,2,0,L|472:216,3,37.5000016540292
456,256,118820,6,0,L|440:288,6,18.7500008270146
424,304,119182,2,0,L|413:313,18,9.37500041350729
256,192,119699,12,0,122906,0:0:0:0:
256,248,132889,5,0,0:0:0:0:
24,208,133355,5,0,0:0:0:0:
108,134,133561,1,0,0:0:0:0:
205,78,133768,1,0,0:0:0:0:
311,130,133975,1,0,0:0:0:0:
311,242,134182,1,0,0:0:0:0:
209,288,134389,1,0,0:0:0:0:
108,238,134596,1,0,0:0:0:0:
109,125,134803,5,0,0:0:0:0:
109,237,135010,1,0,0:0:0:0:
210,286,135217,1,0,0:0:0:0:
312,241,135423,1,0,0:0:0:0:
310,128,135630,1,0,0:0:0:0:
215,70,135837,1,0,0:0:0:0:
105,128,136044,1,0,0:0:0:0:
331,155,136251,6,0,L|331:67,1,75.0000033080583
256,80,136665,2,0,L|336:80,1,75.0000033080583
120,136,137079,2,0,L|192:96,1,75.0000033080583
120,272,137492,2,0,L|120:192,1,75.0000033080583
256,328,137906,2,0,L|176:304,1,75.0000033080583
392,272,138320,2,0,L|320:312,1,75.0000033080583
400,128,138734,2,0,L|400:216,1,75.0000033080583
352,64,139148,1,0,0:0:0:0:
352,64,139355,1,0,0:0:0:0:
232,40,139561,5,0,0:0:0:0:
88,40,139768,1,0,0:0:0:0:
232,128,139975,1,0,0:0:0:0:
88,128,140182,1,0,0:0:0:0:
232,216,140389,1,0,0:0:0:0:
88,216,140596,1,0,0:0:0:0:
232,304,140803,1,0,0:0:0:0:
88,304,141010,1,0,0:0:0:0:
232,304,141217,5,0,0:0:0:0:
376,304,141423,1,0,0:0:0:0:
232,216,141630,1,0,0:0:0:0:
376,216,141837,1,0,0:0:0:0:
232,128,142044,1,0,0:0:0:0:
376,128,142251,1,0,0:0:0:0:
232,48,142458,1,0,0:0:0:0:
376,48,142665,1,0,0:0:0:0:
237,128,142872,6,0,L|277:128,2,37.5000016540292
144,48,143286,1,0,0:0:0:0:
256,128,143492,1,0,0:0:0:0:
368,48,143699,1,0,0:0:0:0:
368,144,143906,1,0,0:0:0:0:
256,232,144113,1,0,0:0:0:0:
144,144,144320,1,0,0:0:0:0:
144,248,144527,1,0,0:0:0:0:
256,328,144734,1,0,0:0:0:0:
368,248,144941,1,0,0:0:0:0:
256,192,145044,12,0,145975,0:0:0:0:
45,35,146130,5,0,0:0:0:0:
428,122,146957,1,0,0:0:0:0:
99,215,147785,1,0,0:0:0:0:
376,281,148613,1,0,0:0:0:0:
157,162,149440,1,0,0:0:0:0:
351,79,150268,1,0,0:0:0:0:
221,68,151095,1,0,0:0:0:0:
128,80,151923,1,0,0:0:0:0:
202,141,152130,1,2,2:2:0:0:
171,233,152337,1,2,2:2:0:0:
83,255,152544,1,2,2:2:0:0:
24,192,152751,5,2,0:0:0:0:
48,144,152855,1,0,0:0:0:0:
88,112,152958,1,0,0:0:0:0:
128,96,153061,1,0,0:0:0:0:
168,88,153165,1,2,0:0:0:0:
208,88,153268,1,0,0:0:0:0:
248,88,153372,1,0,0:0:0:0:
288,88,153475,1,0,0:0:0:0:
328,88,153579,1,2,0:0:0:0:
368,96,153682,1,0,0:0:0:0:
400,112,153786,1,0,0:0:0:0:
432,144,153889,1,0,0:0:0:0:
448,192,153992,1,2,0:0:0:0:
432,240,154096,1,0,0:0:0:0:
400,272,154199,1,0,0:0:0:0:
368,288,154303,1,0,0:0:0:0:
328,296,154406,5,2,0:0:0:0:
288,296,154510,1,0,0:0:0:0:
248,296,154613,1,0,0:0:0:0:
208,296,154717,1,0,0:0:0:0:
168,296,154820,1,2,0:0:0:0:
128,288,154923,1,0,0:0:0:0:
88,272,155027,1,0,0:0:0:0:
64,232,155130,1,0,0:0:0:0:
72,184,155234,1,2,0:0:0:0:
96,152,155337,1,0,0:0:0:0:
136,128,155441,1,0,0:0:0:0:
184,120,155544,1,0,0:0:0:0:
224,120,155648,1,2,0:0:0:0:
272,120,155751,1,0,0:0:0:0:
312,120,155855,1,0,0:0:0:0:
360,128,155958,1,0,0:0:0:0:
392,160,156061,5,2,0:0:0:0:
400,200,156165,1,0,0:0:0:0:
376,232,156268,1,0,0:0:0:0:
336,248,156372,1,0,0:0:0:0:
288,256,156475,1,2,0:0:0:0:
248,256,156579,1,0,0:0:0:0:
200,256,156682,1,0,0:0:0:0:
160,248,156786,1,0,0:0:0:0:
136,216,156889,1,2,0:0:0:0:
136,176,156992,1,0,0:0:0:0:
152,136,157096,1,0,0:0:0:0:
192,112,157199,1,0,0:0:0:0:
232,104,157303,1,2,0:0:0:0:
280,104,157406,1,0,0:0:0:0:
320,120,157510,1,0,0:0:0:0:
344,160,157613,1,0,0:0:0:0:
352,200,157716,5,2,0:0:0:0:
336,248,157820,1,0,0:0:0:0:
312,288,157923,1,0,0:0:0:0:
272,312,158027,1,0,0:0:0:0:
224,320,158130,1,2,0:0:0:0:
184,320,158234,1,0,0:0:0:0:
136,312,158337,1,0,0:0:0:0:
96,280,158441,1,0,0:0:0:0:
72,240,158544,1,2,0:0:0:0:
64,192,158648,1,0,0:0:0:0:
64,144,158751,1,0,0:0:0:0:
88,104,158855,1,0,0:0:0:0:
128,80,158958,1,2,0:0:0:0:
168,72,159061,1,0,0:0:0:0:
216,72,159165,1,0,0:0:0:0:
256,88,159268,1,0,0:0:0:0:
283,124,159371,6,0,L|296:213,1,75.0000033080583
203,197,159785,2,0,L|150:165,1,44.9999988949302
128,101,160199,2,0,L|161:74,1,40.0000002384188
233,86,160613,2,0,L|260:121,1,37.5000016540292
128,192,161027,2,0,P|160:248|208:152,1,225.000009924175
264,96,162475,1,0,0:0:0:0:
352,64,162682,2,0,P|487:191|328:320,1,440.625019434843
256,192,165165,12,0,166096,0:0:0:0:
256,40,166458,6,0,P|192:64|168:120,1,131.250005789102,4|0,0:0|0:0,0:0:0:0:
176,136,166872,2,0,P|208:184|272:208,1,112.500004962087,4|0,0:0|0:0,0:0:0:0:
272,200,167234,2,0,P|320:184|352:129,1,112.500004962087
352,120,167596,2,0,P|328:65|264:41,1,131.250005789102,4|0,0:0|0:0,0:0:0:0:
264,56,168010,2,0,L|264:144,1,75.0000033080583,4|0,0:0|0:0,0:0:0:0:
264,216,168423,5,2,0:0:0:0:
184,320,168630,1,0,0:0:0:0:
344,320,168837,1,0,0:0:0:0:
264,216,169044,1,0,0:0:0:0:
264,88,169251,5,2,0:0:0:0:
392,88,169458,1,0,0:0:0:0:
264,88,169665,1,0,0:0:0:0:
144,88,169872,1,0,0:0:0:0:
264,88,170079,5,2,0:0:0:0:
184,208,170286,1,0,0:0:0:0:
264,328,170492,1,0,0:0:0:0:
336,208,170699,1,0,0:0:0:0:
392,88,170906,5,2,0:0:0:0:
472,208,171113,1,0,0:0:0:0:
392,328,171320,1,0,0:0:0:0:
264,328,171527,1,0,0:0:0:0:
136,328,171734,5,2,0:0:0:0:
72,208,171941,1,0,0:0:0:0:
136,88,172148,1,0,0:0:0:0:
264,88,172355,1,0,0:0:0:0:
384,80,172561,5,2,0:0:0:0:
464,176,172768,1,0,0:0:0:0:
384,280,172975,1,0,0:0:0:0:
304,176,173182,1,0,0:0:0:0:
224,80,173389,5,2,0:0:0:0:
144,176,173596,1,0,0:0:0:0:
232,280,173803,1,0,0:0:0:0:
304,176,174010,1,0,0:0:0:0:
384,80,174217,5,2,0:0:0:0:
264,16,174423,1,0,0:0:0:0:
144,16,174630,1,0,0:0:0:0:
48,80,174837,1,0,0:0:0:0:
8,176,175044,5,2,0:0:0:0:
48,272,175251,1,0,0:0:0:0:
144,328,175458,1,0,0:0:0:0:
264,328,175665,1,0,0:0:0:0:
384,328,175872,5,2,0:0:0:0:
456,208,176079,1,0,0:0:0:0:
384,96,176286,1,0,0:0:0:0:
312,208,176492,1,0,0:0:0:0:
184,208,176699,5,2,0:0:0:0:
248,96,176906,1,0,0:0:0:0:
128,96,177113,1,0,0:0:0:0:
64,208,177320,1,0,0:0:0:0:
176,208,177527,5,2,0:0:0:0:
288,208,177734,1,0,0:0:0:0:
256,192,177786,12,0,179182,0:0:0:0:
448,48,179699,5,0,0:0:0:0:
256,48,180113,2,0,L|96:48,1,150.000006616117
96,304,180941,2,0,L|248:304,1,150.000006616117
280,304,181458,5,0,0:0:0:0:
320,304,181562,1,0,0:0:0:0:
368,296,181665,1,0,0:0:0:0:
408,280,181769,1,0,0:0:0:0:
440,248,181872,1,0,0:0:0:0:
448,200,181975,1,0,0:0:0:0:
440,152,182079,1,0,0:0:0:0:
408,112,182182,1,0,0:0:0:0:
368,96,182286,1,0,0:0:0:0:
320,88,182389,1,0,0:0:0:0:
280,88,182492,1,0,0:0:0:0:
256,192,182596,12,2,184148,2:2:0:0:
128,192,184355,5,0,0:0:0:0:
248,192,184561,1,0,0:0:0:0:
368,192,184768,1,0,0:0:0:0:
368,296,184975,5,2,2:2:0:0:
472,296,185182,1,0,0:0:0:0:
472,192,185389,1,0,0:0:0:0:
472,96,185596,1,0,0:0:0:0:
368,96,185803,5,2,2:2:0:0:
240,96,186010,2,0,B|160:56|160:56|96:48|96:48|32:88|32:88|32:136|32:136|96:176|96:176|160:168|160:168|240:128,1,506.250022329394,0|0,0:0|0:0,0:0:0:0:
240,152,187458,2,0,B|320:112|320:112|384:104|384:104|448:144|448:144|448:192|448:192|384:232|384:232|320:224|320:224|240:184,1,506.250022329394,0|0,0:0|0:0,0:0:0:0:
163,184,189061,2,0,B|96:201|96:201|95:114|95:114|128:123|128:123|167:134,1,225.000009924175
256,192,189889,12,0,192475,0:0:0:0:
133,87,192940,6,0,L|215:37,1,93.7500041350729,0|0,1:0|0:0,0:0:0:0:
295,32,193354,2,0,L|378:82,1,93.7500041350729,0|0,1:1|0:0,0:0:0:0:
450,165,193768,2,0,L|470:263,1,93.7500041350729,0|0,1:1|0:0,0:0:0:0:
372,316,194182,2,0,L|272:331,1,93.7500041350729
173,291,194595,2,0,L|86:236,1,93.7500041350729
74,168,194957,5,0,0:0:0:0:
186,68,195164,1,0,0:0:0:0:
327,116,195371,1,0,0:0:0:0:
188,174,195578,1,0,0:0:0:0:
176,192,195734,6,0,P|272:248|376:192,1,225.000009924175
310,131,196561,2,0,P|235:213|262:323,1,225.000009924175
354,273,197389,2,0,P|287:183|171:196,1,225.000009924175
168,285,198217,2,0,P|277:269|323:167,1,225.000009924175,0|4,0:0|3:3,0:0:0:0:
328,128,198941,1,4,3:3:0:0:
288,96,199044,6,0,B|224:64|176:104|176:104|128:64|65:106,1,225.000009924175
80,211,199872,2,0,B|146:252|185:208|185:208|233:251|282:207,1,225.000009924175
336,344,200699,2,0,B|356:285|418:292|418:292|437:232|508:224,1,225.000009924175
456,104,201527,1,0,0:0:0:0:
376,176,201734,1,0,0:0:0:0:
296,104,201941,1,0,0:0:0:0:
216,176,202148,1,0,0:0:0:0:
81,96,202355,5,0,0:0:0:0:
80,96,202561,2,2,L|80:56,2,37.5000016540292
385,311,203182,5,0,0:0:0:0:
384,312,203388,2,0,L|424:312,2,37.5000016540292,2|0|2,0:0|0:0|0:0,0:0:0:0:
439,63,204010,5,0,0:0:0:0:
439,62,204216,2,0,L|439:102,2,37.5000016540292,2|0|2,0:0|0:0|0:0,0:0:0:0:
104,304,204837,5,0,0:0:0:0:
104,304,205043,2,0,L|64:304,2,37.5000016540292,2|0|2,0:0|0:0|0:0,0:0:0:0:
64,224,205458,6,0,L|136:176,1,75.0000033080583,4|4,3:3|0:0,0:0:0:0:
191,148,205871,2,0,L|231:134,2,37.5000016540292
360,56,206286,6,0,L|424:120,1,75.0000033080583,0|2,0:0|0:0,0:0:0:0:
448,176,206700,1,0,0:0:0:0:
448,224,206803,1,0,0:0:0:0:
448,264,206907,1,0,0:0:0:0:
364,313,207165,6,0,L|273:320,1,75.0000033080583,0|2,0:0|0:0,0:0:0:0:
216,304,207579,1,0,0:0:0:0:
179,273,207682,1,0,0:0:0:0:
148,247,207786,1,0,0:0:0:0:
80,196,207992,6,0,L|95:106,1,75.0000033080583,0|2,0:0|0:0,0:0:0:0:
128,56,208406,1,0,0:0:0:0:
167,28,208509,1,0,0:0:0:0:
200,5,208613,1,0,0:0:0:0:
312,16,208820,6,0,L|376:80,1,75.0000033080583,0|2,0:0|0:0,0:0:0:0:
400,136,209234,1,0,0:0:0:0:
400,184,209337,1,0,0:0:0:0:
400,224,209441,1,0,0:0:0:0:
272,312,209854,5,0,0:0:0:0:
184,312,210061,1,0,0:0:0:0:
144,312,210164,1,0,0:0:0:0:
104,312,210268,1,0,0:0:0:0:
256,184,210682,6,0,L|256:160,15,18.7500008270146
256,160,211509,2,0,L|256:149,33,9.37500041350729
256,192,223871,12,0,225526,0:0:0:0:
256,40,225941,5,0,0:0:0:0:
448,184,226355,1,0,0:0:0:0:
256,336,226768,1,0,0:0:0:0:
72,184,227182,1,0,0:0:0:0:
256,336,227596,5,0,0:0:0:0:
256,192,227803,1,0,0:0:0:0:
408,192,228010,1,0,0:0:0:0:
96,192,228423,5,0,0:0:0:0:
256,192,228630,1,0,0:0:0:0:
256,56,228837,1,0,0:0:0:0:
408,192,229251,5,0,0:0:0:0:
256,192,229458,1,0,0:0:0:0:
256,336,229665,1,0,0:0:0:0:
256,56,230079,5,0,0:0:0:0:
256,192,230286,1,0,0:0:0:0:
256,336,230492,1,0,0:0:0:0:
432,192,230906,5,0,0:0:0:0:
432,192,231113,1,0,0:0:0:0:
432,192,231320,1,0,0:0:0:0:
385,192,231371,6,0,L|369:192,31,9.37500041350729
48,48,232251,5,0,0:0:0:0:
256,192,232561,1,0,0:0:0:0:
72,192,232768,1,0,0:0:0:0:
112,328,232975,1,0,0:0:0:0:
288,328,233182,1,0,0:0:0:0:
448,328,233389,1,0,0:0:0:0:
344,56,233596,1,0,0:0:0:0:
400,192,233803,1,0,0:0:0:0:
56,56,234217,5,0,0:0:0:0:
400,192,234630,1,0,0:0:0:0:
80,312,235044,1,0,0:0:0:0:
256,192,235458,5,0,0:0:0:0:
56,64,235872,1,0,0:0:0:0:
208,64,236079,1,0,0:0:0:0:
360,64,236286,1,0,0:0:0:0:
360,328,236699,5,0,0:0:0:0:
208,328,236906,1,0,0:0:0:0:
56,328,237113,1,0,0:0:0:0:
480,80,237527,5,0,0:0:0:0:
360,184,237734,1,0,0:0:0:0:
472,304,237941,1,0,0:0:0:0:
176,184,238355,1,0,0:0:0:0:
256,48,238768,6,0,L|416:48,1,150.000006616117
288,112,239389,1,0,0:0:0:0:
176,176,239596,2,0,L|336:176,1,150.000006616117
216,232,240217,1,0,0:0:0:0:
80,296,240423,2,0,L|240:296,3,150.000006616117
64,48,242079,5,0,0:0:0:0:
224,72,242492,2,0,P|258:89|298:73,2,75.0000033080583
304,328,243320,2,0,P|270:318|236:336,2,75.0000033080583
434,252,244148,2,0,P|443:218|425:184,1,75.0000033080583
407,116,244561,1,0,0:0:0:0:
394,101,244664,1,0,0:0:0:0:
379,90,244768,1,0,0:0:0:0:
357,82,244872,1,0,0:0:0:0:
335,77,244975,1,0,0:0:0:0:
312,75,245079,1,0,0:0:0:0:
291,67,245182,1,0,0:0:0:0:
272,53,245286,1,0,0:0:0:0:
264,8,245389,5,0,0:0:0:0:
176,72,245596,1,0,0:0:0:0:
88,152,245803,1,0,0:0:0:0:
176,248,246010,1,0,0:0:0:0:
320,248,246217,6,0,L|264:184,1,75.0000033080583
176,248,246630,2,0,L|232:192,1,75.0000033080583
305,117,247044,6,0,B|312:104|344:96|376:104,2,75.0000033080583
304,120,247665,2,0,B|319:120|342:144|352:176,2,75.0000033080583
303,118,248286,2,0,B|290:112|260:125|240:152,2,75.0000033080583,4|0|4,0:0|0:0|0:0,0:0:0:0:
232,272,248906,5,0,0:0:0:0:
400,272,249113,1,0,0:0:0:0:
128,96,249526,6,0,P|160:64|192:64,1,75.0000033080583
372,62,249940,2,0,P|400:64|432:96,1,75.0000033080583
432,288,250354,6,0,P|400:320|372:321,1,75.0000033080583
187,321,250768,2,0,P|160:320|128:288,1,75.0000033080583
256,328,251183,5,0,0:0:0:0:
256,296,251286,1,0,0:0:0:0:
256,256,251389,1,0,0:0:0:0:
256,224,251493,1,0,0:0:0:0:
256,192,251595,1,0,0:0:0:0:
256,160,251700,1,0,0:0:0:0:
256,128,251802,1,0,0:0:0:0:
256,96,251907,1,0,0:0:0:0:
256,64,252010,1,0,0:0:0:0:
256,192,263544,12,4,265303,0:0:0:0:
160,272,268560,5,0,0:0:0:0:
352,112,268767,1,0,0:0:0:0:
160,112,268974,5,2,3:3:0:0:
344,264,269181,1,0,3:3:0:0:
160,112,269388,5,0,0:0:0:0:
16,32,270216,1,0,0:0:0:0:
496,304,271043,1,0,0:0:0:0:
8,352,271975,6,0,L|88:320,1,75.0000033080583,2|0,0:0|0:0,0:0:0:0:
168,288,272388,1,0,0:0:0:0:
272,248,272595,1,0,0:0:0:0:
384,200,272802,5,0,0:0:0:0:
24,16,273629,1,0,0:0:0:0:
496,360,274457,1,0,0:0:0:0:
80,192,274819,5,0,0:0:0:0:
224,192,275026,1,0,0:0:0:0:
352,192,275233,2,0,L|432:192,1,75.0000033080583,4|4,0:3|0:3,0:0:0:0:
352,96,275647,1,0,0:0:0:0:
224,96,275854,1,0,0:0:0:0:
88,32,276060,5,0,0:0:0:0:
424,352,276888,1,0,0:0:0:0:
496,24,277716,1,0,0:0:0:0:
216,184,278492,6,0,L|304:184,1,75.0000033080583,4|4,0:0|0:0,0:0:0:0:
392,216,278906,2,0,P|408:184|384:152,1,75.0000033080583
392,64,279319,6,0,B|320:208|296:-8|256:8|200:208|176:176|152:152|184:80|144:80|128:160|120:72|88:32|40:96|16:144,1,450.00001984835,0|4,0:0|3:3,0:0:0:0:
16,225,282009,6,0,B|40:272|88:336|120:296|128:208|144:288|184:288|152:216|176:192|200:160|256:360|296:376|320:160|392:304,1,450.00001984835,4|2,3:3|2:2,0:0:0:0:
488,216,284698,1,2,0:0:0:0:
384,216,284905,1,0,0:0:0:0:
264,216,285112,6,0,L|176:216,1,75.0000033080583,4|4,0:0|0:0,0:0:0:0:
56,112,285526,1,0,0:0:0:0:
56,208,285733,1,0,0:0:0:0:
160,112,285940,1,0,0:0:0:0:
264,112,286147,1,0,0:0:0:0:
376,112,286354,1,0,0:0:0:0:
480,112,286560,1,0,0:0:0:0:
480,208,286768,2,0,L|480:296,1,75.0000033080583
376,288,287181,1,0,2:0:0:0:
272,288,287388,1,0,0:0:0:0:
184,296,287595,5,2,0:0:0:0:
96,200,287802,1,2,0:0:0:0:
184,80,288009,1,2,0:0:0:0:
320,80,288216,1,0,0:0:0:0:
440,168,288474,1,12,3:3:0:0:
328,240,288681,1,4,3:3:0:0:
40,40,289250,5,0,0:0:0:0:
144,40,289457,1,0,0:0:0:0:
488,352,290129,1,0,0:0:0:0:
496,256,290336,1,0,0:0:0:0:
16,224,290905,1,0,0:0:0:0:
112,224,291112,1,0,0:0:0:0:
488,24,291785,6,0,L|432:80,1,75.0000033080583,4|4,0:0|0:0,2:2:0:0:
360,144,292198,1,0,0:0:0:0:
288,56,292405,1,0,0:0:0:0:
200,0,292612,2,0,L|136:48,1,75.0000033080583
72,104,293026,1,0,0:0:0:0:
152,192,293233,1,0,0:0:0:0:
64,264,293440,2,0,L|128:208,1,75.0000033080583
200,144,293854,1,0,0:0:0:0:
312,144,294060,1,0,0:0:0:0:
352,240,294267,5,0,0:0:0:0:
456,160,294475,2,0,L|496:96,1,75.0000033080583
416,0,294888,1,0,0:0:0:0:
312,48,295095,6,0,B|320:160|280:216|256:256|256:216|224:280|232:120|184:264|96:112|64:120|48:168|64:208|136:320|272:304|224:200|160:200|136:160|176:128|176:96|152:64|120:40,2,600.000026464466,0|0|4,0:0|0:0|0:0,0:0:0:0:
416,48,298612,1,4,0:0:0:0:
456,168,298819,5,0,0:0:0:0:
344,240,299026,1,0,0:0:0:0:
456,320,299233,1,0,0:0:0:0:
344,240,299440,5,0,0:0:0:0:
248,144,299647,1,0,0:0:0:0:
160,240,299854,1,0,0:0:0:0:
248,336,300060,1,0,0:0:0:0:
160,240,300267,5,0,0:0:0:0:
80,144,300474,1,0,0:0:0:0:
0,240,300681,1,0,0:0:0:0:
72,336,300888,1,0,0:0:0:0:
171,234,301095,5,0,0:0:0:0:
248,144,301302,1,0,0:0:0:0:
320,56,301509,1,0,0:0:0:0:
392,160,301716,2,4,L|456:112,1,75.0000033080583
448,248,302129,6,2,P|384:296|312:280,2,150.000006616117
48,64,303371,5,0,0:0:0:0:
168,64,303578,1,0,0:0:0:0:
464,184,304198,1,0,0:0:0:0:
352,184,304405,1,0,0:0:0:0:
96,192,304871,1,0,0:0:0:0:
216,192,305078,2,4,L|296:192,1,75.0000033080583
256,96,305491,5,0,0:0:0:0:
176,32,305699,2,0,B|96:32|-32:128|-32:264|104:352|176:336,1,478.125021088872,0|4,0:0|3:3,0:0:0:0:
256,336,308544,2,0,B|328:352|464:264|464:128|336:32|256:32,1,478.125021088872,4|0,3:3|0:0,0:0:0:0:
216,128,311388,1,0,0:0:0:0:
216,256,311595,2,0,L|216:176,1,75.0000033080583,4|4,3:3|3:3,0:0:0:0:
128,96,312009,6,0,P|136:56|176:56,1,75.0000033080583
56,208,312422,1,2,0:0:0:0:
192,208,312629,1,2,0:0:0:0:
80,120,312837,2,0,P|101:85|138:98,1,75.0000033080583
280,144,313250,1,2,0:0:0:0:
224,0,313457,1,2,0:0:0:0:
136,96,313664,2,0,P|175:106|172:146,1,75.0000033080583
88,248,314078,6,0,P|88:288|128:304,1,75.0000033080583
136,184,314492,2,0,P|160:216|136:240,1,75.0000033080583
56,104,314906,2,0,P|56:144|96:160,1,75.0000033080583,4|4,3:3|3:3,0:0:0:0:
104,40,315319,2,0,P|128:72|104:96,1,75.0000033080583
256,104,315733,6,0,P|256:64|296:48,1,75.0000033080583
304,168,316147,2,0,P|328:136|304:112,1,75.0000033080583
224,248,316561,2,0,P|224:208|264:192,1,75.0000033080583,4|4,3:3|3:3,0:0:0:0:
272,312,316975,2,0,P|296:280|272:256,1,75.0000033080583
424,240,317388,5,0,0:0:0:0:
432,104,317595,1,0,0:0:0:0:
328,32,317802,1,0,0:0:0:0:
192,32,318009,1,0,0:0:0:0:
96,120,318216,1,4,0:0:0:0:
256,192,328147,12,0,331457,0:0:0:0:
256,72,331716,5,0,0:0:0:0:
256,264,331922,1,2,0:0:0:0:
376,168,332129,1,0,0:0:0:0:
168,168,332336,2,8,B|224:136|272:176|272:176|328:136|376:168,1,225.000009924175
168,168,333164,5,2,0:0:0:0:
256,296,333371,1,0,0:0:0:0:
376,168,333578,1,8,0:0:0:0:
216,40,333785,6,0,L|256:40,2,37.5000016540292
344,40,334198,1,0,0:0:0:0:
352,336,334612,5,0,0:0:0:0:
384,296,334715,1,0,0:0:0:0:
400,272,334819,2,0,L|408:192,1,75.0000033080583
408,160,335130,1,0,0:0:0:0:
416,128,335233,2,0,L|504:104,1,75.0000033080583
504,64,335543,1,0,0:0:0:0:
480,24,335647,2,0,L|392:16,1,75.0000033080583
352,24,335957,1,0,0:0:0:0:
312,48,336061,6,0,L|240:104,1,75.0000033080583
224,136,336371,1,0,0:0:0:0:
216,176,336475,2,0,L|168:248,1,75.0000033080583
152,288,336785,1,0,0:0:0:0:
192,312,336888,2,0,L|272:312,1,75.0000033080583
320,304,337198,1,0,0:0:0:0:
360,288,337302,2,0,L|384:216,1,75.0000033080583
360,128,337716,2,0,L|328:56,1,75.0000033080583,4|4,0:0|0:0,0:0:0:0:
248,176,338129,1,4,0:0:0:0:
264,64,338336,5,0,0:0:0:0:
136,176,338543,1,0,0:0:0:0:
288,224,338750,1,0,0:0:0:0:
424,176,338957,2,0,B|376:144|320:176|320:176|264:144|208:176,1,225.000009924175
256,304,339785,5,0,0:0:0:0:
440,304,339991,1,0,0:0:0:0:
256,304,340198,1,0,0:0:0:0:
80,304,340405,5,4,0:0:0:0:
80,56,340819,1,0,0:0:0:0:
256,176,341233,1,0,0:0:0:0:
304,176,341336,1,0,0:0:0:0:
352,176,341440,2,0,P|416:144|400:80,1,131.250005789102
78,33,342268,2,0,P|33:71|42:137,1,131.250005789102
192,336,343095,1,0,0:0:0:0:
472,176,343457,5,4,0:0:0:0:
376,72,343664,1,0,0:0:0:0:
288,176,343871,1,0,0:0:0:0:
200,72,344078,1,4,0:0:0:0:
120,176,344285,1,4,0:0:0:0:
40,72,344491,1,4,0:0:0:0:
40,248,344698,1,0,0:0:0:0:
256,320,344905,5,0,0:0:0:0:
170,246,345112,1,2,0:2:0:0:
257,142,345319,1,0,0:0:0:0:
156,30,345526,1,2,0:2:0:0:
416,264,346198,5,0,0:0:0:0:
267,281,346405,1,2,0:2:0:0:
149,187,346612,1,0,0:0:0:0:
224,57,346819,1,2,0:2:0:0:
352,72,347026,6,0,L|392:72,2,37.5000016540292
352,176,347440,1,0,0:0:0:0:
112,312,347854,1,0,0:0:0:0:
160,312,347957,1,0,0:0:0:0:
208,312,348060,1,0,0:0:0:0:
480,168,348474,1,0,0:0:0:0:
48,56,348888,6,0,P|128:95|218:182,1,206.25000909716
381,271,349664,2,0,P|376:291|331:329,1,75.0000033080583
152,293,350129,1,0,0:0:0:0:
205,152,350336,1,0,0:0:0:0:
302,36,350544,2,0,P|375:36|431:104,1,150.000006616117
415,237,351164,1,0,0:0:0:0:
267,211,351371,1,0,0:0:0:0:
153,112,351578,5,0,0:0:0:0:
208,251,351785,1,0,0:0:0:0:
59,263,351991,1,0,0:0:0:0:
12,146,352199,2,0,P|3:100|28:79,1,75.0000033080583
88,272,352819,5,0,0:0:0:0:
352,160,353026,1,0,0:0:0:0:
120,64,353232,1,0,0:0:0:0:
256,296,353439,1,0,0:0:0:0:
432,304,353647,1,0,0:0:0:0:
456,280,353750,1,0,0:0:0:0:
480,248,353854,1,0,0:0:0:0:
480,128,354060,5,0,0:0:0:0:
256,40,354267,1,0,0:0:0:0:
48,144,354474,1,0,0:0:0:0:
56,160,354578,1,0,0:0:0:0:
70,171,354681,1,0,0:0:0:0:
194,154,355095,6,0,P|218:122|259:96,1,75.0000033080583
309,238,355509,1,0,0:0:0:0:
256,96,355716,2,0,P|336:80|400:96,1,131.250005789102
448,128,356181,2,0,L|416:120,2,18.7500008270146
256,320,356698,5,0,0:0:0:0:
346,177,357164,1,0,0:0:0:0:
317,201,357267,1,0,0:0:0:0:
280,211,357371,1,0,0:0:0:0:
242,212,357474,1,0,0:0:0:0:
204,209,357578,1,0,0:0:0:0:
171,189,357681,1,0,0:0:0:0:
144,161,357785,2,0,P|134:122|160:105,1,75.0000033080583
328,64,358198,5,0,0:0:0:0:
400,208,358405,1,0,0:0:0:0:
341,320,358613,2,0,L|304:320,2,37.5000016540292
152,320,359026,1,0,0:0:0:0:
32,208,359232,1,0,0:0:0:0:
99,60,359440,6,0,L|64:72,2,37.5000016540292,0|0|0,0:0|0:0|0:0,0:0:0:0:
211,52,359854,2,0,L|173:52,2,37.5000016540292,0|0|0,0:0|0:0|0:0,0:0:0:0:
150,96,360267,5,2,0:0:0:0:
131,123,360370,1,0,0:0:0:0:
111,160,360474,1,0,0:0:0:0:
103,206,360578,1,0,0:0:0:0:
115,249,360681,1,2,0:0:0:0:
141,286,360784,1,0,0:0:0:0:
174,311,360887,1,0,0:0:0:0:
213,330,360992,1,0,0:0:0:0:
255,335,361094,5,0,0:0:0:0:
286,315,361199,1,0,0:0:0:0:
288,288,361302,2,0,L|238:231,1,75.0000033080583
240,184,361612,1,0,0:0:0:0:
256,136,361716,2,0,L|328:116,1,75.0000033080583
336,72,362025,1,0,0:0:0:0:
320,24,362130,2,0,L|245:17,1,75.0000033080583
200,32,362439,1,0,0:0:0:0:
160,64,362543,2,0,L|100:110,1,75.0000033080583
96,152,362853,1,0,0:0:0:0:
96,200,362957,2,0,L|117:271,1,75.0000033080583
160,288,363268,5,0,0:0:0:0:
208,288,363371,1,0,0:0:0:0:
256,288,363475,1,0,0:0:0:0:
304,288,363578,1,0,0:0:0:0:
352,288,363682,5,0,0:0:0:0:
408,264,363785,6,0,L|408:189,1,75.0000033080583
408,144,364095,1,0,0:0:0:0:
400,96,364199,2,0,L|343:46,1,75.0000033080583
296,40,364508,1,0,0:0:0:0:
240,40,364613,1,0,0:0:0:0:
136,88,364819,5,0,0:0:0:0:
176,112,364923,1,0,0:0:0:0:
216,136,365026,1,0,0:0:0:0:
168,280,365232,5,0,0:0:0:0:
200,248,365336,1,0,0:0:0:0:
232,216,365440,2,0,P|320:216|365:102,1,225.000009924175,2|2,2:2|2:2,2:2:0:0:
344,72,366163,5,0,0:0:0:0:
304,48,366267,1,0,0:0:0:0:
168,80,366475,5,0,0:0:0:0:
128,96,366578,1,0,0:0:0:0:
88,112,366682,1,0,0:0:0:0:
88,264,366887,5,0,0:0:0:0:
136,264,366991,1,0,0:0:0:0:
192,264,367095,2,0,L|192:226,2,37.5000016540292
240,264,367405,1,0,0:0:0:0:
296,264,367509,2,0,L|296:226,2,37.5000016540292
352,264,367818,1,0,0:0:0:0:
408,264,367923,6,0,P|448:240|450:215,1,75.0000033080583
440,168,368232,1,0,0:0:0:0:
392,152,368337,2,0,P|352:136|343:108,1,75.0000033080583
320,64,368646,1,0,0:0:0:0:
288,24,368750,2,0,P|248:0|227:11,1,75.0000033080583
184,48,369060,1,0,0:0:0:0:
176,104,369164,2,0,P|176:143|146:149,1,75.0000033080583
104,168,369474,1,0,0:0:0:0:
56,200,369578,2,0,P|16:232|19:248,1,75.0000033080583
56,288,369887,1,0,0:0:0:0:
112,304,369992,2,0,P|144:328|176:320,1,75.0000033080583
224,304,370301,1,0,0:0:0:0:
224,248,370405,5,0,0:0:0:0:
280,248,370508,1,0,0:0:0:0:
336,248,370612,1,0,0:0:0:0:
392,248,370715,1,0,0:0:0:0:
440,216,370818,1,0,0:0:0:0:
440,160,370922,1,0,0:0:0:0:
392,128,371025,1,0,0:0:0:0:
336,128,371129,1,0,0:0:0:0:
280,128,371232,1,0,0:0:0:0:
53,51,371439,5,2,3:2:0:0:
66,97,371543,1,0,0:0:0:0:
80,144,371646,1,2,2:3:0:0:
228,109,371853,1,2,3:2:0:0:
243,163,371956,1,0,0:0:0:0:
256,208,372060,1,2,3:2:0:0:
399,286,372268,2,0,L|413:322,2,37.5000016540292
53,321,372681,5,2,3:2:0:0:
66,270,372784,1,0,0:0:0:0:
82,223,372887,1,2,3:2:0:0:
197,201,373094,1,2,3:2:0:0:
214,153,373198,1,0,0:0:0:0:
226,107,373301,1,2,3:2:0:0:
372,139,373509,6,0,L|389:105,2,37.5000016540292
367,270,373923,2,0,L|381:306,2,37.5000016540292
240,317,374336,2,0,L|240:280,1,37.5000016540292
240,240,374543,6,0,L|183:190,1,75.0000033080583
144,216,374853,1,0,0:0:0:0:
160,264,374957,2,0,L|213:210,1,75.0000033080583
248,176,375267,1,0,0:0:0:0:
224,128,375371,2,0,L|174:71,1,75.0000033080583
128,88,375681,1,0,0:0:0:0:
152,144,375785,2,0,L|201:87,1,75.0000033080583
232,56,376094,1,0,0:0:0:0:
288,56,376199,2,0,L|348:101,1,75.0000033080583
392,88,376508,1,0,0:0:0:0:
368,40,376612,2,0,L|326:102,1,75.0000033080583
328,152,376922,1,0,0:0:0:0:
328,208,377026,2,0,L|381:261,1,75.0000033080583
384,320,377336,1,0,0:0:0:0:
432,352,377440,2,0,L|450:352,8,18.7500008270146
432,192,378061,6,0,L|469:192,2,37.5000016540292
256,104,378475,2,0,L|256:66,2,37.5000016540292
96,192,378888,2,0,L|58:192,2,37.5000016540292
152,320,379301,5,0,0:0:0:0:
200,320,379405,2,0,L|237:320,1,37.5000016540292
448,248,379715,1,0,0:0:0:0:
400,248,379819,2,0,L|362:248,1,37.5000016540292
120,200,380129,1,0,0:0:0:0:
168,200,380233,2,0,L|205:200,1,37.5000016540292
384,112,380543,1,0,0:0:0:0:
328,112,380646,2,0,L|290:112,1,37.5000016540292
48,48,380956,5,0,0:0:0:0:
96,48,381060,1,0,0:0:0:0:
144,64,381164,2,0,L|143:138,1,75.0000033080583
176,168,381475,1,0,0:0:0:0:
216,144,381578,2,0,L|216:69,1,75.0000033080583
256,40,381888,1,0,0:0:0:0:
296,72,381992,2,0,L|296:147,1,75.0000033080583
336,168,382301,1,0,0:0:0:0:
376,144,382406,2,0,L|376:69,1,75.0000033080583
416,40,382716,1,0,0:0:0:0:
472,72,382819,2,0,L|472:109,3,37.5000016540292
472,168,383233,2,0,L|472:205,3,37.5000016540292
456,256,383646,6,0,L|447:272,6,18.7500008270146
409,303,384009,2,0,L|394:309,17,9.37500041350729
256,192,384474,12,0,387733,0:0:0:0:
256,192,387785,12,0,390888,0:0:0:0:
256,184,391095,5,0,0:0:0:0:
80,136,391302,6,0,L|120:136,2,37.5000016540292
256,112,391664,1,0,0:0:0:0:
456,136,391923,1,0,0:0:0:0:
352,312,392130,2,0,L|352:264,2,37.5000016540292
168,312,392544,1,0,0:0:0:0:
312,168,392750,1,0,0:0:0:0:
96,136,392957,2,0,L|136:136,2,37.5000016540292
216,40,393371,5,0,0:0:0:0:
264,40,393475,1,0,0:0:0:0:
312,40,393578,1,0,0:0:0:0:
424,168,393785,1,0,0:0:0:0:
376,168,393888,1,0,0:0:0:0:
328,168,393992,1,0,0:0:0:0:
184,168,394199,1,0,0:0:0:0:
256,192,394457,12,4,397664,3:3:0:0:
184,192,397871,5,0,0:0:0:0:
320,192,398078,1,0,0:0:0:0:
88,56,398492,5,0,0:0:0:0:
256,56,398699,1,0,0:0:0:0:
424,56,398906,1,0,0:0:0:0:
40,192,399319,5,0,0:0:0:0:
256,192,399526,1,0,0:0:0:0:
472,192,399733,1,0,0:0:0:0:
88,320,400147,5,4,0:0:0:0:
256,320,400354,1,4,0:0:0:0:
424,320,400561,1,4,0:0:0:0:
144,192,400974,5,0,0:0:0:0:
200,192,401078,1,0,0:0:0:0:
256,192,401181,1,0,0:0:0:0:
312,192,401285,1,0,0:0:0:0:
368,192,401388,1,0,0:0:0:0:
256,80,401802,5,0,0:0:0:0:
256,136,401906,1,0,0:0:0:0:
256,192,402009,1,0,0:0:0:0:
256,248,402113,1,0,0:0:0:0:
256,304,402216,1,0,0:0:0:0:
176,112,402629,5,0,0:0:0:0:
216,152,402733,1,0,0:0:0:0:
256,192,402836,1,0,0:0:0:0:
295,231,402940,1,0,0:0:0:0:
335,271,403043,1,0,0:0:0:0:
176,271,403457,5,0,0:0:0:0:
216,231,403561,1,0,0:0:0:0:
256,192,403664,1,0,0:0:0:0:
295,152,403768,1,0,0:0:0:0:
335,112,403871,1,0,0:0:0:0:
64,64,404285,5,4,0:0:0:0:
456,64,404750,1,4,0:0:0:0:
256,328,405165,1,4,0:0:0:0:
256,32,405579,1,4,0:0:0:0:
432,312,405992,1,4,0:0:0:0:
352,24,406406,1,4,0:0:0:0:
88,320,406768,1,4,0:0:0:0:
128,288,406872,1,0,0:0:0:0:
168,256,406975,1,0,0:0:0:0:
200,232,407079,1,0,0:0:0:0:
240,200,407182,1,4,0:0:0:0:
98,76,407441,5,4,3:3:0:0:
245,49,407648,1,4,3:3:0:0:
356,148,407855,1,4,3:3:0:0:
467,48,408061,5,4,0:0:0:0:
56,64,408475,1,4,0:0:0:0:
256,328,408888,1,4,0:0:0:0:
256,32,409302,1,4,0:0:0:0:
80,312,409716,1,4,0:0:0:0:
160,24,410130,1,4,0:0:0:0:
424,320,410491,1,4,0:0:0:0:
384,288,410595,1,0,0:0:0:0:
344,256,410698,1,0,0:0:0:0:
312,232,410802,1,0,0:0:0:0:
272,200,410905,1,4,0:0:0:0:
256,192,410957,12,0,414216,0:0:0:0:
256,192,414319,5,0,0:0:0:0:
256,192,414422,1,0,0:0:0:0:
256,192,414526,1,0,0:0:0:0:
256,192,414629,1,2,0:0:0:0:
336,88,415095,2,2,L|376:88,4,37.5000016540292,0|0|0|0|2,0:0|0:0|0:0|0:0|0:0,0:0:0:0:
128,296,415923,2,2,L|90:296,4,37.5000016540292,0|0|0|0|2,0:0|0:0|0:0|0:0|0:0,0:0:0:0:
48,32,416699,2,2,L|88:32,4,37.5000016540292,0|0|0|0|2,0:0|0:0|0:0|0:0|0:0,0:0:0:0:
440,320,417578,2,2,L|480:320,4,37.5000016540292,0|0|0|0|2,0:0|0:0|0:0|0:0|0:0,0:0:0:0:
450,135,418406,6,0,P|436:78|347:51,1,150.000006616117
177,63,419233,2,0,L|99:100,1,75.0000033080583
99,185,419647,2,0,L|158:266,1,75.0000033080583
223,286,420061,2,0,L|307:290,1,75.0000033080583
376,245,420475,2,0,L|429:164,1,75.0000033080583
402,93,420888,1,0,0:0:0:0:
226,50,421302,6,0,B|220:80|202:101|172:120,1,75.0000033080583
131,183,421716,2,0,B|110:223|104:257|134:291,1,75.0000033080583
168,327,422130,2,0,B|186:346|211:358|246:356,1,75.0000033080583
321,326,422544,5,0,0:0:0:0:
220,43,422957,1,0,0:0:0:0:
56,294,423371,1,0,0:0:0:0:
322,155,423785,1,0,0:0:0:0:
85,107,424199,6,0,P|98:56|136:35,1,75.0000033080583
150,36,424509,1,0,0:0:0:0:
256,184,434130,5,0,0:0:0:0:
115,132,434544,1,0,0:0:0:0:
257,84,434957,1,0,0:0:0:0:
397,133,435371,1,0,0:0:0:0:
256,192,435785,12,0,437440,0:0:0:0:
96,192,444009,5,2,0:0:0:0:
96,192,444112,1,2,0:0:0:0:
96,192,444216,1,2,0:0:0:0:
96,192,444319,1,2,0:0:0:0:
96,192,444422,1,2,0:0:0:0:
464,48,444837,5,2,0:0:0:0:
464,48,444940,1,2,0:0:0:0:
464,48,445044,1,2,0:0:0:0:
464,48,445147,1,2,0:0:0:0:
464,48,445250,1,2,0:0:0:0:
320,328,445665,5,2,0:0:0:0:
320,328,445768,1,2,0:0:0:0:
320,328,445872,1,2,0:0:0:0:
320,328,445975,1,2,0:0:0:0:
320,328,446078,1,2,0:0:0:0:
184,32,446493,5,2,0:0:0:0:
184,32,446596,1,2,0:0:0:0:
184,32,446700,1,2,0:0:0:0:
184,32,446803,1,2,0:0:0:0:
184,32,446906,1,2,0:0:0:0:
464,256,447320,5,2,0:0:0:0:
464,256,447423,1,2,0:0:0:0:
464,256,447527,1,2,0:0:0:0:
464,256,447630,1,2,0:0:0:0:
464,256,447733,1,2,0:0:0:0:
80,272,448148,5,2,0:0:0:0:
80,272,448251,1,2,0:0:0:0:
80,272,448355,1,2,0:0:0:0:
80,272,448458,1,2,0:0:0:0:
80,272,448561,1,2,0:0:0:0:
440,88,448975,5,2,0:0:0:0:
440,88,449078,1,2,0:0:0:0:
440,88,449182,1,2,0:0:0:0:
440,88,449285,1,2,0:0:0:0:
440,88,449388,1,2,0:0:0:0:
112,72,449803,5,2,0:0:0:0:
112,112,449906,1,2,0:0:0:0:
112,152,450010,1,2,0:0:0:0:
128,192,450113,1,2,0:0:0:0:
168,216,450216,1,2,0:0:0:0:
216,224,450320,5,2,0:0:0:0:
264,216,450423,1,2,0:0:0:0:
304,192,450527,1,2,0:0:0:0:
328,160,450630,1,6,0:0:0:0:
256,192,450682,12,0,453941,0:0:0:0:
256,184,454148,5,0,0:0:0:0:
256,88,454355,1,0,0:0:0:0:
224,40,454561,2,0,P|267:24|294:53,1,75.0000033080583
144,184,457302,5,0,0:0:0:0:
376,184,457509,1,0,0:0:0:0:
120,192,460250,5,0,0:0:0:0:
304,192,460457,1,0,0:0:0:0:
488,192,460664,1,0,0:0:0:0:
400,336,460871,1,0,0:0:0:0:
208,336,461078,1,0,0:0:0:0:
80,336,461285,2,0,B|16:176|32:80|184:0|360:80,1,525.000023156408
164,74,462940,2,0,B|328:0|480:80|496:176|432:336,1,525.000023156408
