osu file format v12

[General]
AudioFilename: 1.mp3
AudioLeadIn: 2000
PreviewTime: 25906
Countdown: 0
SampleSet: Normal
StackLeniency: 0.7
Mode: 0
LetterboxInBreaks: 1

[Editor]
Bookmarks: 6706,13106,23506,38706,51506,64306
DistanceSpacing: 2
BeatDivisor: 4
GridSize: 4

[Metadata]
Title:the theme of Date A Live PV
TitleUnicode:the theme of Date A Live PV
Artist:This is Artist
ArtistUnicode:This is Artist
Creator:kyuten
Version:Insane
Source:Date A Live
Tags:
BeatmapID:229413
BeatmapSetID:83024

[Difficulty]
HPDrainRate:7
CircleSize:5
OverallDifficulty:7
ApproachRate:8
SliderMultiplier:2
SliderTickRate:1

[Events]
//Background and Video events
0,0,"bg.png",0,0
//Break Periods
//Storyboard Layer 0 (Background)
//Storyboard Layer 1 (Fail)
//Storyboard Layer 2 (Pass)
//Storyboard Layer 3 (Foreground)
//Storyboard Sound Samples
//Background Colour Transformations
3,100,163,162,255

[TimingPoints]
306,400,4,1,0,60,1,0
13106,-100,4,1,0,60,0,1
13156,-100,4,1,0,60,0,0
35506,-200,4,1,0,60,0,0
36106,-100,4,1,0,60,0,0
38706,-100,4,2,0,50,0,0
51506,-200,4,2,0,40,0,0
62706,-100,4,2,0,45,0,0
63506,-66.6666666666667,4,2,0,50,0,0
63806,-100,4,2,0,60,0,0
64306,-100,4,1,0,60,0,1
64356,-100,4,1,0,60,0,0
77106,-100,4,1,0,60,0,1
77156,-100,4,1,0,60,0,0
80306,-100,4,1,0,60,0,1
80356,-100,4,1,0,60,0,0
82506,-76.9230769230769,4,1,0,60,0,0
83106,-100,4,1,0,60,0,0
83506,-100,4,1,0,60,0,1
83556,-100,4,1,0,60,0,0
85706,-62.5,4,1,0,60,0,0
86306,-100,4,1,0,60,0,0
86706,-100,4,1,0,60,0,1
86756,-100,4,1,0,60,0,0
88906,-50,4,1,0,60,0,0
89506,-100,4,1,0,60,0,0
89906,-100,4,1,0,60,0,1
89956,-100,4,1,0,60,0,0

[Colours]
Combo1 : 0,128,255
Combo2 : 170,15,230
Combo3 : 255,128,128
Combo4 : 111,111,221

[HitObjects]
336,312,306,5,4,0:0:0:0:
176,312,1906,1,0,0:0:0:0:
256,88,3306,1,0,0:0:0:0:
256,88,3506,1,4,0:0:0:0:
256,192,5106,1,0,0:0:0:0:
384,252,5906,1,0,0:0:0:0:
256,296,6106,1,0,0:0:0:0:
128,252,6306,1,0,0:0:0:0:
184,132,6506,5,0,0:0:0:0:
196,112,6606,1,0,0:0:0:0:
208,92,6706,2,0,B|308:92,1,100,4|0,0:0|0:0,0:0:0:0:
464,8,7106,2,0,B|384:68,1,100
472,152,7506,1,0,0:0:0:0:
376,224,7706,1,0,0:0:0:0:
396,224,7806,1,0,0:0:0:0:
416,224,7906,1,0,0:0:0:0:
324,300,8106,1,0,0:0:0:0:
188,300,8306,5,0,0:0:0:0:
84,244,8506,1,0,0:0:0:0:
72,228,8606,1,0,0:0:0:0:
60,212,8706,2,0,B|160:228,1,100
256,156,9106,1,0,0:0:0:0:
428,68,9306,1,0,0:0:0:0:
440,84,9406,1,0,0:0:0:0:
452,100,9506,2,0,B|352:84,1,100
256,16,9906,5,0,0:0:0:0:
172,100,10106,1,0,0:0:0:0:
208,216,10306,1,0,0:0:0:0:
108,284,10506,1,0,0:0:0:0:
404,284,10906,1,0,0:0:0:0:
304,216,11106,1,0,0:0:0:0:
340,100,11306,1,0,0:0:0:0:
324,84,11406,1,0,0:0:0:0:
308,68,11506,1,0,0:0:0:0:
256,192,11606,12,0,12106,0:0:0:0:
280,288,12306,2,0,B|292:308,15,25
284,252,13106,6,0,B|356:184,1,100,4|0,0:0|0:0,0:0:0:0:
432,276,13506,1,0,0:0:0:0:
432,276,13706,1,0,0:0:0:0:
476,164,13906,2,0,B|404:96,1,100
288,60,14306,1,0,0:0:0:0:
288,60,14506,1,0,0:0:0:0:
200,140,14706,2,0,B|124:208,1,100,0|0,0:0|0:0,0:0:0:0:
136,328,15106,1,0,0:0:0:0:
228,252,15306,1,0,0:0:0:0:
312,140,15506,2,0,B|388:208,1,100
376,328,15906,1,0,0:0:0:0:
284,252,16106,1,0,0:0:0:0:
180,192,16306,2,0,B|80:192,1,100
132,84,16706,1,0,0:0:0:0:
132,84,16906,1,0,0:0:0:0:
332,192,17106,2,0,B|432:192,1,100
380,84,17506,1,0,0:0:0:0:
380,84,17706,1,0,0:0:0:0:
264,108,17906,5,0,0:0:0:0:
174,199,18106,1,0,0:0:0:0:
266,288,18306,1,0,0:0:0:0:
355,196,18506,1,0,0:0:0:0:
176,68,18706,5,0,0:0:0:0:
144,283,18906,1,0,0:0:0:0:
357,313,19106,1,0,0:0:0:0:
387,99,19306,1,0,0:0:0:0:
176,68,19506,6,0,B|86:109,1,100,4|0,0:0|0:0,0:0:0:0:
68,118,19806,1,0,0:0:0:0:
50,126,19906,1,0,0:0:0:0:
80,244,20106,1,0,0:0:0:0:
296,112,20306,1,0,0:0:0:0:
280,120,20406,2,0,B|188:161,1,100
170,170,20706,1,0,0:0:0:0:
200,280,20906,1,0,0:0:0:0:
336,316,21106,2,0,B|425:274,1,100
444,266,21406,1,0,0:0:0:0:
462,258,21506,1,0,0:0:0:0:
432,140,21706,1,0,0:0:0:0:
216,272,21906,1,0,0:0:0:0:
232,264,22006,2,0,B|323:222,1,100
342,214,22306,1,0,0:0:0:0:
312,104,22506,1,0,0:0:0:0:
204,144,22706,6,0,B|184:172|184:212|204:240,1,100
256,344,23106,1,0,0:0:0:0:
256,344,23306,1,0,0:0:0:0:
308,240,23506,2,0,B|328:212|328:172|308:144,1,100
256,40,23906,1,0,0:0:0:0:
256,40,24106,1,0,0:0:0:0:
144,72,24306,5,0,0:0:0:0:
136,88,24406,1,0,0:0:0:0:
128,104,24506,1,0,0:0:0:0:
120,124,24606,1,0,0:0:0:0:
140,132,24706,1,0,0:0:0:0:
149,162,24806,1,0,0:0:0:0:
159,192,24906,1,0,0:0:0:0:
168,224,25006,1,0,0:0:0:0:
200,224,25106,1,0,0:0:0:0:
192,248,25206,1,0,0:0:0:0:
240,224,25306,1,0,0:0:0:0:
236,248,25406,1,0,0:0:0:0:
272,224,25506,1,0,0:0:0:0:
276,248,25606,1,0,0:0:0:0:
312,224,25706,1,0,0:0:0:0:
320,248,25806,1,0,0:0:0:0:
344,224,25906,1,0,0:0:0:0:
368,72,26306,5,4,0:0:0:0:
444,164,26506,1,0,0:0:0:0:
444,164,26606,1,0,0:0:0:0:
444,164,26706,2,0,B|408:252|408:252|448:312,1,150,0|0,0:0|0:0,0:0:0:0:
456,356,27106,2,0,B|356:356,1,100
336,356,27406,1,0,0:0:0:0:
316,356,27506,1,0,0:0:0:0:
76,356,27906,5,0,0:0:0:0:
24,248,28106,1,0,0:0:0:0:
24,248,28206,1,0,0:0:0:0:
24,248,28306,2,0,B|40:192|40:192|20:104,1,150,0|0,0:0|0:0,0:0:0:0:
40,100,28706,1,0,0:0:0:0:
60,100,28806,1,0,0:0:0:0:
80,100,28906,1,0,0:0:0:0:
100,100,29006,1,0,0:0:0:0:
120,100,29106,1,0,0:0:0:0:
300,108,29406,5,0,0:0:0:0:
300,108,29506,2,0,B|281:206,1,100,0|0,0:0|0:0,0:0:0:0:
341,318,29906,2,0,B|360:220,1,100,0|0,0:0|0:0,0:0:0:0:
364,200,30206,1,0,0:0:0:0:
368,180,30306,1,0,0:0:0:0:
372,160,30406,1,0,0:0:0:0:
376,140,30506,1,0,0:0:0:0:
380,120,30606,1,0,0:0:0:0:
384,96,30706,1,0,0:0:0:0:
456,204,30906,5,0,0:0:0:0:
452,224,31006,1,0,0:0:0:0:
448,244,31106,1,0,0:0:0:0:
344,304,31306,1,0,0:0:0:0:
340,324,31406,1,0,0:0:0:0:
336,344,31506,1,0,0:0:0:0:
260,252,31706,1,0,0:0:0:0:
256,272,31806,1,0,0:0:0:0:
252,292,31906,2,0,B|240:348,1,50,0|0,0:0|0:0,0:0:0:0:
180,348,32106,2,0,B|128:348,1,50
112,348,32306,1,0,0:0:0:0:
36,256,32506,5,0,0:0:0:0:
40,236,32606,1,0,0:0:0:0:
44,216,32706,1,0,0:0:0:0:
160,180,32906,1,0,0:0:0:0:
156,200,33006,1,0,0:0:0:0:
152,220,33106,1,0,0:0:0:0:
268,200,33306,1,0,0:0:0:0:
272,180,33406,1,0,0:0:0:0:
276,160,33506,2,0,B|284:112,1,50,0|0,0:0|0:0,0:0:0:0:
336,76,33706,2,0,B|388:76,1,50
444,172,33906,5,0,0:0:0:0:
444,172,34106,1,0,0:0:0:0:
344,284,34306,1,0,0:0:0:0:
344,284,34506,1,0,0:0:0:0:
168,284,34706,1,0,0:0:0:0:
168,284,34906,1,0,0:0:0:0:
68,172,35106,1,0,0:0:0:0:
68,172,35306,5,0,0:0:0:0:
88,172,35406,1,0,0:0:0:0:
108,172,35506,2,0,B|164:172|164:172|196:140|196:140|252:140,1,150
264,140,36206,1,0,0:0:0:0:
280,152,36306,1,0,0:0:0:0:
296,164,36406,1,0,0:0:0:0:
312,176,36506,1,0,0:0:0:0:
328,188,36606,1,0,0:0:0:0:
344,200,36706,1,0,0:0:0:0:
360,212,36806,1,0,0:0:0:0:
376,224,36906,1,0,0:0:0:0:
392,236,37006,1,0,0:0:0:0:
440,284,37106,5,0,0:0:0:0:
432,304,37206,1,0,0:0:0:0:
312,304,37406,1,0,0:0:0:0:
320,284,37506,1,0,0:0:0:0:
192,284,37706,1,0,0:0:0:0:
184,304,37806,1,0,0:0:0:0:
56,304,38006,1,0,0:0:0:0:
64,284,38106,1,0,0:0:0:0:
256,156,38306,2,0,B|256:180,7,25
256,76,38706,5,0,0:0:0:0:
256,76,38906,1,0,0:0:0:0:
424,72,39106,1,0,0:0:0:0:
432,92,39206,1,0,0:0:0:0:
440,112,39306,1,0,0:0:0:0:
256,76,39506,5,0,0:0:0:0:
256,76,39706,1,0,0:0:0:0:
404,160,39906,1,0,0:0:0:0:
404,180,40006,1,0,0:0:0:0:
404,200,40106,1,0,0:0:0:0:
256,76,40306,5,0,0:0:0:0:
256,76,40506,1,0,0:0:0:0:
344,220,40706,1,0,0:0:0:0:
328,236,40806,1,0,0:0:0:0:
312,252,40906,1,0,0:0:0:0:
256,76,41106,5,0,0:0:0:0:
256,76,41306,1,0,0:0:0:0:
256,248,41506,1,0,0:0:0:0:
256,268,41606,1,0,0:0:0:0:
256,288,41706,1,0,0:0:0:0:
256,308,41806,1,0,0:0:0:0:
256,328,41906,5,0,0:0:0:0:
152,232,42106,1,0,0:0:0:0:
20,272,42306,1,0,0:0:0:0:
256,328,42706,1,0,0:0:0:0:
360,232,42906,1,0,0:0:0:0:
492,272,43106,1,0,0:0:0:0:
428,64,43506,1,0,0:0:0:0:
360,232,43706,1,0,0:0:0:0:
256,76,43906,1,0,0:0:0:0:
84,64,44306,1,0,0:0:0:0:
152,232,44506,1,0,0:0:0:0:
256,76,44706,1,0,0:0:0:0:
256,76,45106,5,0,0:0:0:0:
256,76,45306,1,0,0:0:0:0:
72,112,45506,1,0,0:0:0:0:
80,92,45606,1,0,0:0:0:0:
88,72,45706,1,0,0:0:0:0:
256,76,45906,5,0,0:0:0:0:
256,76,46106,1,0,0:0:0:0:
108,200,46306,1,0,0:0:0:0:
108,180,46406,1,0,0:0:0:0:
108,160,46506,1,0,0:0:0:0:
256,76,46706,5,0,0:0:0:0:
256,76,46906,1,0,0:0:0:0:
200,252,47106,1,0,0:0:0:0:
184,236,47206,1,0,0:0:0:0:
168,220,47306,1,0,0:0:0:0:
256,76,47506,5,0,0:0:0:0:
256,76,47706,1,0,0:0:0:0:
256,328,47906,1,0,0:0:0:0:
256,308,48006,1,0,0:0:0:0:
256,288,48106,1,0,0:0:0:0:
256,268,48206,1,0,0:0:0:0:
256,248,48306,5,0,0:0:0:0:
364,340,48506,1,0,0:0:0:0:
432,136,48706,1,0,0:0:0:0:
432,136,49106,1,0,0:0:0:0:
256,24,49306,1,0,0:0:0:0:
80,136,49506,1,0,0:0:0:0:
80,136,49906,1,0,0:0:0:0:
432,136,50106,1,0,0:0:0:0:
148,340,50306,1,0,0:0:0:0:
148,340,50706,1,0,0:0:0:0:
256,24,50906,1,0,0:0:0:0:
364,340,51106,1,0,0:0:0:0:
208,288,51506,5,0,0:0:0:0:
328,276,51906,2,0,B|336:331|336:331|304:371,2,100
420,352,53106,2,0,B|404:272|404:272|456:220,1,150
484,172,53906,2,0,B|456:108|456:108|428:128,1,100
324,68,54706,2,0,B|284:100|284:100|244:64,1,100
180,12,55306,1,0,0:0:0:0:
112,112,55706,1,0,0:0:0:0:
156,156,55906,1,0,0:0:0:0:
200,196,56106,1,0,0:0:0:0:
196,268,56306,6,0,B|256:316|256:316|316:268,1,150
360,308,57106,2,0,B|440:240,1,100
360,152,57906,2,0,B|436:80|436:80|388:80,1,150
360,80,58606,1,0,0:0:0:0:
332,80,58706,1,0,0:0:0:0:
308,24,58906,2,0,L|212:60,1,100
220,160,59506,6,0,P|188:192|220:224,1,100
292,224,60306,2,0,P|324:192|292:160,1,100
200,256,61106,6,0,B|200:308,1,50,0|0,0:0|0:0,0:0:0:0:
312,256,61506,2,0,B|312:308,1,50,0|0,0:0|0:0,0:0:0:0:
80,212,61906,2,0,B|80:264,1,50,0|0,0:0|0:0,0:0:0:0:
432,212,62306,2,0,B|432:264,1,50,0|0,0:0|0:0,0:0:0:0:
140,112,62706,2,0,B|140:216,1,100,0|0,0:0|0:0,0:0:0:0:
372,112,63106,2,0,B|372:216,1,100,0|0,0:0|0:0,0:0:0:0:
256,48,63506,2,0,B|256:200,1,149.999995529652,0|0,0:0|0:0,0:0:0:0:
180,292,63906,1,0,0:0:0:0:
216,308,64006,1,0,0:0:0:0:
256,316,64106,1,0,0:0:0:0:
296,308,64206,1,0,0:0:0:0:
332,292,64306,6,0,B|480:292,1,150
508,236,64706,2,0,B|444:156,1,100
456,40,65106,1,0,0:0:0:0:
336,24,65306,1,0,0:0:0:0:
348,40,65406,1,0,0:0:0:0:
360,56,65506,1,0,0:0:0:0:
284,172,65706,1,0,0:0:0:0:
180,292,65906,6,0,B|32:292,1,150
4,236,66306,2,0,B|68:156,1,100
56,40,66706,1,0,0:0:0:0:
176,24,66906,1,0,0:0:0:0:
164,40,67006,1,0,0:0:0:0:
152,56,67106,1,0,0:0:0:0:
228,172,67306,1,0,0:0:0:0:
232,348,67506,6,0,B|304:276,1,100
316,264,67806,1,0,0:0:0:0:
328,252,67906,1,0,0:0:0:0:
408,164,68106,1,0,0:0:0:0:
372,48,68306,2,0,B|300:120,1,100
288,132,68606,1,0,0:0:0:0:
276,144,68706,1,0,0:0:0:0:
264,156,68806,1,0,0:0:0:0:
252,168,68906,1,0,0:0:0:0:
240,180,69006,1,0,0:0:0:0:
228,192,69106,6,0,B|180:192,1,50
288,252,69406,2,0,B|340:252,1,50
224,312,69706,2,0,B|176:312,1,50
288,368,70006,2,0,B|340:368,1,50
464,256,70306,5,0,0:0:0:0:
464,196,70406,1,0,0:0:0:0:
464,136,70506,1,0,0:0:0:0:
464,76,70606,1,0,0:0:0:0:
464,16,70706,1,0,0:0:0:0:
332,124,70906,5,0,0:0:0:0:
320,136,71006,1,0,0:0:0:0:
308,148,71106,1,0,0:0:0:0:
208,84,71306,1,0,0:0:0:0:
196,96,71406,1,0,0:0:0:0:
184,108,71506,1,0,0:0:0:0:
80,44,71706,1,0,0:0:0:0:
68,56,71806,1,0,0:0:0:0:
56,68,71906,1,0,0:0:0:0:
24,184,72106,5,0,0:0:0:0:
36,196,72206,1,0,0:0:0:0:
48,208,72306,1,0,0:0:0:0:
168,220,72506,1,0,0:0:0:0:
180,232,72606,1,0,0:0:0:0:
192,244,72706,1,0,0:0:0:0:
308,264,72906,1,0,0:0:0:0:
320,276,73006,1,0,0:0:0:0:
332,288,73106,1,0,0:0:0:0:
444,244,73306,1,0,0:0:0:0:
444,260,73406,1,0,0:0:0:0:
444,276,73506,2,0,B|444:328,1,50,0|0,0:0|0:0,0:0:0:0:
380,324,73706,2,0,B|344:364,1,50
332,376,73906,1,0,0:0:0:0:
204,332,74106,5,0,0:0:0:0:
232,332,74206,1,0,0:0:0:0:
264,332,74306,1,0,0:0:0:0:
176,256,74506,1,0,0:0:0:0:
144,256,74606,1,0,0:0:0:0:
116,256,74706,1,0,0:0:0:0:
32,176,74906,1,0,0:0:0:0:
64,176,75006,1,0,0:0:0:0:
96,176,75106,1,0,0:0:0:0:
176,92,75306,1,0,0:0:0:0:
144,92,75406,1,0,0:0:0:0:
116,92,75506,1,0,0:0:0:0:
296,32,75706,5,0,0:0:0:0:
296,64,75806,1,0,0:0:0:0:
296,96,75906,1,0,0:0:0:0:
384,196,76106,1,0,0:0:0:0:
384,168,76206,1,0,0:0:0:0:
384,140,76306,1,0,0:0:0:0:
256,208,76506,1,0,0:0:0:0:
256,236,76606,1,0,0:0:0:0:
256,264,76706,2,0,B|256:289,7,25
256,289,77106,5,0,0:0:0:0:
160,108,77506,1,0,0:0:0:0:
352,108,77706,1,0,0:0:0:0:
256,164,78106,5,0,0:0:0:0:
208,244,78506,1,0,0:0:0:0:
304,244,78906,1,0,0:0:0:0:
220,160,79306,2,0,P|188:192|220:224,1,100
292,160,79706,2,0,P|324:192|292:224,1,100
256,348,80106,5,0,0:0:0:0:
256,288,80206,1,0,0:0:0:0:
256,228,80306,1,0,0:0:0:0:
124,100,80706,5,0,0:0:0:0:
388,100,80906,1,0,0:0:0:0:
256,124,81306,5,0,0:0:0:0:
176,264,81706,1,0,0:0:0:0:
336,264,82106,1,0,0:0:0:0:
216,148,82506,2,0,P|176:192|216:236,1,129.999994049073
296,148,82906,2,0,P|336:192|296:236,1,129.999994049073
256,348,83306,5,0,0:0:0:0:
256,256,83406,1,0,0:0:0:0:
256,164,83506,1,0,0:0:0:0:
88,92,83906,5,0,0:0:0:0:
424,92,84106,1,0,0:0:0:0:
256,80,84506,5,0,0:0:0:0:
116,304,84906,1,0,0:0:0:0:
396,304,85306,1,0,0:0:0:0:
212,136,85706,2,0,P|164:192|212:248,1,160
300,136,86106,2,0,P|348:192|300:248,1,160
256,348,86506,5,0,0:0:0:0:
256,224,86606,1,0,0:0:0:0:
256,100,86706,1,0,0:0:0:0:
52,84,87106,5,0,0:0:0:0:
460,84,87306,1,0,0:0:0:0:
256,36,87706,5,0,0:0:0:0:
32,356,88106,1,0,0:0:0:0:
480,356,88506,1,0,0:0:0:0:
208,128,88906,2,0,P|144:192|208:256,1,200
304,128,89306,2,0,P|368:192|304:256,1,200
256,348,89706,5,0,0:0:0:0:
256,192,89806,1,0,0:0:0:0:
256,36,89906,1,0,0:0:0:0:
