osu file format v13

[General]
AudioFilename: Blessing - World Edition.mp3
AudioLeadIn: 0
PreviewTime: 57886
Countdown: 0
SampleSet: Soft
StackLeniency: 0.7
Mode: 3
LetterboxInBreaks: 0
SpecialStyle: 0
WidescreenStoryboard: 1

[Editor]
DistanceSpacing: 0.8
BeatDivisor: 4
GridSize: 4
TimelineZoom: 1

[Metadata]
Title:Blessing~World Edition~
TitleUnicode:Blessing~World Edition~
Artist:Thirteen Country Artist
ArtistUnicode:Thirteen Country Artist
Creator:1164530434
Version:Drum track
Source:Nico Nico Douga
Tags:
BeatmapID:485688
BeatmapSetID:205087

[Difficulty]
HPDrainRate:8
CircleSize:7
OverallDifficulty:8
ApproachRate:5
SliderMultiplier:1.4
SliderTickRate:1

[Events]
//Background and Video events
Video,0,"Blessing.flv"
0,0,"dsddwww.png",0,0
//Break Periods
//Storyboard Layer 0 (Background)
//Storyboard Layer 1 (Fail)
//Storyboard Layer 2 (Pass)
//Storyboard Layer 3 (Foreground)
//Storyboard Sound Samples
//Background Colour Transformations
3,100,163,162,255

[TimingPoints]
2250,545.454545454546,4,2,0,70,1,0
19840,-100,4,2,0,70,0,0
58840,-100,4,2,0,70,0,0
58977,-100,4,2,0,70,0,1
85159,-100,4,2,0,70,0,0
133022,-100,4,2,0,70,0,0
133159,-100,4,2,0,70,0,1
159340,-100,4,2,0,70,0,0
196295,-100,4,2,0,70,0,0
196431,-100,4,2,0,70,0,1
213886,-100,4,2,0,70,0,0
231204,-100,4,2,0,70,0,0
231340,-100,4,2,0,70,0,1
266250,-100,4,2,0,70,0,0

[HitObjects]
329,192,1431,5,0,0:0:0:0:
109,192,1568,1,0,0:0:0:0:
329,192,1704,1,0,0:0:0:0:
402,192,2250,1,0,0:0:0:0:
109,192,2250,1,0,0:0:0:0:
256,192,2522,1,0,0:0:0:0:
402,192,2795,1,0,0:0:0:0:
109,192,2795,1,0,0:0:0:0:
256,192,3068,1,0,0:0:0:0:
402,192,3340,1,0,0:0:0:0:
109,192,3340,1,0,0:0:0:0:
256,192,3613,1,0,0:0:0:0:
402,192,3886,1,0,0:0:0:0:
109,192,3886,1,0,0:0:0:0:
256,192,4159,1,0,0:0:0:0:
402,192,4431,1,0,0:0:0:0:
109,192,4431,1,0,0:0:0:0:
256,192,4704,1,0,0:0:0:0:
402,192,4977,1,0,0:0:0:0:
109,192,4977,1,0,0:0:0:0:
256,192,5250,1,0,0:0:0:0:
402,192,5522,1,0,0:0:0:0:
109,192,5522,1,0,0:0:0:0:
256,192,5795,1,0,0:0:0:0:
256,192,6068,1,0,0:0:0:0:
402,192,6068,1,0,0:0:0:0:
109,192,6068,1,0,0:0:0:0:
256,192,6204,1,0,0:0:0:0:
256,192,6340,1,0,0:0:0:0:
256,192,6477,1,0,0:0:0:0:
402,192,6613,1,0,0:0:0:0:
109,192,6613,1,0,0:0:0:0:
256,192,6886,1,0,0:0:0:0:
402,192,7159,1,0,0:0:0:0:
109,192,7159,1,0,0:0:0:0:
256,192,7431,1,0,0:0:0:0:
402,192,7704,1,0,0:0:0:0:
109,192,7704,1,0,0:0:0:0:
256,192,7977,1,0,0:0:0:0:
402,192,8250,1,0,0:0:0:0:
109,192,8250,1,0,0:0:0:0:
256,192,8522,1,0,0:0:0:0:
402,192,8795,1,0,0:0:0:0:
109,192,8795,1,0,0:0:0:0:
256,192,9068,1,0,0:0:0:0:
402,192,9340,1,0,0:0:0:0:
109,192,9340,1,0,0:0:0:0:
329,192,9613,1,0,0:0:0:0:
256,192,9613,1,0,0:0:0:0:
329,192,9750,1,0,0:0:0:0:
329,192,9886,1,0,0:0:0:0:
402,192,9886,1,0,0:0:0:0:
109,192,9886,1,0,0:0:0:0:
329,192,10159,1,0,0:0:0:0:
256,192,10159,1,0,0:0:0:0:
329,192,10431,1,0,0:0:0:0:
402,192,10431,1,0,0:0:0:0:
109,192,10431,1,0,0:0:0:0:
256,192,10431,1,0,0:0:0:0:
329,192,10568,1,0,0:0:0:0:
329,192,10704,1,0,0:0:0:0:
256,192,10704,1,0,0:0:0:0:
329,192,10840,1,0,0:0:0:0:
475,192,10977,1,0,0:0:0:0:
36,192,10977,1,0,0:0:0:0:
402,192,10977,1,0,0:0:0:0:
109,192,11250,1,0,0:0:0:0:
256,192,11386,1,0,0:0:0:0:
182,192,11522,1,0,0:0:0:0:
109,192,11522,1,0,0:0:0:0:
256,192,11795,1,0,0:0:0:0:
109,192,11795,1,0,0:0:0:0:
256,192,12068,1,0,0:0:0:0:
109,192,12068,1,0,0:0:0:0:
109,192,12340,1,0,0:0:0:0:
256,192,12477,1,0,0:0:0:0:
182,192,12613,1,0,0:0:0:0:
109,192,12613,1,0,0:0:0:0:
256,192,12886,1,0,0:0:0:0:
109,192,12886,1,0,0:0:0:0:
182,192,13022,1,0,0:0:0:0:
256,192,13159,1,0,0:0:0:0:
109,192,13159,1,0,0:0:0:0:
109,192,13431,1,0,0:0:0:0:
256,192,13568,1,0,0:0:0:0:
182,192,13704,1,0,0:0:0:0:
109,192,13704,1,0,0:0:0:0:
256,192,13977,1,0,0:0:0:0:
109,192,13977,1,0,0:0:0:0:
256,192,14250,1,0,0:0:0:0:
109,192,14250,1,0,0:0:0:0:
109,192,14522,1,0,0:0:0:0:
256,192,14659,1,0,0:0:0:0:
182,192,14795,1,0,0:0:0:0:
109,192,14795,1,0,0:0:0:0:
256,192,15068,1,0,0:0:0:0:
109,192,15068,1,0,0:0:0:0:
182,192,15204,1,0,0:0:0:0:
256,192,15340,1,0,0:0:0:0:
109,192,15340,1,0,0:0:0:0:
109,192,15613,1,0,0:0:0:0:
256,192,15750,1,0,0:0:0:0:
182,192,15886,1,0,0:0:0:0:
109,192,15886,1,0,0:0:0:0:
256,192,16159,1,0,0:0:0:0:
109,192,16159,1,0,0:0:0:0:
256,192,16431,1,0,0:0:0:0:
109,192,16431,1,0,0:0:0:0:
109,192,16704,1,0,0:0:0:0:
256,192,16840,1,0,0:0:0:0:
182,192,16977,1,0,0:0:0:0:
109,192,16977,1,0,0:0:0:0:
256,192,17250,1,0,0:0:0:0:
109,192,17250,1,0,0:0:0:0:
182,192,17386,1,0,0:0:0:0:
256,192,17522,1,0,0:0:0:0:
109,192,17522,1,0,0:0:0:0:
109,192,17795,1,0,0:0:0:0:
256,192,17931,1,0,0:0:0:0:
182,192,18068,1,0,0:0:0:0:
109,192,18068,1,0,0:0:0:0:
256,192,18340,1,0,0:0:0:0:
109,192,18340,1,0,0:0:0:0:
182,192,18613,1,0,0:0:0:0:
109,192,18613,1,0,0:0:0:0:
256,192,18886,1,0,0:0:0:0:
109,192,18886,1,0,0:0:0:0:
182,192,19022,1,0,0:0:0:0:
475,192,19159,1,0,0:0:0:0:
36,192,19159,1,0,0:0:0:0:
402,192,19295,1,0,0:0:0:0:
256,192,19431,1,0,0:0:0:0:
256,192,19568,1,0,0:0:0:0:
475,192,19704,1,0,0:0:0:0:
36,192,19704,1,0,0:0:0:0:
256,192,19704,1,0,0:0:0:0:
256,192,19977,1,0,0:0:0:0:
402,192,20250,1,0,0:0:0:0:
109,192,20250,1,0,0:0:0:0:
256,192,20522,1,0,0:0:0:0:
402,192,20795,1,0,0:0:0:0:
109,192,20795,1,0,0:0:0:0:
256,192,21068,1,0,0:0:0:0:
109,192,21340,1,0,0:0:0:0:
402,192,21340,1,0,0:0:0:0:
256,192,21613,1,0,0:0:0:0:
402,192,21886,1,0,0:0:0:0:
109,192,21886,1,0,0:0:0:0:
256,192,22159,1,0,0:0:0:0:
402,192,22431,1,0,0:0:0:0:
109,192,22431,1,0,0:0:0:0:
256,192,22704,1,0,0:0:0:0:
109,192,22977,1,0,0:0:0:0:
402,192,22977,1,0,0:0:0:0:
256,192,23250,1,0,0:0:0:0:
402,192,23522,1,0,0:0:0:0:
109,192,23522,1,0,0:0:0:0:
256,192,23522,1,0,0:0:0:0:
256,192,23659,1,0,0:0:0:0:
256,192,23795,1,0,0:0:0:0:
256,192,23931,1,0,0:0:0:0:
402,192,24068,1,0,0:0:0:0:
109,192,24068,1,0,0:0:0:0:
256,192,24340,1,0,0:0:0:0:
109,192,24613,1,0,0:0:0:0:
402,192,24613,1,0,0:0:0:0:
256,192,24886,1,0,0:0:0:0:
402,192,25159,1,0,0:0:0:0:
109,192,25159,1,0,0:0:0:0:
256,192,25431,1,0,0:0:0:0:
402,192,25704,1,0,0:0:0:0:
109,192,25704,1,0,0:0:0:0:
256,192,25977,1,0,0:0:0:0:
402,192,26250,1,0,0:0:0:0:
109,192,26250,1,0,0:0:0:0:
256,192,26522,1,0,0:0:0:0:
402,192,26795,1,0,0:0:0:0:
109,192,26795,1,0,0:0:0:0:
256,192,27068,1,0,0:0:0:0:
402,192,27340,1,0,0:0:0:0:
109,192,27340,1,0,0:0:0:0:
256,192,27477,1,0,0:0:0:0:
256,192,27750,1,0,0:0:0:0:
256,192,27818,1,0,0:0:0:0:
256,192,27886,1,0,0:0:0:0:
109,192,27886,1,0,0:0:0:0:
475,192,28022,1,0,0:0:0:0:
256,192,28159,1,0,0:0:0:0:
256,192,28295,1,0,0:0:0:0:
402,192,28431,1,0,0:0:0:0:
109,192,28431,1,0,0:0:0:0:
475,192,28568,1,0,0:0:0:0:
256,192,28704,1,0,0:0:0:0:
402,192,28977,1,0,0:0:0:0:
109,192,28977,1,0,0:0:0:0:
256,192,29250,1,0,0:0:0:0:
402,192,29522,1,0,0:0:0:0:
109,192,29522,1,0,0:0:0:0:
256,192,29795,1,0,0:0:0:0:
402,192,30068,1,0,0:0:0:0:
109,192,30068,1,0,0:0:0:0:
256,192,30340,1,0,0:0:0:0:
402,192,30613,1,0,0:0:0:0:
109,192,30613,1,0,0:0:0:0:
256,192,30886,1,0,0:0:0:0:
402,192,31159,1,0,0:0:0:0:
109,192,31159,1,0,0:0:0:0:
256,192,31431,1,0,0:0:0:0:
402,192,31704,1,0,0:0:0:0:
109,192,31704,1,0,0:0:0:0:
256,192,31977,1,0,0:0:0:0:
256,192,32181,1,0,0:0:0:0:
109,192,32250,1,0,0:0:0:0:
402,192,32250,1,0,0:0:0:0:
256,192,32250,1,0,0:0:0:0:
256,192,32386,1,0,0:0:0:0:
256,192,32522,1,0,0:0:0:0:
256,192,32659,1,0,0:0:0:0:
402,192,32795,1,0,0:0:0:0:
109,192,32795,1,0,0:0:0:0:
256,192,33068,1,0,0:0:0:0:
402,192,33340,1,0,0:0:0:0:
109,192,33340,1,0,0:0:0:0:
256,192,33613,1,0,0:0:0:0:
402,192,33886,1,0,0:0:0:0:
109,192,33886,1,0,0:0:0:0:
256,192,34159,1,0,0:0:0:0:
109,192,34431,1,0,0:0:0:0:
402,192,34431,1,0,0:0:0:0:
256,192,34704,1,0,0:0:0:0:
402,192,34977,1,0,0:0:0:0:
109,192,34977,1,0,0:0:0:0:
256,192,35250,1,0,0:0:0:0:
402,192,35522,1,0,0:0:0:0:
109,192,35522,1,0,0:0:0:0:
256,192,35795,1,0,0:0:0:0:
256,192,36000,1,0,0:0:0:0:
109,192,36068,1,0,0:0:0:0:
402,192,36068,1,0,0:0:0:0:
256,192,36068,1,0,0:0:0:0:
256,192,36204,1,0,0:0:0:0:
256,192,36340,1,0,0:0:0:0:
256,192,36477,1,0,0:0:0:0:
402,192,36613,1,0,0:0:0:0:
109,192,36613,1,0,0:0:0:0:
475,192,36613,1,0,0:0:0:0:
256,192,36750,1,0,0:0:0:0:
475,192,36886,1,0,0:0:0:0:
402,192,37159,1,0,0:0:0:0:
109,192,37159,1,0,0:0:0:0:
36,192,37159,1,0,0:0:0:0:
182,192,37704,1,0,0:0:0:0:
402,192,38250,1,0,0:0:0:0:
109,192,38250,1,0,0:0:0:0:
329,192,38522,1,0,0:0:0:0:
182,192,38795,1,0,0:0:0:0:
402,192,39340,1,0,0:0:0:0:
109,192,39340,1,0,0:0:0:0:
182,192,39886,1,0,0:0:0:0:
402,192,40431,1,0,0:0:0:0:
109,192,40431,1,0,0:0:0:0:
329,192,40431,1,0,0:0:0:0:
182,192,40568,1,0,0:0:0:0:
329,192,40704,1,0,0:0:0:0:
182,192,40977,1,0,0:0:0:0:
402,192,41522,1,0,0:0:0:0:
109,192,41522,1,0,0:0:0:0:
182,192,42068,1,0,0:0:0:0:
402,192,42613,1,0,0:0:0:0:
109,192,42613,1,0,0:0:0:0:
329,192,42886,1,0,0:0:0:0:
182,192,43159,1,0,0:0:0:0:
402,192,43704,1,0,0:0:0:0:
109,192,43704,1,0,0:0:0:0:
329,192,43977,1,0,0:0:0:0:
182,192,44250,1,0,0:0:0:0:
402,192,44795,1,0,0:0:0:0:
109,192,44795,1,0,0:0:0:0:
329,192,45068,1,0,0:0:0:0:
329,192,45204,1,0,0:0:0:0:
182,192,45340,1,0,0:0:0:0:
182,192,45613,1,0,0:0:0:0:
329,192,45613,1,0,0:0:0:0:
182,192,45750,1,0,0:0:0:0:
109,192,45886,1,0,0:0:0:0:
475,192,45886,1,0,0:0:0:0:
329,192,46159,1,0,0:0:0:0:
182,192,46431,1,0,0:0:0:0:
329,192,46704,1,0,0:0:0:0:
402,192,46977,1,0,0:0:0:0:
109,192,46977,1,0,0:0:0:0:
329,192,47250,1,0,0:0:0:0:
182,192,47522,1,0,0:0:0:0:
475,192,47795,1,0,0:0:0:0:
402,192,48068,1,0,0:0:0:0:
109,192,48068,1,0,0:0:0:0:
329,192,48340,1,0,0:0:0:0:
182,192,48613,1,0,0:0:0:0:
329,192,48886,1,0,0:0:0:0:
402,192,49159,1,0,0:0:0:0:
109,192,49159,1,0,0:0:0:0:
329,192,49431,1,0,0:0:0:0:
182,192,49704,1,0,0:0:0:0:
475,192,49977,1,0,0:0:0:0:
402,192,50250,1,0,0:0:0:0:
109,192,50250,1,0,0:0:0:0:
329,192,50522,1,0,0:0:0:0:
182,192,50795,1,0,0:0:0:0:
329,192,51068,1,0,0:0:0:0:
402,192,51340,1,0,0:0:0:0:
109,192,51340,1,0,0:0:0:0:
329,192,51613,1,0,0:0:0:0:
182,192,51886,1,0,0:0:0:0:
475,192,52159,1,0,0:0:0:0:
402,192,52431,1,0,0:0:0:0:
109,192,52431,1,0,0:0:0:0:
329,192,52704,1,0,0:0:0:0:
182,192,52977,1,0,0:0:0:0:
329,192,53250,1,0,0:0:0:0:
402,192,53522,1,0,0:0:0:0:
109,192,53522,1,0,0:0:0:0:
329,192,53795,1,0,0:0:0:0:
182,192,54068,1,0,0:0:0:0:
109,192,54068,1,0,0:0:0:0:
402,192,54068,1,0,0:0:0:0:
182,192,54340,1,0,0:0:0:0:
475,192,54340,1,0,0:0:0:0:
182,192,54477,1,0,0:0:0:0:
475,192,56795,1,0,0:0:0:0:
36,192,56795,1,0,0:0:0:0:
256,192,56795,1,0,0:0:0:0:
256,192,57204,1,0,0:0:0:0:
182,192,57340,1,0,0:0:0:0:
256,192,57613,1,0,0:0:0:0:
182,192,57750,1,0,0:0:0:0:
329,192,57886,1,0,0:0:0:0:
256,192,57886,1,0,0:0:0:0:
256,192,58159,1,0,0:0:0:0:
182,192,58431,1,0,0:0:0:0:
256,192,58431,1,0,0:0:0:0:
182,192,58568,1,0,0:0:0:0:
182,192,58704,1,0,0:0:0:0:
182,192,58840,1,0,0:0:0:0:
36,192,58977,1,0,0:0:0:0:
475,192,58977,1,0,0:0:0:0:
256,192,58977,1,0,0:0:0:0:
109,192,59250,1,0,0:0:0:0:
256,192,59386,1,0,0:0:0:0:
182,192,59522,1,0,0:0:0:0:
109,192,59522,1,0,0:0:0:0:
256,192,59795,1,0,0:0:0:0:
109,192,59795,1,0,0:0:0:0:
256,192,60068,1,0,0:0:0:0:
109,192,60068,1,0,0:0:0:0:
109,192,60340,1,0,0:0:0:0:
256,192,60477,1,0,0:0:0:0:
182,192,60613,1,0,0:0:0:0:
109,192,60613,1,0,0:0:0:0:
109,192,60886,1,0,0:0:0:0:
256,192,60886,1,0,0:0:0:0:
256,192,61159,1,0,0:0:0:0:
109,192,61159,1,0,0:0:0:0:
109,192,61431,1,0,0:0:0:0:
256,192,61568,1,0,0:0:0:0:
182,192,61704,1,0,0:0:0:0:
109,192,61704,1,0,0:0:0:0:
256,192,61977,1,0,0:0:0:0:
109,192,61977,1,0,0:0:0:0:
256,192,62250,1,0,0:0:0:0:
109,192,62250,1,0,0:0:0:0:
109,192,62522,1,0,0:0:0:0:
256,192,62659,1,0,0:0:0:0:
182,192,62795,1,0,0:0:0:0:
109,192,62795,1,0,0:0:0:0:
256,192,63068,1,0,0:0:0:0:
109,192,63068,1,0,0:0:0:0:
182,192,63204,1,0,0:0:0:0:
256,192,63340,1,0,0:0:0:0:
109,192,63340,1,0,0:0:0:0:
109,192,63613,1,0,0:0:0:0:
256,192,63750,1,0,0:0:0:0:
182,192,63886,1,0,0:0:0:0:
109,192,63886,1,0,0:0:0:0:
256,192,64159,1,0,0:0:0:0:
109,192,64159,1,0,0:0:0:0:
256,192,64431,1,0,0:0:0:0:
109,192,64431,1,0,0:0:0:0:
109,192,64704,1,0,0:0:0:0:
256,192,64840,1,0,0:0:0:0:
182,192,64977,1,0,0:0:0:0:
109,192,64977,1,0,0:0:0:0:
256,192,65250,1,0,0:0:0:0:
109,192,65250,1,0,0:0:0:0:
256,192,65522,1,0,0:0:0:0:
109,192,65522,1,0,0:0:0:0:
109,192,65795,1,0,0:0:0:0:
256,192,65931,1,0,0:0:0:0:
182,192,66068,1,0,0:0:0:0:
109,192,66068,1,0,0:0:0:0:
256,192,66340,1,0,0:0:0:0:
109,192,66340,1,0,0:0:0:0:
256,192,66613,1,0,0:0:0:0:
182,192,66613,1,0,0:0:0:0:
109,192,66613,1,0,0:0:0:0:
256,192,66886,1,0,0:0:0:0:
109,192,66886,1,0,0:0:0:0:
256,192,67159,1,0,0:0:0:0:
182,192,67159,1,0,0:0:0:0:
475,192,67159,1,0,0:0:0:0:
256,192,67431,1,0,0:0:0:0:
256,192,67568,1,0,0:0:0:0:
475,192,67704,1,0,0:0:0:0:
182,192,67704,1,0,0:0:0:0:
256,192,67704,1,0,0:0:0:0:
109,192,67977,1,0,0:0:0:0:
256,192,68113,1,0,0:0:0:0:
182,192,68250,1,0,0:0:0:0:
109,192,68250,1,0,0:0:0:0:
256,192,68522,1,0,0:0:0:0:
109,192,68522,1,0,0:0:0:0:
256,192,68795,1,0,0:0:0:0:
109,192,68795,1,0,0:0:0:0:
109,192,69068,1,0,0:0:0:0:
256,192,69204,1,0,0:0:0:0:
182,192,69340,1,0,0:0:0:0:
109,192,69340,1,0,0:0:0:0:
256,192,69613,1,0,0:0:0:0:
109,192,69613,1,0,0:0:0:0:
256,192,69886,1,0,0:0:0:0:
109,192,69886,1,0,0:0:0:0:
109,192,70159,1,0,0:0:0:0:
256,192,70295,1,0,0:0:0:0:
182,192,70431,1,0,0:0:0:0:
109,192,70431,1,0,0:0:0:0:
256,192,70704,1,0,0:0:0:0:
109,192,70704,1,0,0:0:0:0:
256,192,70977,1,0,0:0:0:0:
109,192,70977,1,0,0:0:0:0:
109,192,71250,1,0,0:0:0:0:
256,192,71386,1,0,0:0:0:0:
182,192,71522,1,0,0:0:0:0:
109,192,71522,1,0,0:0:0:0:
256,192,71795,1,0,0:0:0:0:
109,192,71795,1,0,0:0:0:0:
182,192,71931,1,0,0:0:0:0:
256,192,72068,1,0,0:0:0:0:
109,192,72068,1,0,0:0:0:0:
109,192,72340,1,0,0:0:0:0:
256,192,72477,1,0,0:0:0:0:
182,192,72613,1,0,0:0:0:0:
109,192,72613,1,0,0:0:0:0:
256,192,72886,1,0,0:0:0:0:
109,192,72886,1,0,0:0:0:0:
256,192,73159,1,0,0:0:0:0:
109,192,73159,1,0,0:0:0:0:
109,192,73431,1,0,0:0:0:0:
256,192,73568,1,0,0:0:0:0:
182,192,73704,1,0,0:0:0:0:
109,192,73704,1,0,0:0:0:0:
256,192,73977,1,0,0:0:0:0:
109,192,73977,1,0,0:0:0:0:
182,192,74113,1,0,0:0:0:0:
256,192,74250,1,0,0:0:0:0:
109,192,74250,1,0,0:0:0:0:
109,192,74522,1,0,0:0:0:0:
256,192,74659,1,0,0:0:0:0:
182,192,74795,1,0,0:0:0:0:
109,192,74795,1,0,0:0:0:0:
256,192,75068,1,0,0:0:0:0:
109,192,75068,1,0,0:0:0:0:
182,192,75204,1,0,0:0:0:0:
256,192,75340,1,0,0:0:0:0:
109,192,75340,1,0,0:0:0:0:
256,192,75613,1,0,0:0:0:0:
402,192,75613,1,0,0:0:0:0:
256,192,75886,1,0,0:0:0:0:
475,192,75886,1,0,0:0:0:0:
402,192,76022,1,0,0:0:0:0:
256,192,76159,1,0,0:0:0:0:
329,192,76159,1,0,0:0:0:0:
402,192,76295,1,0,0:0:0:0:
256,192,76431,1,0,0:0:0:0:
475,192,76431,1,0,0:0:0:0:
36,192,76431,1,0,0:0:0:0:
109,192,76704,1,0,0:0:0:0:
256,192,76840,1,0,0:0:0:0:
182,192,76977,1,0,0:0:0:0:
109,192,76977,1,0,0:0:0:0:
256,192,77250,1,0,0:0:0:0:
109,192,77250,1,0,0:0:0:0:
256,192,77522,1,0,0:0:0:0:
109,192,77522,1,0,0:0:0:0:
109,192,77795,1,0,0:0:0:0:
256,192,77931,1,0,0:0:0:0:
182,192,78068,1,0,0:0:0:0:
109,192,78068,1,0,0:0:0:0:
256,192,78340,1,0,0:0:0:0:
109,192,78340,1,0,0:0:0:0:
256,192,78613,1,0,0:0:0:0:
109,192,78613,1,0,0:0:0:0:
109,192,78886,1,0,0:0:0:0:
256,192,79022,1,0,0:0:0:0:
182,192,79159,1,0,0:0:0:0:
109,192,79159,1,0,0:0:0:0:
256,192,79431,1,0,0:0:0:0:
109,192,79431,1,0,0:0:0:0:
256,192,79704,1,0,0:0:0:0:
109,192,79704,1,0,0:0:0:0:
109,192,79977,1,0,0:0:0:0:
256,192,80113,1,0,0:0:0:0:
182,192,80250,1,0,0:0:0:0:
109,192,80250,1,0,0:0:0:0:
256,192,80522,1,0,0:0:0:0:
109,192,80522,1,0,0:0:0:0:
182,192,80659,1,0,0:0:0:0:
256,192,80795,1,0,0:0:0:0:
109,192,80795,1,0,0:0:0:0:
109,192,81068,1,0,0:0:0:0:
256,192,81204,1,0,0:0:0:0:
182,192,81340,1,0,0:0:0:0:
109,192,81340,1,0,0:0:0:0:
256,192,81613,1,0,0:0:0:0:
109,192,81613,1,0,0:0:0:0:
256,192,81886,1,0,0:0:0:0:
109,192,81886,1,0,0:0:0:0:
109,192,82159,1,0,0:0:0:0:
256,192,82295,1,0,0:0:0:0:
182,192,82431,1,0,0:0:0:0:
109,192,82431,1,0,0:0:0:0:
256,192,82704,1,0,0:0:0:0:
109,192,82704,1,0,0:0:0:0:
256,192,82977,1,0,0:0:0:0:
109,192,82977,1,0,0:0:0:0:
109,192,83250,1,0,0:0:0:0:
256,192,83386,1,0,0:0:0:0:
182,192,83522,1,0,0:0:0:0:
109,192,83522,1,0,0:0:0:0:
256,192,83795,1,0,0:0:0:0:
109,192,83795,1,0,0:0:0:0:
182,192,84068,1,0,0:0:0:0:
256,192,84068,1,0,0:0:0:0:
109,192,84068,1,0,0:0:0:0:
256,192,84340,1,0,0:0:0:0:
109,192,84340,1,0,0:0:0:0:
182,192,84613,1,0,0:0:0:0:
256,192,84613,1,0,0:0:0:0:
36,192,84613,1,0,0:0:0:0:
475,192,84750,1,0,0:0:0:0:
402,192,84886,1,0,0:0:0:0:
256,192,84886,1,0,0:0:0:0:
329,192,85022,1,0,0:0:0:0:
36,192,85159,1,0,0:0:0:0:
475,192,85159,1,0,0:0:0:0:
256,192,85159,1,0,0:0:0:0:
402,192,85431,1,0,0:0:0:0:
256,192,85568,1,0,0:0:0:0:
182,192,85704,1,0,0:0:0:0:
402,192,85704,1,0,0:0:0:0:
256,192,85977,1,0,0:0:0:0:
402,192,85977,1,0,0:0:0:0:
256,192,86250,1,0,0:0:0:0:
402,192,86250,1,0,0:0:0:0:
402,192,86522,1,0,0:0:0:0:
256,192,86659,1,0,0:0:0:0:
182,192,86795,1,0,0:0:0:0:
402,192,86795,1,0,0:0:0:0:
256,192,87068,1,0,0:0:0:0:
402,192,87068,1,0,0:0:0:0:
256,192,87204,1,0,0:0:0:0:
256,192,87340,1,0,0:0:0:0:
402,192,87340,1,0,0:0:0:0:
402,192,87613,1,0,0:0:0:0:
256,192,87750,1,0,0:0:0:0:
182,192,87886,1,0,0:0:0:0:
402,192,87886,1,0,0:0:0:0:
256,192,88159,1,0,0:0:0:0:
402,192,88159,1,0,0:0:0:0:
256,192,88431,1,0,0:0:0:0:
402,192,88431,1,0,0:0:0:0:
402,192,88704,1,0,0:0:0:0:
256,192,88840,1,0,0:0:0:0:
182,192,88977,1,0,0:0:0:0:
402,192,88977,1,0,0:0:0:0:
256,192,89250,1,0,0:0:0:0:
402,192,89250,1,0,0:0:0:0:
182,192,89386,1,0,0:0:0:0:
256,192,89522,1,0,0:0:0:0:
402,192,89522,1,0,0:0:0:0:
402,192,89795,1,0,0:0:0:0:
256,192,89931,1,0,0:0:0:0:
182,192,90068,1,0,0:0:0:0:
402,192,90068,1,0,0:0:0:0:
256,192,90340,1,0,0:0:0:0:
402,192,90340,1,0,0:0:0:0:
256,192,90613,1,0,0:0:0:0:
402,192,90613,1,0,0:0:0:0:
402,192,90886,1,0,0:0:0:0:
256,192,91022,1,0,0:0:0:0:
182,192,91159,1,0,0:0:0:0:
402,192,91159,1,0,0:0:0:0:
256,192,91431,1,0,0:0:0:0:
402,192,91431,1,0,0:0:0:0:
256,192,91568,1,0,0:0:0:0:
256,192,91704,1,0,0:0:0:0:
402,192,91704,1,0,0:0:0:0:
402,192,91977,1,0,0:0:0:0:
256,192,92113,1,0,0:0:0:0:
182,192,92250,1,0,0:0:0:0:
402,192,92250,1,0,0:0:0:0:
256,192,92522,1,0,0:0:0:0:
402,192,92522,1,0,0:0:0:0:
182,192,92795,1,0,0:0:0:0:
402,192,92795,1,0,0:0:0:0:
256,192,93068,1,0,0:0:0:0:
182,192,93204,1,0,0:0:0:0:
256,192,93340,1,0,0:0:0:0:
475,192,93477,1,0,0:0:0:0:
402,192,93613,1,0,0:0:0:0:
329,192,93750,1,0,0:0:0:0:
36,192,93886,1,0,0:0:0:0:
256,192,93886,1,0,0:0:0:0:
475,192,93886,1,0,0:0:0:0:
256,192,94159,1,0,0:0:0:0:
402,192,94431,1,0,0:0:0:0:
109,192,94431,1,0,0:0:0:0:
256,192,94704,1,0,0:0:0:0:
256,192,94840,1,0,0:0:0:0:
402,192,94977,1,0,0:0:0:0:
109,192,94977,1,0,0:0:0:0:
256,192,95250,1,0,0:0:0:0:
109,192,95522,1,0,0:0:0:0:
402,192,95522,1,0,0:0:0:0:
256,192,95795,1,0,0:0:0:0:
256,192,95931,1,0,0:0:0:0:
402,192,96068,1,0,0:0:0:0:
109,192,96068,1,0,0:0:0:0:
256,192,96340,1,0,0:0:0:0:
402,192,96613,1,0,0:0:0:0:
109,192,96613,1,0,0:0:0:0:
256,192,96886,1,0,0:0:0:0:
256,192,97022,1,0,0:0:0:0:
402,192,97159,1,0,0:0:0:0:
109,192,97159,1,0,0:0:0:0:
256,192,97431,1,0,0:0:0:0:
402,192,97704,1,0,0:0:0:0:
109,192,97704,1,0,0:0:0:0:
256,192,97704,1,0,0:0:0:0:
256,192,97840,1,0,0:0:0:0:
256,192,97977,1,0,0:0:0:0:
256,192,98113,1,0,0:0:0:0:
402,192,98250,1,0,0:0:0:0:
109,192,98250,1,0,0:0:0:0:
475,192,98522,1,0,0:0:0:0:
402,192,98795,1,0,0:0:0:0:
109,192,98795,1,0,0:0:0:0:
256,192,99068,1,0,0:0:0:0:
256,192,99204,1,0,0:0:0:0:
402,192,99340,1,0,0:0:0:0:
109,192,99340,1,0,0:0:0:0:
256,192,99613,1,0,0:0:0:0:
109,192,99886,1,0,0:0:0:0:
402,192,99886,1,0,0:0:0:0:
256,192,100159,1,0,0:0:0:0:
256,192,100295,1,0,0:0:0:0:
402,192,100431,1,0,0:0:0:0:
109,192,100431,1,0,0:0:0:0:
475,192,100704,1,0,0:0:0:0:
402,192,100977,1,0,0:0:0:0:
109,192,100977,1,0,0:0:0:0:
256,192,101250,1,0,0:0:0:0:
256,192,101386,1,0,0:0:0:0:
402,192,101522,1,0,0:0:0:0:
109,192,101522,1,0,0:0:0:0:
256,192,101659,1,0,0:0:0:0:
256,192,101931,1,0,0:0:0:0:
256,192,102000,1,0,0:0:0:0:
256,192,102068,1,0,0:0:0:0:
402,192,102068,1,0,0:0:0:0:
109,192,102068,1,0,0:0:0:0:
329,192,102204,1,0,0:0:0:0:
256,192,102340,1,0,0:0:0:0:
256,192,102477,1,0,0:0:0:0:
256,192,102613,1,0,0:0:0:0:
109,192,102613,1,0,0:0:0:0:
402,192,102613,1,0,0:0:0:0:
329,192,102750,1,0,0:0:0:0:
256,192,102886,1,0,0:0:0:0:
402,192,103159,1,0,0:0:0:0:
109,192,103159,1,0,0:0:0:0:
256,192,103431,1,0,0:0:0:0:
402,192,103704,1,0,0:0:0:0:
109,192,103704,1,0,0:0:0:0:
256,192,103840,1,0,0:0:0:0:
256,192,103977,1,0,0:0:0:0:
109,192,104250,1,0,0:0:0:0:
402,192,104250,1,0,0:0:0:0:
256,192,104522,1,0,0:0:0:0:
402,192,104795,1,0,0:0:0:0:
109,192,104795,1,0,0:0:0:0:
256,192,104931,1,0,0:0:0:0:
256,192,105068,1,0,0:0:0:0:
402,192,105340,1,0,0:0:0:0:
109,192,105340,1,0,0:0:0:0:
256,192,105613,1,0,0:0:0:0:
402,192,105886,1,0,0:0:0:0:
109,192,105886,1,0,0:0:0:0:
256,192,106022,1,0,0:0:0:0:
256,192,106159,1,0,0:0:0:0:
256,192,106363,1,0,0:0:0:0:
402,192,106431,1,0,0:0:0:0:
109,192,106431,1,0,0:0:0:0:
256,192,106431,1,0,0:0:0:0:
256,192,106568,1,0,0:0:0:0:
256,192,106704,1,0,0:0:0:0:
256,192,106840,1,0,0:0:0:0:
109,192,106977,1,0,0:0:0:0:
402,192,106977,1,0,0:0:0:0:
256,192,107113,1,0,0:0:0:0:
256,192,107250,1,0,0:0:0:0:
109,192,107522,1,0,0:0:0:0:
402,192,107522,1,0,0:0:0:0:
256,192,107522,1,0,0:0:0:0:
256,192,107795,1,0,0:0:0:0:
402,192,108068,1,0,0:0:0:0:
109,192,108068,1,0,0:0:0:0:
256,192,108204,1,0,0:0:0:0:
256,192,108340,1,0,0:0:0:0:
402,192,108613,1,0,0:0:0:0:
256,192,108613,1,0,0:0:0:0:
109,192,108613,1,0,0:0:0:0:
256,192,108886,1,0,0:0:0:0:
402,192,109159,1,0,0:0:0:0:
109,192,109159,1,0,0:0:0:0:
256,192,109295,1,0,0:0:0:0:
256,192,109431,1,0,0:0:0:0:
109,192,109704,1,0,0:0:0:0:
402,192,109704,1,0,0:0:0:0:
256,192,109977,1,0,0:0:0:0:
256,192,110181,1,0,0:0:0:0:
402,192,110250,1,0,0:0:0:0:
109,192,110250,1,0,0:0:0:0:
256,192,110250,1,0,0:0:0:0:
256,192,110386,1,0,0:0:0:0:
256,192,110522,1,0,0:0:0:0:
256,192,110659,1,0,0:0:0:0:
329,192,110795,1,0,0:0:0:0:
256,192,110931,1,0,0:0:0:0:
329,192,111068,1,0,0:0:0:0:
36,192,111340,1,0,0:0:0:0:
475,192,111340,1,0,0:0:0:0:
402,192,111340,1,0,0:0:0:0:
109,192,111340,1,0,0:0:0:0:
256,192,111613,1,0,0:0:0:0:
182,192,111886,1,0,0:0:0:0:
329,192,111886,1,0,0:0:0:0:
256,192,112159,1,0,0:0:0:0:
402,192,112431,1,0,0:0:0:0:
109,192,112431,1,0,0:0:0:0:
256,192,112704,1,0,0:0:0:0:
329,192,112977,1,0,0:0:0:0:
182,192,112977,1,0,0:0:0:0:
475,192,113250,1,0,0:0:0:0:
402,192,113522,1,0,0:0:0:0:
109,192,113522,1,0,0:0:0:0:
256,192,113795,1,0,0:0:0:0:
182,192,114068,1,0,0:0:0:0:
329,192,114068,1,0,0:0:0:0:
256,192,114340,1,0,0:0:0:0:
402,192,114613,1,0,0:0:0:0:
109,192,114613,1,0,0:0:0:0:
182,192,114750,1,0,0:0:0:0:
256,192,114886,1,0,0:0:0:0:
182,192,115159,1,0,0:0:0:0:
329,192,115159,1,0,0:0:0:0:
475,192,115431,1,0,0:0:0:0:
402,192,115704,1,0,0:0:0:0:
109,192,115704,1,0,0:0:0:0:
256,192,115977,1,0,0:0:0:0:
182,192,116250,1,0,0:0:0:0:
329,192,116250,1,0,0:0:0:0:
256,192,116522,1,0,0:0:0:0:
402,192,116795,1,0,0:0:0:0:
109,192,116795,1,0,0:0:0:0:
256,192,117068,1,0,0:0:0:0:
329,192,117340,1,0,0:0:0:0:
182,192,117340,1,0,0:0:0:0:
475,192,117613,1,0,0:0:0:0:
402,192,117886,1,0,0:0:0:0:
109,192,117886,1,0,0:0:0:0:
256,192,118159,1,0,0:0:0:0:
329,192,118431,1,0,0:0:0:0:
182,192,118431,1,0,0:0:0:0:
256,192,118704,1,0,0:0:0:0:
402,192,118977,1,0,0:0:0:0:
109,192,118977,1,0,0:0:0:0:
256,192,119250,1,0,0:0:0:0:
182,192,119522,1,0,0:0:0:0:
329,192,119522,1,0,0:0:0:0:
182,192,119795,1,0,0:0:0:0:
256,192,119795,1,0,0:0:0:0:
182,192,119931,1,0,0:0:0:0:
475,192,120068,1,0,0:0:0:0:
36,192,120068,1,0,0:0:0:0:
109,192,120068,1,0,0:0:0:0:
402,192,120068,1,0,0:0:0:0:
256,192,120340,1,0,0:0:0:0:
329,192,120613,1,0,0:0:0:0:
182,192,120613,1,0,0:0:0:0:
256,192,120886,1,0,0:0:0:0:
402,192,121159,1,0,0:0:0:0:
109,192,121159,1,0,0:0:0:0:
256,192,121431,1,0,0:0:0:0:
329,192,121704,1,0,0:0:0:0:
182,192,121704,1,0,0:0:0:0:
475,192,121977,1,0,0:0:0:0:
402,192,122250,1,0,0:0:0:0:
109,192,122250,1,0,0:0:0:0:
256,192,122522,1,0,0:0:0:0:
329,192,122795,1,0,0:0:0:0:
182,192,122795,1,0,0:0:0:0:
256,192,123068,1,0,0:0:0:0:
402,192,123340,1,0,0:0:0:0:
109,192,123340,1,0,0:0:0:0:
182,192,123477,1,0,0:0:0:0:
256,192,123613,1,0,0:0:0:0:
182,192,123886,1,0,0:0:0:0:
329,192,123886,1,0,0:0:0:0:
475,192,124159,1,0,0:0:0:0:
109,192,124431,1,0,0:0:0:0:
402,192,124431,1,0,0:0:0:0:
256,192,124704,1,0,0:0:0:0:
329,192,124977,1,0,0:0:0:0:
182,192,124977,1,0,0:0:0:0:
256,192,125250,1,0,0:0:0:0:
402,192,125522,1,0,0:0:0:0:
109,192,125522,1,0,0:0:0:0:
256,192,125795,1,0,0:0:0:0:
329,192,126068,1,0,0:0:0:0:
182,192,126068,1,0,0:0:0:0:
475,192,126340,1,0,0:0:0:0:
402,192,126613,1,0,0:0:0:0:
109,192,126613,1,0,0:0:0:0:
256,192,126886,1,0,0:0:0:0:
329,192,127159,1,0,0:0:0:0:
182,192,127159,1,0,0:0:0:0:
256,192,127431,1,0,0:0:0:0:
402,192,127704,1,0,0:0:0:0:
109,192,127704,1,0,0:0:0:0:
256,192,127977,1,0,0:0:0:0:
329,192,128250,1,0,0:0:0:0:
182,192,128250,1,0,0:0:0:0:
402,192,128250,1,0,0:0:0:0:
256,192,128522,1,0,0:0:0:0:
182,192,128522,1,0,0:0:0:0:
182,192,128659,1,0,0:0:0:0:
475,192,130977,1,0,0:0:0:0:
256,192,130977,1,0,0:0:0:0:
36,192,130977,1,0,0:0:0:0:
256,192,131386,1,0,0:0:0:0:
182,192,131522,1,0,0:0:0:0:
402,192,131659,1,0,0:0:0:0:
329,192,131795,1,0,0:0:0:0:
182,192,131931,1,0,0:0:0:0:
256,192,132068,1,0,0:0:0:0:
256,192,132340,1,0,0:0:0:0:
182,192,132613,1,0,0:0:0:0:
256,192,132613,1,0,0:0:0:0:
182,192,132750,1,0,0:0:0:0:
182,192,132886,1,0,0:0:0:0:
182,192,133022,1,0,0:0:0:0:
36,192,133159,1,0,0:0:0:0:
475,192,133159,1,0,0:0:0:0:
256,192,133159,1,0,0:0:0:0:
109,192,133431,1,0,0:0:0:0:
256,192,133568,1,0,0:0:0:0:
182,192,133704,1,0,0:0:0:0:
109,192,133704,1,0,0:0:0:0:
256,192,133977,1,0,0:0:0:0:
109,192,133977,1,0,0:0:0:0:
256,192,134250,1,0,0:0:0:0:
109,192,134250,1,0,0:0:0:0:
109,192,134522,1,0,0:0:0:0:
256,192,134659,1,0,0:0:0:0:
182,192,134795,1,0,0:0:0:0:
109,192,134795,1,0,0:0:0:0:
256,192,135068,1,0,0:0:0:0:
109,192,135068,1,0,0:0:0:0:
256,192,135340,1,0,0:0:0:0:
109,192,135340,1,0,0:0:0:0:
109,192,135613,1,0,0:0:0:0:
256,192,135750,1,0,0:0:0:0:
182,192,135886,1,0,0:0:0:0:
109,192,135886,1,0,0:0:0:0:
256,192,136159,1,0,0:0:0:0:
109,192,136159,1,0,0:0:0:0:
256,192,136431,1,0,0:0:0:0:
109,192,136431,1,0,0:0:0:0:
109,192,136704,1,0,0:0:0:0:
256,192,136840,1,0,0:0:0:0:
182,192,136977,1,0,0:0:0:0:
109,192,136977,1,0,0:0:0:0:
256,192,137250,1,0,0:0:0:0:
109,192,137250,1,0,0:0:0:0:
182,192,137386,1,0,0:0:0:0:
256,192,137522,1,0,0:0:0:0:
109,192,137522,1,0,0:0:0:0:
109,192,137795,1,0,0:0:0:0:
256,192,137931,1,0,0:0:0:0:
182,192,138068,1,0,0:0:0:0:
109,192,138068,1,0,0:0:0:0:
256,192,138340,1,0,0:0:0:0:
109,192,138340,1,0,0:0:0:0:
256,192,138613,1,0,0:0:0:0:
109,192,138613,1,0,0:0:0:0:
109,192,138886,1,0,0:0:0:0:
256,192,139022,1,0,0:0:0:0:
182,192,139159,1,0,0:0:0:0:
109,192,139159,1,0,0:0:0:0:
256,192,139431,1,0,0:0:0:0:
109,192,139431,1,0,0:0:0:0:
182,192,139568,1,0,0:0:0:0:
256,192,139704,1,0,0:0:0:0:
109,192,139704,1,0,0:0:0:0:
109,192,139977,1,0,0:0:0:0:
256,192,140113,1,0,0:0:0:0:
182,192,140250,1,0,0:0:0:0:
109,192,140250,1,0,0:0:0:0:
256,192,140522,1,0,0:0:0:0:
109,192,140522,1,0,0:0:0:0:
256,192,140795,1,0,0:0:0:0:
182,192,140795,1,0,0:0:0:0:
109,192,140795,1,0,0:0:0:0:
256,192,141068,1,0,0:0:0:0:
109,192,141068,1,0,0:0:0:0:
256,192,141340,1,0,0:0:0:0:
475,192,141340,1,0,0:0:0:0:
182,192,141340,1,0,0:0:0:0:
256,192,141613,1,0,0:0:0:0:
256,192,141750,1,0,0:0:0:0:
256,192,141886,1,0,0:0:0:0:
475,192,141886,1,0,0:0:0:0:
182,192,141886,1,0,0:0:0:0:
109,192,142159,1,0,0:0:0:0:
256,192,142295,1,0,0:0:0:0:
182,192,142431,1,0,0:0:0:0:
109,192,142431,1,0,0:0:0:0:
256,192,142704,1,0,0:0:0:0:
109,192,142704,1,0,0:0:0:0:
256,192,142977,1,0,0:0:0:0:
109,192,142977,1,0,0:0:0:0:
109,192,143250,1,0,0:0:0:0:
256,192,143386,1,0,0:0:0:0:
182,192,143522,1,0,0:0:0:0:
109,192,143522,1,0,0:0:0:0:
256,192,143795,1,0,0:0:0:0:
109,192,143795,1,0,0:0:0:0:
256,192,144068,1,0,0:0:0:0:
109,192,144068,1,0,0:0:0:0:
109,192,144340,1,0,0:0:0:0:
256,192,144477,1,0,0:0:0:0:
182,192,144613,1,0,0:0:0:0:
109,192,144613,1,0,0:0:0:0:
256,192,144886,1,0,0:0:0:0:
109,192,144886,1,0,0:0:0:0:
256,192,145159,1,0,0:0:0:0:
109,192,145159,1,0,0:0:0:0:
109,192,145431,1,0,0:0:0:0:
256,192,145568,1,0,0:0:0:0:
182,192,145704,1,0,0:0:0:0:
109,192,145704,1,0,0:0:0:0:
256,192,145977,1,0,0:0:0:0:
109,192,145977,1,0,0:0:0:0:
182,192,146113,1,0,0:0:0:0:
256,192,146250,1,0,0:0:0:0:
109,192,146250,1,0,0:0:0:0:
109,192,146522,1,0,0:0:0:0:
256,192,146659,1,0,0:0:0:0:
182,192,146795,1,0,0:0:0:0:
109,192,146795,1,0,0:0:0:0:
256,192,147068,1,0,0:0:0:0:
109,192,147068,1,0,0:0:0:0:
256,192,147340,1,0,0:0:0:0:
109,192,147340,1,0,0:0:0:0:
109,192,147613,1,0,0:0:0:0:
256,192,147750,1,0,0:0:0:0:
182,192,147886,1,0,0:0:0:0:
109,192,147886,1,0,0:0:0:0:
256,192,148159,1,0,0:0:0:0:
109,192,148159,1,0,0:0:0:0:
182,192,148295,1,0,0:0:0:0:
256,192,148431,1,0,0:0:0:0:
109,192,148431,1,0,0:0:0:0:
109,192,148704,1,0,0:0:0:0:
256,192,148840,1,0,0:0:0:0:
182,192,148977,1,0,0:0:0:0:
109,192,148977,1,0,0:0:0:0:
256,192,149250,1,0,0:0:0:0:
109,192,149250,1,0,0:0:0:0:
182,192,149386,1,0,0:0:0:0:
256,192,149522,1,0,0:0:0:0:
109,192,149522,1,0,0:0:0:0:
256,192,149795,1,0,0:0:0:0:
402,192,149795,1,0,0:0:0:0:
256,192,150068,1,0,0:0:0:0:
475,192,150068,1,0,0:0:0:0:
402,192,150204,1,0,0:0:0:0:
256,192,150340,1,0,0:0:0:0:
329,192,150340,1,0,0:0:0:0:
402,192,150477,1,0,0:0:0:0:
256,192,150613,1,0,0:0:0:0:
475,192,150613,1,0,0:0:0:0:
36,192,150613,1,0,0:0:0:0:
109,192,150886,1,0,0:0:0:0:
256,192,151022,1,0,0:0:0:0:
182,192,151159,1,0,0:0:0:0:
109,192,151159,1,0,0:0:0:0:
256,192,151431,1,0,0:0:0:0:
109,192,151431,1,0,0:0:0:0:
256,192,151704,1,0,0:0:0:0:
109,192,151704,1,0,0:0:0:0:
109,192,151977,1,0,0:0:0:0:
256,192,152113,1,0,0:0:0:0:
182,192,152250,1,0,0:0:0:0:
109,192,152250,1,0,0:0:0:0:
256,192,152522,1,0,0:0:0:0:
109,192,152522,1,0,0:0:0:0:
256,192,152795,1,0,0:0:0:0:
109,192,152795,1,0,0:0:0:0:
109,192,153068,1,0,0:0:0:0:
256,192,153204,1,0,0:0:0:0:
182,192,153340,1,0,0:0:0:0:
109,192,153340,1,0,0:0:0:0:
256,192,153613,1,0,0:0:0:0:
109,192,153613,1,0,0:0:0:0:
256,192,153886,1,0,0:0:0:0:
109,192,153886,1,0,0:0:0:0:
109,192,154159,1,0,0:0:0:0:
256,192,154295,1,0,0:0:0:0:
182,192,154431,1,0,0:0:0:0:
109,192,154431,1,0,0:0:0:0:
256,192,154704,1,0,0:0:0:0:
109,192,154704,1,0,0:0:0:0:
182,192,154840,1,0,0:0:0:0:
256,192,154977,1,0,0:0:0:0:
109,192,154977,1,0,0:0:0:0:
109,192,155250,1,0,0:0:0:0:
256,192,155386,1,0,0:0:0:0:
182,192,155522,1,0,0:0:0:0:
109,192,155522,1,0,0:0:0:0:
256,192,155795,1,0,0:0:0:0:
109,192,155795,1,0,0:0:0:0:
256,192,156068,1,0,0:0:0:0:
109,192,156068,1,0,0:0:0:0:
109,192,156340,1,0,0:0:0:0:
256,192,156477,1,0,0:0:0:0:
182,192,156613,1,0,0:0:0:0:
109,192,156613,1,0,0:0:0:0:
256,192,156886,1,0,0:0:0:0:
109,192,156886,1,0,0:0:0:0:
256,192,157159,1,0,0:0:0:0:
402,192,157159,1,0,0:0:0:0:
182,192,157431,1,0,0:0:0:0:
256,192,157704,1,0,0:0:0:0:
402,192,157704,1,0,0:0:0:0:
182,192,157840,1,0,0:0:0:0:
182,192,157977,1,0,0:0:0:0:
256,192,158250,1,0,0:0:0:0:
402,192,158250,1,0,0:0:0:0:
182,192,158522,1,0,0:0:0:0:
256,192,158522,1,0,0:0:0:0:
256,192,158795,1,0,0:0:0:0:
36,192,158795,1,0,0:0:0:0:
475,192,158931,1,0,0:0:0:0:
402,192,159068,1,0,0:0:0:0:
256,192,159068,1,0,0:0:0:0:
329,192,159204,1,0,0:0:0:0:
256,192,159340,1,0,0:0:0:0:
109,192,159340,1,0,0:0:0:0:
475,192,159477,1,0,0:0:0:0:
256,192,159750,1,0,0:0:0:0:
475,192,159886,1,0,0:0:0:0:
182,192,159886,1,0,0:0:0:0:
256,192,160159,1,0,0:0:0:0:
475,192,160295,1,0,0:0:0:0:
256,192,160568,1,0,0:0:0:0:
475,192,160704,1,0,0:0:0:0:
256,192,160977,1,0,0:0:0:0:
182,192,161113,1,0,0:0:0:0:
182,192,161250,1,0,0:0:0:0:
182,192,161386,1,0,0:0:0:0:
475,192,161522,1,0,0:0:0:0:
36,192,161522,1,0,0:0:0:0:
256,192,161522,1,0,0:0:0:0:
182,192,162068,1,0,0:0:0:0:
329,192,162068,1,0,0:0:0:0:
256,192,162340,1,0,0:0:0:0:
402,192,162477,1,0,0:0:0:0:
402,192,162613,1,0,0:0:0:0:
109,192,162613,1,0,0:0:0:0:
256,192,162886,1,0,0:0:0:0:
329,192,163159,1,0,0:0:0:0:
182,192,163159,1,0,0:0:0:0:
256,192,163568,1,0,0:0:0:0:
475,192,163704,1,0,0:0:0:0:
109,192,163704,1,0,0:0:0:0:
402,192,163704,1,0,0:0:0:0:
182,192,164113,1,0,0:0:0:0:
402,192,164113,1,0,0:0:0:0:
475,192,164113,1,0,0:0:0:0:
402,192,164522,1,0,0:0:0:0:
475,192,164522,1,0,0:0:0:0:
182,192,164522,1,0,0:0:0:0:
256,192,164795,1,0,0:0:0:0:
402,192,164931,1,0,0:0:0:0:
475,192,164931,1,0,0:0:0:0:
182,192,164931,1,0,0:0:0:0:
329,192,165340,1,0,0:0:0:0:
475,192,165340,1,0,0:0:0:0:
109,192,165340,1,0,0:0:0:0:
182,192,165613,1,0,0:0:0:0:
182,192,165750,1,0,0:0:0:0:
402,192,165886,1,0,0:0:0:0:
109,192,165886,1,0,0:0:0:0:
329,192,166431,1,0,0:0:0:0:
182,192,166431,1,0,0:0:0:0:
256,192,166704,1,0,0:0:0:0:
402,192,166840,1,0,0:0:0:0:
402,192,166977,1,0,0:0:0:0:
109,192,166977,1,0,0:0:0:0:
256,192,167250,1,0,0:0:0:0:
182,192,167522,1,0,0:0:0:0:
329,192,167522,1,0,0:0:0:0:
109,192,168068,1,0,0:0:0:0:
182,192,168340,1,0,0:0:0:0:
256,192,168340,1,0,0:0:0:0:
109,192,168477,1,0,0:0:0:0:
109,192,168750,1,0,0:0:0:0:
182,192,168886,1,0,0:0:0:0:
256,192,168886,1,0,0:0:0:0:
109,192,169159,1,0,0:0:0:0:
109,192,169295,1,0,0:0:0:0:
182,192,169431,1,0,0:0:0:0:
256,192,169431,1,0,0:0:0:0:
475,192,169704,1,0,0:0:0:0:
402,192,169840,1,0,0:0:0:0:
182,192,169977,1,0,0:0:0:0:
36,192,170113,1,0,0:0:0:0:
182,192,170113,1,0,0:0:0:0:
36,192,170250,1,0,0:0:0:0:
475,192,170250,1,0,0:0:0:0:
402,192,170250,1,0,0:0:0:0:
329,192,170795,1,0,0:0:0:0:
182,192,170795,1,0,0:0:0:0:
256,192,171068,1,0,0:0:0:0:
402,192,171204,1,0,0:0:0:0:
402,192,171340,1,0,0:0:0:0:
109,192,171340,1,0,0:0:0:0:
256,192,171613,1,0,0:0:0:0:
329,192,171886,1,0,0:0:0:0:
182,192,171886,1,0,0:0:0:0:
475,192,172159,1,0,0:0:0:0:
109,192,172431,1,0,0:0:0:0:
475,192,172431,1,0,0:0:0:0:
36,192,172431,1,0,0:0:0:0:
256,192,172704,1,0,0:0:0:0:
182,192,172840,1,0,0:0:0:0:
182,192,172977,1,0,0:0:0:0:
256,192,173113,1,0,0:0:0:0:
182,192,173250,1,0,0:0:0:0:
256,192,173522,1,0,0:0:0:0:
475,192,173659,1,0,0:0:0:0:
402,192,173795,1,0,0:0:0:0:
329,192,173931,1,0,0:0:0:0:
182,192,174068,1,0,0:0:0:0:
475,192,174204,1,0,0:0:0:0:
402,192,174340,1,0,0:0:0:0:
402,192,174613,1,0,0:0:0:0:
109,192,174613,1,0,0:0:0:0:
256,192,174886,1,0,0:0:0:0:
329,192,175159,1,0,0:0:0:0:
182,192,175159,1,0,0:0:0:0:
256,192,175431,1,0,0:0:0:0:
402,192,175568,1,0,0:0:0:0:
402,192,175704,1,0,0:0:0:0:
109,192,175704,1,0,0:0:0:0:
256,192,175977,1,0,0:0:0:0:
475,192,175977,1,0,0:0:0:0:
402,192,176113,1,0,0:0:0:0:
329,192,176250,1,0,0:0:0:0:
182,192,176250,1,0,0:0:0:0:
36,192,176522,1,0,0:0:0:0:
402,192,176522,1,0,0:0:0:0:
109,192,176795,1,0,0:0:0:0:
475,192,176795,1,0,0:0:0:0:
182,192,176795,1,0,0:0:0:0:
475,192,177068,1,0,0:0:0:0:
109,192,177068,1,0,0:0:0:0:
182,192,177068,1,0,0:0:0:0:
475,192,177340,1,0,0:0:0:0:
109,192,177340,1,0,0:0:0:0:
182,192,177340,1,0,0:0:0:0:
109,192,177613,1,0,0:0:0:0:
475,192,177613,1,0,0:0:0:0:
182,192,177613,1,0,0:0:0:0:
475,192,177886,1,0,0:0:0:0:
109,192,177886,1,0,0:0:0:0:
182,192,177886,1,0,0:0:0:0:
182,192,178159,1,0,0:0:0:0:
109,192,178159,1,0,0:0:0:0:
182,192,178295,1,0,0:0:0:0:
475,192,178431,1,0,0:0:0:0:
36,192,178431,1,0,0:0:0:0:
256,192,178431,1,0,0:0:0:0:
329,192,178704,1,0,0:0:0:0:
109,192,178704,1,0,0:0:0:0:
329,192,178840,1,0,0:0:0:0:
475,192,178977,1,0,0:0:0:0:
36,192,178977,1,0,0:0:0:0:
256,192,178977,1,0,0:0:0:0:
256,192,179250,1,0,0:0:0:0:
402,192,179522,1,0,0:0:0:0:
109,192,179522,1,0,0:0:0:0:
256,192,179795,1,0,0:0:0:0:
402,192,180068,1,0,0:0:0:0:
109,192,180068,1,0,0:0:0:0:
256,192,180340,1,0,0:0:0:0:
402,192,180613,1,0,0:0:0:0:
109,192,180613,1,0,0:0:0:0:
256,192,180886,1,0,0:0:0:0:
109,192,181159,1,0,0:0:0:0:
402,192,181159,1,0,0:0:0:0:
256,192,181431,1,0,0:0:0:0:
402,192,181704,1,0,0:0:0:0:
109,192,181704,1,0,0:0:0:0:
256,192,181977,1,0,0:0:0:0:
109,192,182250,1,0,0:0:0:0:
402,192,182250,1,0,0:0:0:0:
256,192,182522,1,0,0:0:0:0:
109,192,182795,1,0,0:0:0:0:
402,192,182795,1,0,0:0:0:0:
256,192,182795,1,0,0:0:0:0:
256,192,182931,1,0,0:0:0:0:
256,192,183068,1,0,0:0:0:0:
256,192,183204,1,0,0:0:0:0:
402,192,183340,1,0,0:0:0:0:
109,192,183340,1,0,0:0:0:0:
256,192,183613,1,0,0:0:0:0:
402,192,183886,1,0,0:0:0:0:
109,192,183886,1,0,0:0:0:0:
256,192,184159,1,0,0:0:0:0:
402,192,184431,1,0,0:0:0:0:
109,192,184431,1,0,0:0:0:0:
256,192,184704,1,0,0:0:0:0:
402,192,184977,1,0,0:0:0:0:
109,192,184977,1,0,0:0:0:0:
256,192,185250,1,0,0:0:0:0:
402,192,185522,1,0,0:0:0:0:
109,192,185522,1,0,0:0:0:0:
256,192,185795,1,0,0:0:0:0:
256,192,186068,1,0,0:0:0:0:
402,192,186068,1,0,0:0:0:0:
109,192,186068,1,0,0:0:0:0:
475,192,186340,1,0,0:0:0:0:
402,192,186613,1,0,0:0:0:0:
109,192,186613,1,0,0:0:0:0:
475,192,186613,1,0,0:0:0:0:
475,192,186886,1,0,0:0:0:0:
475,192,187022,1,0,0:0:0:0:
402,192,187159,1,0,0:0:0:0:
109,192,187159,1,0,0:0:0:0:
36,192,187159,1,0,0:0:0:0:
475,192,187159,1,0,0:0:0:0:
402,192,187704,1,0,0:0:0:0:
109,192,187704,1,0,0:0:0:0:
475,192,187704,1,0,0:0:0:0:
36,192,187704,1,0,0:0:0:0:
109,192,187977,1,0,0:0:0:0:
475,192,188113,1,0,0:0:0:0:
109,192,188250,1,0,0:0:0:0:
256,192,188250,1,0,0:0:0:0:
475,192,188386,1,0,0:0:0:0:
109,192,188522,1,0,0:0:0:0:
475,192,188659,1,0,0:0:0:0:
109,192,188795,1,0,0:0:0:0:
256,192,188795,1,0,0:0:0:0:
475,192,188931,1,0,0:0:0:0:
109,192,189068,1,0,0:0:0:0:
475,192,189204,1,0,0:0:0:0:
109,192,189340,1,0,0:0:0:0:
256,192,189340,1,0,0:0:0:0:
475,192,189477,1,0,0:0:0:0:
109,192,189613,1,0,0:0:0:0:
475,192,189750,1,0,0:0:0:0:
109,192,189886,1,0,0:0:0:0:
256,192,189886,1,0,0:0:0:0:
475,192,190022,1,0,0:0:0:0:
109,192,190159,1,0,0:0:0:0:
475,192,190295,1,0,0:0:0:0:
256,192,190431,1,0,0:0:0:0:
109,192,190431,1,0,0:0:0:0:
475,192,190568,1,0,0:0:0:0:
109,192,190704,1,0,0:0:0:0:
475,192,190840,1,0,0:0:0:0:
256,192,190977,1,0,0:0:0:0:
109,192,190977,1,0,0:0:0:0:
475,192,191113,1,0,0:0:0:0:
109,192,191250,1,0,0:0:0:0:
475,192,191386,1,0,0:0:0:0:
256,192,191522,1,0,0:0:0:0:
109,192,191522,1,0,0:0:0:0:
475,192,191659,1,0,0:0:0:0:
182,192,191795,1,0,0:0:0:0:
256,192,192068,1,0,0:0:0:0:
109,192,192068,1,0,0:0:0:0:
475,192,192204,1,0,0:0:0:0:
109,192,192340,1,0,0:0:0:0:
475,192,192477,1,0,0:0:0:0:
256,192,192613,1,0,0:0:0:0:
109,192,192613,1,0,0:0:0:0:
475,192,192750,1,0,0:0:0:0:
182,192,192886,1,0,0:0:0:0:
256,192,193159,1,0,0:0:0:0:
475,192,193363,1,0,0:0:0:0:
182,192,193431,1,0,0:0:0:0:
256,192,193704,1,0,0:0:0:0:
182,192,193704,1,0,0:0:0:0:
182,192,193977,1,0,0:0:0:0:
256,192,194250,1,0,0:0:0:0:
475,192,194250,1,0,0:0:0:0:
36,192,194250,1,0,0:0:0:0:
475,192,195340,1,0,0:0:0:0:
36,192,195340,1,0,0:0:0:0:
256,192,195340,1,0,0:0:0:0:
256,192,195613,1,0,0:0:0:0:
182,192,195613,1,0,0:0:0:0:
256,192,195886,1,0,0:0:0:0:
402,192,195886,1,0,0:0:0:0:
182,192,196022,1,0,0:0:0:0:
256,192,196022,1,0,0:0:0:0:
402,192,196159,1,0,0:0:0:0:
256,192,196159,1,0,0:0:0:0:
329,192,196295,1,0,0:0:0:0:
256,192,196295,1,0,0:0:0:0:
256,192,196431,1,0,0:0:0:0:
475,192,196431,1,0,0:0:0:0:
36,192,196431,1,0,0:0:0:0:
109,192,196704,1,0,0:0:0:0:
256,192,196840,1,0,0:0:0:0:
182,192,196977,1,0,0:0:0:0:
109,192,196977,1,0,0:0:0:0:
256,192,197250,1,0,0:0:0:0:
109,192,197250,1,0,0:0:0:0:
256,192,197522,1,0,0:0:0:0:
109,192,197522,1,0,0:0:0:0:
109,192,197795,1,0,0:0:0:0:
256,192,197931,1,0,0:0:0:0:
182,192,198068,1,0,0:0:0:0:
109,192,198068,1,0,0:0:0:0:
256,192,198340,1,0,0:0:0:0:
109,192,198340,1,0,0:0:0:0:
256,192,198613,1,0,0:0:0:0:
109,192,198613,1,0,0:0:0:0:
109,192,198886,1,0,0:0:0:0:
256,192,199022,1,0,0:0:0:0:
182,192,199159,1,0,0:0:0:0:
109,192,199159,1,0,0:0:0:0:
256,192,199431,1,0,0:0:0:0:
109,192,199431,1,0,0:0:0:0:
256,192,199704,1,0,0:0:0:0:
109,192,199704,1,0,0:0:0:0:
109,192,199977,1,0,0:0:0:0:
256,192,200113,1,0,0:0:0:0:
182,192,200250,1,0,0:0:0:0:
109,192,200250,1,0,0:0:0:0:
256,192,200522,1,0,0:0:0:0:
109,192,200522,1,0,0:0:0:0:
256,192,200659,1,0,0:0:0:0:
256,192,200795,1,0,0:0:0:0:
109,192,200795,1,0,0:0:0:0:
109,192,201068,1,0,0:0:0:0:
256,192,201204,1,0,0:0:0:0:
182,192,201340,1,0,0:0:0:0:
109,192,201340,1,0,0:0:0:0:
256,192,201613,1,0,0:0:0:0:
109,192,201613,1,0,0:0:0:0:
256,192,201886,1,0,0:0:0:0:
109,192,201886,1,0,0:0:0:0:
109,192,202159,1,0,0:0:0:0:
256,192,202295,1,0,0:0:0:0:
182,192,202431,1,0,0:0:0:0:
109,192,202431,1,0,0:0:0:0:
256,192,202704,1,0,0:0:0:0:
109,192,202704,1,0,0:0:0:0:
256,192,202977,1,0,0:0:0:0:
109,192,202977,1,0,0:0:0:0:
109,192,203250,1,0,0:0:0:0:
256,192,203386,1,0,0:0:0:0:
182,192,203522,1,0,0:0:0:0:
109,192,203522,1,0,0:0:0:0:
256,192,203795,1,0,0:0:0:0:
109,192,203795,1,0,0:0:0:0:
256,192,204068,1,0,0:0:0:0:
182,192,204068,1,0,0:0:0:0:
109,192,204068,1,0,0:0:0:0:
256,192,204340,1,0,0:0:0:0:
109,192,204340,1,0,0:0:0:0:
256,192,204613,1,0,0:0:0:0:
475,192,204613,1,0,0:0:0:0:
182,192,204613,1,0,0:0:0:0:
256,192,204886,1,0,0:0:0:0:
256,192,205022,1,0,0:0:0:0:
256,192,205159,1,0,0:0:0:0:
475,192,205159,1,0,0:0:0:0:
182,192,205159,1,0,0:0:0:0:
109,192,205431,1,0,0:0:0:0:
256,192,205568,1,0,0:0:0:0:
182,192,205704,1,0,0:0:0:0:
109,192,205704,1,0,0:0:0:0:
256,192,205977,1,0,0:0:0:0:
109,192,205977,1,0,0:0:0:0:
256,192,206250,1,0,0:0:0:0:
109,192,206250,1,0,0:0:0:0:
109,192,206522,1,0,0:0:0:0:
256,192,206659,1,0,0:0:0:0:
182,192,206795,1,0,0:0:0:0:
109,192,206795,1,0,0:0:0:0:
256,192,207068,1,0,0:0:0:0:
109,192,207068,1,0,0:0:0:0:
256,192,207340,1,0,0:0:0:0:
109,192,207340,1,0,0:0:0:0:
109,192,207613,1,0,0:0:0:0:
256,192,207750,1,0,0:0:0:0:
182,192,207886,1,0,0:0:0:0:
109,192,207886,1,0,0:0:0:0:
256,192,208159,1,0,0:0:0:0:
109,192,208159,1,0,0:0:0:0:
256,192,208431,1,0,0:0:0:0:
109,192,208431,1,0,0:0:0:0:
109,192,208704,1,0,0:0:0:0:
256,192,208840,1,0,0:0:0:0:
182,192,208977,1,0,0:0:0:0:
109,192,208977,1,0,0:0:0:0:
256,192,209250,1,0,0:0:0:0:
109,192,209250,1,0,0:0:0:0:
182,192,209386,1,0,0:0:0:0:
256,192,209522,1,0,0:0:0:0:
109,192,209522,1,0,0:0:0:0:
109,192,209795,1,0,0:0:0:0:
256,192,209931,1,0,0:0:0:0:
182,192,210068,1,0,0:0:0:0:
109,192,210068,1,0,0:0:0:0:
256,192,210340,1,0,0:0:0:0:
109,192,210340,1,0,0:0:0:0:
256,192,210613,1,0,0:0:0:0:
109,192,210613,1,0,0:0:0:0:
109,192,210886,1,0,0:0:0:0:
256,192,211022,1,0,0:0:0:0:
182,192,211159,1,0,0:0:0:0:
109,192,211159,1,0,0:0:0:0:
256,192,211431,1,0,0:0:0:0:
109,192,211431,1,0,0:0:0:0:
182,192,211568,1,0,0:0:0:0:
256,192,211704,1,0,0:0:0:0:
109,192,211704,1,0,0:0:0:0:
109,192,211977,1,0,0:0:0:0:
256,192,212113,1,0,0:0:0:0:
182,192,212250,1,0,0:0:0:0:
109,192,212250,1,0,0:0:0:0:
256,192,212522,1,0,0:0:0:0:
109,192,212522,1,0,0:0:0:0:
182,192,212659,1,0,0:0:0:0:
256,192,212795,1,0,0:0:0:0:
109,192,212795,1,0,0:0:0:0:
182,192,213068,1,0,0:0:0:0:
402,192,213068,1,0,0:0:0:0:
182,192,213340,1,0,0:0:0:0:
256,192,213340,1,0,0:0:0:0:
182,192,213477,1,0,0:0:0:0:
182,192,213613,1,0,0:0:0:0:
182,192,213750,1,0,0:0:0:0:
475,192,213886,1,0,0:0:0:0:
36,192,213886,1,0,0:0:0:0:
256,192,213886,1,0,0:0:0:0:
256,192,214159,1,0,0:0:0:0:
402,192,214159,1,0,0:0:0:0:
256,192,214431,1,0,0:0:0:0:
402,192,214431,1,0,0:0:0:0:
475,192,214704,1,0,0:0:0:0:
256,192,214977,1,0,0:0:0:0:
475,192,214977,1,0,0:0:0:0:
475,192,215250,1,0,0:0:0:0:
256,192,215386,1,0,0:0:0:0:
182,192,215522,1,0,0:0:0:0:
475,192,215522,1,0,0:0:0:0:
475,192,215795,1,0,0:0:0:0:
256,192,215795,1,0,0:0:0:0:
256,192,216068,1,0,0:0:0:0:
475,192,216068,1,0,0:0:0:0:
36,192,216068,1,0,0:0:0:0:
256,192,216340,1,0,0:0:0:0:
402,192,216340,1,0,0:0:0:0:
402,192,216613,1,0,0:0:0:0:
256,192,216613,1,0,0:0:0:0:
475,192,216886,1,0,0:0:0:0:
475,192,217159,1,0,0:0:0:0:
256,192,217159,1,0,0:0:0:0:
475,192,217431,1,0,0:0:0:0:
256,192,217568,1,0,0:0:0:0:
475,192,217704,1,0,0:0:0:0:
182,192,217704,1,0,0:0:0:0:
475,192,217977,1,0,0:0:0:0:
256,192,217977,1,0,0:0:0:0:
256,192,218250,1,0,0:0:0:0:
475,192,218250,1,0,0:0:0:0:
36,192,218250,1,0,0:0:0:0:
402,192,218522,1,0,0:0:0:0:
256,192,218522,1,0,0:0:0:0:
256,192,218795,1,0,0:0:0:0:
402,192,218795,1,0,0:0:0:0:
475,192,219068,1,0,0:0:0:0:
475,192,219340,1,0,0:0:0:0:
256,192,219340,1,0,0:0:0:0:
475,192,219613,1,0,0:0:0:0:
256,192,219750,1,0,0:0:0:0:
475,192,219886,1,0,0:0:0:0:
182,192,219886,1,0,0:0:0:0:
475,192,220159,1,0,0:0:0:0:
256,192,220159,1,0,0:0:0:0:
256,192,220431,1,0,0:0:0:0:
109,192,220431,1,0,0:0:0:0:
109,192,220704,1,0,0:0:0:0:
475,192,220704,1,0,0:0:0:0:
256,192,220840,1,0,0:0:0:0:
402,192,220840,1,0,0:0:0:0:
109,192,220977,1,0,0:0:0:0:
182,192,220977,1,0,0:0:0:0:
36,192,221250,1,0,0:0:0:0:
256,192,221250,1,0,0:0:0:0:
402,192,221386,1,0,0:0:0:0:
109,192,221522,1,0,0:0:0:0:
256,192,221522,1,0,0:0:0:0:
475,192,221522,1,0,0:0:0:0:
36,192,221795,1,0,0:0:0:0:
256,192,221795,1,0,0:0:0:0:
475,192,221795,1,0,0:0:0:0:
402,192,221931,1,0,0:0:0:0:
475,192,222068,1,0,0:0:0:0:
256,192,222068,1,0,0:0:0:0:
329,192,222340,1,0,0:0:0:0:
402,192,222477,1,0,0:0:0:0:
475,192,222613,1,0,0:0:0:0:
36,192,222613,1,0,0:0:0:0:
256,192,222613,1,0,0:0:0:0:
402,192,222750,1,0,0:0:0:0:
329,192,222886,1,0,0:0:0:0:
402,192,223022,1,0,0:0:0:0:
256,192,223159,1,0,0:0:0:0:
182,192,223431,1,0,0:0:0:0:
256,192,223431,1,0,0:0:0:0:
36,192,223431,1,0,0:0:0:0:
329,192,223704,1,0,0:0:0:0:
256,192,223704,1,0,0:0:0:0:
402,192,223840,1,0,0:0:0:0:
475,192,223977,1,0,0:0:0:0:
402,192,224113,1,0,0:0:0:0:
256,192,224250,1,0,0:0:0:0:
36,192,224250,1,0,0:0:0:0:
256,192,224522,1,0,0:0:0:0:
182,192,224522,1,0,0:0:0:0:
36,192,224795,1,0,0:0:0:0:
256,192,224795,1,0,0:0:0:0:
475,192,224795,1,0,0:0:0:0:
402,192,224931,1,0,0:0:0:0:
329,192,225068,1,0,0:0:0:0:
402,192,225204,1,0,0:0:0:0:
256,192,225340,1,0,0:0:0:0:
256,192,225613,1,0,0:0:0:0:
182,192,225613,1,0,0:0:0:0:
36,192,225613,1,0,0:0:0:0:
256,192,225886,1,0,0:0:0:0:
329,192,225886,1,0,0:0:0:0:
402,192,226022,1,0,0:0:0:0:
475,192,226159,1,0,0:0:0:0:
402,192,226295,1,0,0:0:0:0:
256,192,226431,1,0,0:0:0:0:
36,192,226431,1,0,0:0:0:0:
475,192,226568,1,0,0:0:0:0:
402,192,226636,1,0,0:0:0:0:
256,192,226704,1,0,0:0:0:0:
182,192,226704,1,0,0:0:0:0:
402,192,226840,1,0,0:0:0:0:
256,192,226977,1,0,0:0:0:0:
36,192,226977,1,0,0:0:0:0:
475,192,226977,1,0,0:0:0:0:
402,192,227250,1,0,0:0:0:0:
182,192,227250,1,0,0:0:0:0:
402,192,227522,1,0,0:0:0:0:
182,192,227522,1,0,0:0:0:0:
256,192,227522,1,0,0:0:0:0:
402,192,227795,1,0,0:0:0:0:
182,192,227795,1,0,0:0:0:0:
402,192,228068,1,0,0:0:0:0:
182,192,228068,1,0,0:0:0:0:
256,192,228068,1,0,0:0:0:0:
402,192,228340,1,0,0:0:0:0:
182,192,228340,1,0,0:0:0:0:
402,192,228613,1,0,0:0:0:0:
182,192,228613,1,0,0:0:0:0:
256,192,228613,1,0,0:0:0:0:
402,192,228886,1,0,0:0:0:0:
182,192,228886,1,0,0:0:0:0:
36,192,229159,1,0,0:0:0:0:
256,192,229159,1,0,0:0:0:0:
182,192,229159,1,0,0:0:0:0:
182,192,229295,1,0,0:0:0:0:
182,192,229431,1,0,0:0:0:0:
182,192,229568,1,0,0:0:0:0:
36,192,229704,1,0,0:0:0:0:
182,192,229704,1,0,0:0:0:0:
256,192,229704,1,0,0:0:0:0:
182,192,229840,1,0,0:0:0:0:
182,192,229977,1,0,0:0:0:0:
182,192,230113,1,0,0:0:0:0:
256,192,230250,1,0,0:0:0:0:
402,192,230250,1,0,0:0:0:0:
182,192,230250,1,0,0:0:0:0:
402,192,230522,1,0,0:0:0:0:
182,192,230522,1,0,0:0:0:0:
182,192,230795,1,0,0:0:0:0:
402,192,230795,1,0,0:0:0:0:
256,192,230795,1,0,0:0:0:0:
182,192,230931,1,0,0:0:0:0:
182,192,231068,1,0,0:0:0:0:
182,192,231204,1,0,0:0:0:0:
256,192,231340,1,0,0:0:0:0:
475,192,231340,1,0,0:0:0:0:
36,192,231340,1,0,0:0:0:0:
109,192,231613,1,0,0:0:0:0:
256,192,231750,1,0,0:0:0:0:
182,192,231886,1,0,0:0:0:0:
109,192,231886,1,0,0:0:0:0:
256,192,232159,1,0,0:0:0:0:
109,192,232159,1,0,0:0:0:0:
256,192,232431,1,0,0:0:0:0:
109,192,232431,1,0,0:0:0:0:
109,192,232704,1,0,0:0:0:0:
256,192,232840,1,0,0:0:0:0:
109,192,232977,1,0,0:0:0:0:
182,192,232977,1,0,0:0:0:0:
109,192,233250,1,0,0:0:0:0:
256,192,233250,1,0,0:0:0:0:
109,192,233522,1,0,0:0:0:0:
256,192,233522,1,0,0:0:0:0:
109,192,233795,1,0,0:0:0:0:
256,192,233931,1,0,0:0:0:0:
109,192,234068,1,0,0:0:0:0:
182,192,234068,1,0,0:0:0:0:
109,192,234340,1,0,0:0:0:0:
256,192,234340,1,0,0:0:0:0:
109,192,234613,1,0,0:0:0:0:
256,192,234613,1,0,0:0:0:0:
109,192,234886,1,0,0:0:0:0:
256,192,235022,1,0,0:0:0:0:
109,192,235159,1,0,0:0:0:0:
182,192,235159,1,0,0:0:0:0:
109,192,235431,1,0,0:0:0:0:
256,192,235431,1,0,0:0:0:0:
182,192,235568,1,0,0:0:0:0:
109,192,235704,1,0,0:0:0:0:
256,192,235704,1,0,0:0:0:0:
109,192,235977,1,0,0:0:0:0:
256,192,236113,1,0,0:0:0:0:
182,192,236250,1,0,0:0:0:0:
109,192,236250,1,0,0:0:0:0:
256,192,236522,1,0,0:0:0:0:
109,192,236522,1,0,0:0:0:0:
256,192,236795,1,0,0:0:0:0:
109,192,236795,1,0,0:0:0:0:
109,192,237068,1,0,0:0:0:0:
256,192,237204,1,0,0:0:0:0:
182,192,237340,1,0,0:0:0:0:
109,192,237340,1,0,0:0:0:0:
256,192,237613,1,0,0:0:0:0:
109,192,237613,1,0,0:0:0:0:
182,192,237750,1,0,0:0:0:0:
256,192,237886,1,0,0:0:0:0:
109,192,237886,1,0,0:0:0:0:
109,192,238159,1,0,0:0:0:0:
256,192,238295,1,0,0:0:0:0:
182,192,238431,1,0,0:0:0:0:
109,192,238431,1,0,0:0:0:0:
256,192,238704,1,0,0:0:0:0:
109,192,238704,1,0,0:0:0:0:
256,192,238977,1,0,0:0:0:0:
109,192,238977,1,0,0:0:0:0:
182,192,238977,1,0,0:0:0:0:
256,192,239250,1,0,0:0:0:0:
109,192,239250,1,0,0:0:0:0:
475,192,239522,1,0,0:0:0:0:
256,192,239522,1,0,0:0:0:0:
256,192,239795,1,0,0:0:0:0:
256,192,239931,1,0,0:0:0:0:
475,192,240068,1,0,0:0:0:0:
256,192,240068,1,0,0:0:0:0:
36,192,240068,1,0,0:0:0:0:
109,192,240340,1,0,0:0:0:0:
256,192,240477,1,0,0:0:0:0:
182,192,240613,1,0,0:0:0:0:
109,192,240613,1,0,0:0:0:0:
256,192,240886,1,0,0:0:0:0:
109,192,240886,1,0,0:0:0:0:
256,192,241159,1,0,0:0:0:0:
109,192,241159,1,0,0:0:0:0:
109,192,241431,1,0,0:0:0:0:
256,192,241568,1,0,0:0:0:0:
182,192,241704,1,0,0:0:0:0:
109,192,241704,1,0,0:0:0:0:
256,192,241977,1,0,0:0:0:0:
109,192,241977,1,0,0:0:0:0:
256,192,242250,1,0,0:0:0:0:
109,192,242250,1,0,0:0:0:0:
109,192,242522,1,0,0:0:0:0:
256,192,242659,1,0,0:0:0:0:
182,192,242795,1,0,0:0:0:0:
109,192,242795,1,0,0:0:0:0:
256,192,243068,1,0,0:0:0:0:
109,192,243068,1,0,0:0:0:0:
256,192,243340,1,0,0:0:0:0:
109,192,243340,1,0,0:0:0:0:
109,192,243613,1,0,0:0:0:0:
256,192,243750,1,0,0:0:0:0:
182,192,243886,1,0,0:0:0:0:
109,192,243886,1,0,0:0:0:0:
256,192,244159,1,0,0:0:0:0:
109,192,244159,1,0,0:0:0:0:
182,192,244295,1,0,0:0:0:0:
256,192,244431,1,0,0:0:0:0:
109,192,244431,1,0,0:0:0:0:
109,192,244704,1,0,0:0:0:0:
256,192,244840,1,0,0:0:0:0:
182,192,244977,1,0,0:0:0:0:
109,192,244977,1,0,0:0:0:0:
256,192,245250,1,0,0:0:0:0:
109,192,245250,1,0,0:0:0:0:
256,192,245522,1,0,0:0:0:0:
109,192,245522,1,0,0:0:0:0:
109,192,245795,1,0,0:0:0:0:
256,192,245931,1,0,0:0:0:0:
182,192,246068,1,0,0:0:0:0:
109,192,246068,1,0,0:0:0:0:
256,192,246340,1,0,0:0:0:0:
109,192,246340,1,0,0:0:0:0:
182,192,246477,1,0,0:0:0:0:
256,192,246613,1,0,0:0:0:0:
109,192,246613,1,0,0:0:0:0:
109,192,246886,1,0,0:0:0:0:
256,192,247022,1,0,0:0:0:0:
182,192,247159,1,0,0:0:0:0:
109,192,247159,1,0,0:0:0:0:
256,192,247431,1,0,0:0:0:0:
109,192,247431,1,0,0:0:0:0:
182,192,247568,1,0,0:0:0:0:
256,192,247704,1,0,0:0:0:0:
402,192,247704,1,0,0:0:0:0:
182,192,247840,1,0,0:0:0:0:
182,192,247909,1,0,0:0:0:0:
182,192,247977,1,0,0:0:0:0:
182,192,248113,1,0,0:0:0:0:
256,192,248250,1,0,0:0:0:0:
475,192,248250,1,0,0:0:0:0:
182,192,248386,1,0,0:0:0:0:
182,192,248522,1,0,0:0:0:0:
182,192,248659,1,0,0:0:0:0:
256,192,248795,1,0,0:0:0:0:
475,192,248795,1,0,0:0:0:0:
36,192,248795,1,0,0:0:0:0:
475,192,249068,1,0,0:0:0:0:
256,192,249204,1,0,0:0:0:0:
182,192,249340,1,0,0:0:0:0:
475,192,249340,1,0,0:0:0:0:
256,192,249613,1,0,0:0:0:0:
475,192,249613,1,0,0:0:0:0:
256,192,249886,1,0,0:0:0:0:
475,192,249886,1,0,0:0:0:0:
475,192,250159,1,0,0:0:0:0:
256,192,250295,1,0,0:0:0:0:
182,192,250431,1,0,0:0:0:0:
475,192,250431,1,0,0:0:0:0:
256,192,250704,1,0,0:0:0:0:
475,192,250704,1,0,0:0:0:0:
182,192,250840,1,0,0:0:0:0:
256,192,250977,1,0,0:0:0:0:
475,192,250977,1,0,0:0:0:0:
475,192,251250,1,0,0:0:0:0:
256,192,251386,1,0,0:0:0:0:
182,192,251522,1,0,0:0:0:0:
475,192,251522,1,0,0:0:0:0:
256,192,251795,1,0,0:0:0:0:
475,192,251795,1,0,0:0:0:0:
256,192,252068,1,0,0:0:0:0:
475,192,252068,1,0,0:0:0:0:
475,192,252340,1,0,0:0:0:0:
256,192,252477,1,0,0:0:0:0:
182,192,252613,1,0,0:0:0:0:
475,192,252613,1,0,0:0:0:0:
256,192,252886,1,0,0:0:0:0:
475,192,252886,1,0,0:0:0:0:
182,192,253022,1,0,0:0:0:0:
256,192,253159,1,0,0:0:0:0:
475,192,253159,1,0,0:0:0:0:
475,192,253431,1,0,0:0:0:0:
256,192,253568,1,0,0:0:0:0:
475,192,253704,1,0,0:0:0:0:
182,192,253704,1,0,0:0:0:0:
475,192,253977,1,0,0:0:0:0:
256,192,253977,1,0,0:0:0:0:
475,192,254250,1,0,0:0:0:0:
256,192,254250,1,0,0:0:0:0:
475,192,254522,1,0,0:0:0:0:
256,192,254659,1,0,0:0:0:0:
182,192,254795,1,0,0:0:0:0:
475,192,254795,1,0,0:0:0:0:
256,192,255068,1,0,0:0:0:0:
475,192,255068,1,0,0:0:0:0:
182,192,255204,1,0,0:0:0:0:
256,192,255340,1,0,0:0:0:0:
475,192,255340,1,0,0:0:0:0:
475,192,255613,1,0,0:0:0:0:
256,192,255750,1,0,0:0:0:0:
182,192,255886,1,0,0:0:0:0:
475,192,255886,1,0,0:0:0:0:
256,192,256159,1,0,0:0:0:0:
475,192,256159,1,0,0:0:0:0:
182,192,256431,1,0,0:0:0:0:
256,192,256431,1,0,0:0:0:0:
182,192,256568,1,0,0:0:0:0:
182,192,256636,1,0,0:0:0:0:
182,192,256704,1,0,0:0:0:0:
182,192,256840,1,0,0:0:0:0:
36,192,256977,1,0,0:0:0:0:
182,192,257113,1,0,0:0:0:0:
182,192,257250,1,0,0:0:0:0:
475,192,257318,1,0,0:0:0:0:
402,192,257386,1,0,0:0:0:0:
329,192,257454,1,0,0:0:0:0:
256,192,257522,1,0,0:0:0:0:
475,192,257522,1,0,0:0:0:0:
36,192,257522,1,0,0:0:0:0:
475,192,257795,1,0,0:0:0:0:
256,192,257931,1,0,0:0:0:0:
182,192,258068,1,0,0:0:0:0:
475,192,258068,1,0,0:0:0:0:
256,192,258340,1,0,0:0:0:0:
475,192,258340,1,0,0:0:0:0:
256,192,258613,1,0,0:0:0:0:
475,192,258613,1,0,0:0:0:0:
475,192,258886,1,0,0:0:0:0:
256,192,259022,1,0,0:0:0:0:
182,192,259159,1,0,0:0:0:0:
475,192,259159,1,0,0:0:0:0:
256,192,259431,1,0,0:0:0:0:
475,192,259431,1,0,0:0:0:0:
256,192,259704,1,0,0:0:0:0:
475,192,259704,1,0,0:0:0:0:
475,192,259977,1,0,0:0:0:0:
256,192,260113,1,0,0:0:0:0:
182,192,260250,1,0,0:0:0:0:
475,192,260250,1,0,0:0:0:0:
256,192,260522,1,0,0:0:0:0:
475,192,260522,1,0,0:0:0:0:
256,192,260795,1,0,0:0:0:0:
475,192,260795,1,0,0:0:0:0:
475,192,261068,1,0,0:0:0:0:
256,192,261204,1,0,0:0:0:0:
182,192,261340,1,0,0:0:0:0:
475,192,261340,1,0,0:0:0:0:
256,192,261613,1,0,0:0:0:0:
475,192,261613,1,0,0:0:0:0:
182,192,261750,1,0,0:0:0:0:
256,192,261886,1,0,0:0:0:0:
475,192,261886,1,0,0:0:0:0:
475,192,262159,1,0,0:0:0:0:
256,192,262295,1,0,0:0:0:0:
182,192,262431,1,0,0:0:0:0:
475,192,262431,1,0,0:0:0:0:
256,192,262704,1,0,0:0:0:0:
475,192,262704,1,0,0:0:0:0:
256,192,262977,1,0,0:0:0:0:
475,192,262977,1,0,0:0:0:0:
475,192,263250,1,0,0:0:0:0:
256,192,263386,1,0,0:0:0:0:
182,192,263522,1,0,0:0:0:0:
475,192,263522,1,0,0:0:0:0:
256,192,263795,1,0,0:0:0:0:
475,192,263795,1,0,0:0:0:0:
182,192,263931,1,0,0:0:0:0:
256,192,264068,1,0,0:0:0:0:
475,192,264068,1,0,0:0:0:0:
475,192,264340,1,0,0:0:0:0:
256,192,264477,1,0,0:0:0:0:
182,192,264613,1,0,0:0:0:0:
475,192,264613,1,0,0:0:0:0:
256,192,264886,1,0,0:0:0:0:
475,192,264886,1,0,0:0:0:0:
256,192,265159,1,0,0:0:0:0:
182,192,265159,1,0,0:0:0:0:
402,192,265159,1,0,0:0:0:0:
402,192,265431,1,0,0:0:0:0:
182,192,265431,1,0,0:0:0:0:
256,192,265431,1,0,0:0:0:0:
182,192,265704,1,0,0:0:0:0:
256,192,265704,1,0,0:0:0:0:
36,192,265704,1,0,0:0:0:0:
182,192,265840,1,0,0:0:0:0:
182,192,265977,1,0,0:0:0:0:
182,192,266113,1,0,0:0:0:0:
256,192,266250,1,0,0:0:0:0:
475,192,266250,1,0,0:0:0:0:
36,192,266250,1,0,0:0:0:0:
