osu file format v5

[General]
AudioFilename: 10 Withered Hope.mp3
AudioLeadIn: 1996
PreviewTime: 55184
Countdown: 0
SampleSet: Normal
StackLeniency: 0.7
Mode: 0
LetterboxInBreaks: 1
EditorBookmarks: 7107,158885

[Metadata]
Title:Withered Hope
Artist:They Might Be Giants
Creator:Seibei4211
Version:Crook
Source:
Tags:

[Difficulty]
HPDrainRate:4
CircleSize:4
OverallDifficulty:4
SliderMultiplier:1.5
SliderTickRate:1

[Events]
//Background and Video events
0,0,"Withered Hope - They Might Be Giants.jpg"
//Break Periods
2,32746,33167
2,48701,54511
2,67673,67878
2,82764,88575
2,94838,95313
//Storyboard Layer 0 (Background)
//Storyboard Layer 1 (Failing)
//Storyboard Layer 2 (Passing)
//Storyboard Layer 3 (Foreground)
//Storyboard Sound Samples
//Background Colour Transformations
3,100,192,192,192

[TimingPoints]
208,431.189363995688,4,2,0,50,1
27372,-100,4,2,0,70,0
33840,-100,4,2,0,60,0
55420,-100,4,1,0,70,0
61329,-100,4,1,0,100,0
61544,-100,4,1,0,90,0
61759,-100,4,1,0,80,0
61974,-100,4,1,0,70,0
62189,-100,4,1,0,80,0
89464,-100,4,1,0,40,0
101860,-100,4,1,0,25,0
102937,-100,4,1,0,40,0
117275,-100,4,1,0,70,0
119970,-100,4,1,0,30,0
120401,-100,4,1,0,40,0
120832,-100,4,1,0,50,0
121263,-100,4,1,0,60,0
121694,-100,4,1,0,70,0
126762,-100,4,1,0,30,0
127300,-100,4,1,0,40,0
127731,-100,4,1,0,50,0
128162,-100,4,1,0,60,0
128593,-100,4,1,0,70,0
130858,-100,4,1,0,80,0
137218,-100,4,1,0,50,0
137433,-100,4,1,0,60,0
137648,-100,4,1,0,70,0
137863,-100,4,1,0,80,0
138078,-100,4,1,0,90,0
138293,-100,4,1,0,80,0

[HitObjects]
388,101,7107,2,0,B|292:101,1,75
272,37,7538,2,0,B|216:24|176:72|121:67,2,150,2|2|0
347,37,8616,1,0
415,68,8831,2,2,B|456:133|428:184|366:193,1,150
234,163,9694,6,0,B|144:163,1,75,2|0
122,228,10125,2,0,B|221:228,1,75,2|0
272,228,10556,1,4
349,99,10987,6,0,B|260:99,1,75,2|0
206,131,11418,1,4
55,132,11850,1,4
239,260,12496,6,0,B|281:300|348:256|407:217|464:262,1,225
179,131,14006,6,0,B|269:131,1,75
389,195,14652,2,0,B|304:195,1,75
178,260,15299,2,0,B|264:260,1,75
388,324,15946,2,0,B|290:324,1,75
178,260,16593,5,0
178,260,16808,1,0
312,197,17239,1,0
312,197,17455,1,0
177,131,17886,1,0
177,131,18102,1,0
312,66,18533,1,0
312,66,18749,1,0
130,197,19395,6,0,B|152:228|200:265|270:264|329:184,1,225
453,66,20905,6,0,B|352:66,1,75
308,36,21336,1,2
172,99,21767,2,0,B|90:136,1,75,2|0
66,197,22198,1,2
141,197,22414,2,2,B|224:197,1,75,2|2
366,196,23061,1,2
404,260,23276,2,0,B|311:260,1,75,0|2
248,132,23923,5,0
180,99,24139,1,0
112,131,24354,2,0,B|30:131,1,75,2|0
66,200,24785,2,0,B|149:200,1,75,2|0
216,197,25216,2,0,B|306:197,1,75,4|0
366,197,25648,2,4,B|422:225|430:265|392:296|352:310,1,150
288,306,26294,6,0,B|218:308|178:341|96:320|96:252,1,225
351,99,27804,5,0
351,99,28019,1,0
204,130,28450,2,0,B|107:130,1,75
262,198,29097,1,0
262,198,29313,1,0
399,258,29744,2,0,B|488:258,1,75
327,292,30391,5,0
327,292,30606,1,0
176,291,31038,2,0,B|93:291,1,75
236,227,31684,2,0,B|327:227,1,75
174,163,32331,2,0,B|88:163,1,75
99,99,34487,5,0
174,99,34703,2,0,B|224:71|272:23|324:77,1,150,4|0
375,100,35349,1,0
441,134,35565,2,0,B|467:170|435:208|354:164|331:197,1,150,8|0
266,164,36212,1,0
198,195,36427,2,8,B|120:195,1,75
55,229,36859,2,4,B|56:261|113:289|196:284,1,150
330,260,37721,5,0
397,293,37937,1,0
464,261,38152,2,0,B|485:224|483:175|479:129|445:105,1,150,4|0
401,68,38799,2,0,B|321:103,1,75,2|4
263,68,39230,1,2
194,99,39446,1,4
36,260,40093,6,0,B|86:299|144:323|254:252,1,225
182,214,40955,6,0,B|211:180|268:163|340:191,1,150,2|0
392,162,41602,1,4
435,100,41817,1,0
366,68,42033,2,0,B|279:68,1,75,2|2
222,97,42464,2,0,B|141:129|113:196,1,150,4|2
76,260,43111,5,0
150,260,43326,1,2
191,197,43542,1,0
258,164,43758,2,0,B|304:165|368:197|407:244,1,150,4|0
418,296,44404,5,0
343,291,44620,2,2,B|256:291,1,75
199,260,45051,2,0,B|141:222|112:164|113:140,1,150,4|0
130,69,45698,5,0
198,99,45914,2,8,B|284:99,1,75
341,67,46345,1,2
407,100,46560,1,2
446,163,46776,2,0,B|292:163,1,150,4|0
228,196,47423,5,0
159,165,47638,1,4
121,100,47854,1,0
196,95,48070,2,0,B|289:95,2,75,4|0|4
67,133,55831,5,0
135,164,56047,1,0
174,100,56262,2,0,B|236:81|272:74|332:103,1,150,4|0
388,67,56909,1,0
454,101,57124,1,4
413,164,57340,1,0
337,164,57556,2,0,B|290:212|231:143|193:197,1,150,4|0
132,228,58202,1,0
63,196,58418,2,0,B|23:120,1,75,4|0
72,68,58849,2,0,B|113:115|174:64|234:60,1,150,4|0
282,36,59496,1,0
256,192,59712,12,4,60574
68,68,61436,5,0
106,132,61652,1,0
181,132,61868,1,0
218,196,62083,1,0
180,260,62299,2,0,B|268:260,1,75,4|0
323,291,62730,2,0,B|360:255|300:184|366:136,1,150,4|0
424,165,63377,1,0
461,100,63592,2,8,B|365:100,1,75
347,35,64024,2,0,B|284:28|237:136,1,150,4|0
171,100,64670,5,0
102,131,64886,1,0
62,194,65101,2,0,B|147:194,1,75,0|4
203,229,65533,2,0,B|286:229,1,75,0|4
392,132,66179,6,0,B|315:132,1,75
256,192,66611,12,0,67473
144,133,69198,5,0
369,131,69845,1,0
256,192,69952,12,0,71354
353,258,72647,6,0,B|405:192,1,75
399,200,73079,2,0,B|345:126,1,75
256,192,73402,12,0,75234
99,100,76097,5,4
248,100,76528,1,0
99,268,77175,1,0
248,268,77606,2,0,B|320:277|356:256|389:188|405:129,1,225,4|0
201,35,78900,5,0
54,67,79331,2,0,B|43:143|109:232|197:225,1,225,4|0
340,67,80624,5,0
455,162,81056,2,0,B|435:229|317:236|288:120,1,225,4|0
153,67,82133,2,0,B|94:76|81:146|134:168|165:161,1,150
197,68,89895,6,0,B|107:68,1,75
82,132,90326,2,0,B|242:132,1,150
273,69,90973,1,0
312,132,91188,1,0
351,68,91404,1,0
426,69,91620,2,4,B|485:112|491:180|424:199,1,150
293,197,92482,6,0,B|204:197,1,75
149,166,92913,1,0
82,200,93129,1,0
38,261,93344,6,0,B|130:261,1,75,4|0
153,325,93776,2,0,B|240:325,1,75,4|0
265,259,94207,2,0,B|353:259,1,75,4|0
380,195,94638,1,4
387,62,96363,5,0
319,101,96578,1,0
254,62,96794,2,0,B|179:25|100:66,2,150,4|4|0
223,130,97872,1,0
148,130,98087,1,4
81,164,98303,1,0
41,227,98519,6,0,B|132:227,1,75,4|0
184,196,98950,1,4
224,259,99165,1,0
277,205,99381,2,0,B|328:226|388:192|372:120,1,150,4|0
334,67,100028,1,0
266,99,100243,2,0,B|181:99,1,75
122,66,100675,1,0
44,194,101106,1,4
315,67,101968,5,0
449,132,102399,1,0
313,196,102831,1,0
447,261,103262,5,0
378,290,103477,1,0
309,259,103693,2,0,B|221:259,1,75
165,227,104124,1,0
97,260,104340,1,0
29,227,104555,6,0,B|29:64,1,150,4|0
92,37,105202,1,0
154,78,105418,2,0,B|154:239,1,150,4|0
221,259,106064,1,0
288,224,106280,2,0,B|338:250|382:197|443:225,1,150,4|0
479,163,106927,1,0
437,100,107142,5,4
286,99,107574,1,4
150,35,108005,2,8,B|72:35,2,75,8|10|8
37,133,108867,6,0,B|48:182|96:236|232:254|263:116,1,300
187,262,110161,5,0
255,291,110376,1,0
323,260,110592,2,8,B|404:260,1,75
465,227,111023,1,4
349,131,111454,2,8,B|261:131,1,75
204,100,111886,1,4
67,36,112317,2,0,B|223:36,1,150,4|0
285,67,112964,2,0,B|375:67,1,75,0|4
434,196,113610,5,0
366,229,113826,1,0
298,197,114041,2,0,B|207:197,1,75,8|8
158,157,114473,1,4
26,229,114904,2,0,B|44:269|127:291|162:204,1,150,4|0
256,192,115443,12,0,117060
99,100,117491,6,0,B|197:100,1,75
324,100,118138,2,0,B|231:100,1,75
132,195,118785,1,0
132,195,119000,1,0
281,195,119431,1,0
281,195,119647,1,0
145,259,120078,6,0,B|237:259,1,75
295,260,120509,2,0,B|394:260,1,75
410,196,120941,2,0,B|328:196,1,75
259,196,121372,2,0,B|171:196,1,75
141,133,121803,2,0,B|233:133,1,75
291,131,122234,1,0
256,192,122342,12,0,123959
388,68,124390,6,0,B|388:154,1,75
290,257,125037,2,0,B|290:162,1,75
192,67,125684,2,0,B|279:67,1,75
380,164,126330,2,0,B|292:164,1,75
167,225,126977,6,0,B|79:225,1,75
92,225,127408,2,0,B|92:144,1,75
92,150,127840,2,0,B|178:150,1,75
167,150,128271,2,0,B|225:92,1,75
220,96,128702,2,0,B|304:96,1,75
341,36,129133,1,0
256,192,129241,12,0,131289
164,100,131720,6,0,B|234:64|312:103,2,150,4|4|0
95,69,132798,1,0
51,130,133014,2,0,B|117:196,1,75,4|0
163,229,133445,2,0,B|231:272|313:222,1,150,4|0
349,165,134092,1,0
416,196,134307,2,0,B|475:255,1,75,4|0
407,292,134739,2,0,B|356:330|325:275|262:321,1,150,4|0
256,192,135278,12,4,136463
164,99,137326,5,0
204,161,137541,1,0
247,99,137757,1,0
290,160,137973,1,0
332,98,138188,2,0,B|409:98,1,75,4|0
474,131,138619,2,0,B|465:180|424:200|381:179|359:243,1,150,4|0
331,291,139266,1,0
263,258,139482,2,0,B|176:258,1,75,4|0
120,290,139913,2,0,B|68:236|120:204|56:156,1,150,4|0
104,98,140560,5,0
169,133,140775,1,4
236,100,140991,1,0
303,67,141206,2,0,B|384:67,1,75,4|0
445,100,141638,2,0,B|487:146|465:200|383:194,1,150,4|0
256,192,142177,12,4,143794
388,164,145087,5,0
162,164,145734,1,0
256,192,145842,12,0,147243
385,162,148537,6,0,B|342:89,1,75
271,98,148968,2,0,B|222:176,1,75
256,192,149291,12,0,151124
99,132,151986,5,4
245,163,152417,1,0
403,323,153064,5,0
256,291,153495,2,0,B|206:285|176:272|152:241|145:192|147:152|184:119,1,225,4|0
390,66,154789,5,0
278,165,155220,2,0,B|189:122|129:251|56:184,1,225,4|0
256,65,156514,5,0
143,164,156945,2,0,B|218:200|288:200|368:157,1,225,4|0
334,309,158023,1,0
184,310,158454,1,0
258,179,158885,1,4
