osu file format v5

[General]
AudioFilename: 03upsidedownfrown.mp3
AudioLeadIn: 3000
PreviewTime: -1
Countdown: 0
SampleSet: Soft
StackLeniency: 1
Mode: 0
LetterboxInBreaks: 1
EditorBookmarks: 11100,23287,35287,47287,59850,75037,86850,98850,111037,132787

[Metadata]
Title:Upside Down Frown
Artist:They Might Be Giants
Creator:Symbolic
Version:Normal
Source:
Tags:

[Difficulty]
HPDrainRate:4
CircleSize:4
OverallDifficulty:4
SliderMultiplier:1.4
SliderTickRate:1

[Events]
//Background and Video events
0,0,"background.jpg"
//Break Periods
2,72800,74655
2,79550,80655
2,91925,92280
//Storyboard Layer 0 (Background)
//Storyboard Layer 1 (Failing)
//Storyboard Layer 2 (Passing)
//Storyboard Layer 3 (Foreground)
//Storyboard Sound Samples
//Background Colour Transformations
3,100,163,162,255

[TimingPoints]
596,375,4,2,0,100,1

[Colours]
Combo1 : 0,0,0
Combo2 : 168,168,168
Combo3 : 0,0,0
Combo4 : 18,223,245

[HitObjects]
256,96,221,2,0,B|352:96|352:184,1,140,8|8
264,176,971,2,0,B|264:272|176:272,1,140,8|8
184,184,1721,2,0,B|184:88|96:88,1,140,8|8
104,168,2471,1,0
88,208,2658,1,0
168,232,3033,1,0
184,272,3221,1,0
264,272,3596,2,0,B|465:281|551:64|164:74|176:269|488:176,1,560,8|8
248,80,6221,5,0
248,160,6596,1,0
328,160,6971,1,0
328,240,7346,1,0
408,240,7721,1,0
408,240,7908,2,0,L|256:176|256:232,1,210,8|8
256,304,8846,1,0
336,320,9221,2,0,B|408:320,1,70,8|8
440,152,9971,2,0,L|328:152|328:48|448:48|480:128,1,420,8|8
200,256,12408,5,0
200,296,12596,2,0,B|312:296|312:232,2,140,8|8|8
160,296,13533,1,0
112,176,14096,1,0
377,160,15221,6,0,B|305:160|305:112|241:112,1,140,8|8
248,192,15971,1,0
248,192,16158,1,0
248,264,16533,2,0,B|152:264|152:200|152:104,1,210,8|8
56,168,18221,6,0,B|104:168|104:128,1,70,8|8
208,168,18971,2,0,B|256:168|256:128,1,70,8|8
360,136,19721,1,0
360,168,19908,2,0,L|360:312,1,140,8|8
360,352,20471,1,0
272,352,20846,1,0
184,352,21221,1,0
184,312,21408,2,0,B|40:312|40:168|184:168|312:168|312:312|472:312|472:168|336:120|240:120|240:40|216:40,1,630,8|8
96,240,24221,6,0,B|96:96,1,140,8|8
176,96,24971,1,0
176,96,25158,1,0
256,96,25533,2,0,B|256:240,1,140,8|8
344,96,26658,2,0,B|344:168,1,70,8|8
256,168,27221,1,0
176,208,27596,2,0,L|176:320|280:320|280:208|248:208,1,350,8|8
216,208,28721,2,0,B|72:208,1,140,8|8
72,80,29658,5,0
72,80,29846,1,0
152,80,30221,1,0
232,80,30596,1,0
400,80,31346,1,0
320,224,32096,1,0
216,72,32658,6,0,B|192:120|216:160,1,70,8|8
291,140,33221,1,0
374,142,33596,2,0,L|374:254|478:254|478:45|478:45,1,420,8|8
478,51,35096,1,0
272,192,36221,5,0
272,272,36596,1,0
200,232,36971,2,0,B|128:232,1,70,8|8
128,104,37721,2,0,B|128:184,1,70,8|8
256,176,38471,1,0
256,176,38658,1,0
384,176,39221,1,0
384,176,39408,2,0,B|384:48|232:48|232:178|232:303|384:304|408:208,1,420,8|8
416,192,40721,6,2,B|456:192,4,35
416,320,41658,2,2,B|376:320,2,35
416,232,42221,5,0
416,232,42408,1,0
288,232,42971,1,0
288,232,43158,1,0
160,232,43721,1,0
160,232,43908,1,0
224,120,44471,1,0
224,120,44658,1,0
304,136,45033,1,0
296,264,45596,2,0,L|80:264|80:200,2,280,8|8|8
104,104,48221,5,0
104,104,48408,2,0,B|160:184|88:256,1,140,8|8
107,233,48971,1,0
192,232,49346,2,0,B|264:232,1,70,8|8
384,232,50096,1,0
184,80,51221,5,0
184,160,51596,1,0
264,160,51971,1,0
264,160,52158,1,0
264,240,52533,1,0
185,343,53096,1,0
240,272,53471,2,0,L|240:352,1,70,8|8
104,248,54408,5,0
104,208,54596,1,0
104,120,54971,1,0
144,120,55158,1,0
272,120,55721,1,0
272,200,56096,2,0,B|272:248|224:248,3,70,8|8|8|8
352,200,57221,1,0
352,200,57408,1,0
352,200,57596,5,4
352,280,57971,2,4,B|294:292|312:241,1,70,12|12
184,248,58721,1,4
184,160,59096,1,4
248,208,59471,2,4,B|176:208,1,70,12|12
48,208,60221,5,0
104,144,60596,1,0
168,88,60971,1,0
208,88,61158,1,0
272,144,61533,1,0
320,208,61908,1,0
200,328,62658,5,0
200,328,62846,1,0
200,240,63221,1,0
200,152,63596,2,0,L|64:40|208:40|208:72,1,350,8|8
248,69,64721,2,0,B|392:69,1,140,8|8
387,200,65658,5,0
387,200,65846,2,0,L|387:288|331:288,2,140,8|8|8
216,200,67346,2,0,B|112:200|112:96|216:96|312:96,1,280,8|8
144,240,68658,1,0
200,240,68846,2,0,L|200:312|272:312,2,140,8|8|8
368,240,70346,1,0
368,240,70533,1,0
240,240,71096,2,0,L|360:240|360:128|312:128,1,280,0|8
224,128,72221,1,4
224,40,72596,1,4
88,64,75971,5,0
168,64,76346,1,0
232,112,76721,1,0
296,160,77096,1,0
296,240,77471,1,0
296,240,77658,1,0
208,240,78033,2,0,B|136:240,1,70,8|8
138,152,78596,2,0,B|348:134|314:320,1,280,8|8
152,72,81971,6,0,B|152:144,2,70,8|8|8
112,72,82533,2,0,B|40:72,2,70,8|8|8
112,152,83283,1,0
112,232,83658,1,0
280,232,84408,1,0
280,232,84596,1,0
280,144,84971,1,0
280,56,85346,1,0
344,104,85721,1,0
408,152,86096,1,0
440,176,86283,1,0
440,256,86658,1,0
272,256,87408,5,0
272,256,87596,1,0
184,256,87971,1,0
184,256,88158,1,0
56,256,88721,1,0
56,256,88908,1,0
56,128,89471,2,0,B|200:128,2,140,8|8|0
56,208,90596,2,0,B|256:208|256:342|344:342|478:342,1,420,8|8
136,80,93596,5,0
216,80,93971,1,0
216,120,94158,1,0
344,120,94721,1,0
344,200,95096,1,0
256,200,95471,1,0
168,200,95846,1,0
168,240,96033,1,0
80,328,96596,2,0,B|80:112|224:112,2,280,8|8|8
160,328,98471,1,0
240,328,98846,1,0
320,328,99221,1,0
360,328,99408,6,0,B|360:256,1,70,8|8
272,256,99971,1,0
272,168,100346,2,0,B|272:88,1,70,8|8
144,96,101096,1,0
56,336,102221,5,0
136,336,102596,1,0
216,336,102971,2,0,B|273:350|248:272,1,70,8|8
256,216,103533,1,0
128,216,104096,1,0
128,128,104471,2,0,B|114:71|192:96,1,70,8|8
336,88,105408,6,0,B|336:160,1,70,8|8
293,158,105783,1,0
208,158,106158,1,0
208,288,106721,1,0
248,288,106908,1,0
376,288,107471,1,0
376,200,107846,1,0
376,112,108221,2,0,B|304:112,1,70,8|8
264,112,108596,6,12,B|264:208,1,70,12|12
264,312,109346,1,4
176,312,109721,1,4
176,312,109908,1,4
176,184,110471,1,4
176,96,110846,1,4
88,96,111221,5,0
88,184,111596,1,0
88,272,111971,1,0
88,312,112158,1,0
168,288,112533,1,0
256,288,112908,1,0
432,288,113658,1,0
432,328,113846,1,0
344,328,114221,1,0
344,240,114596,2,0,B|344:88|144:88|144:240|272:240,1,350,8|8
268,284,115721,1,0
180,284,116096,1,0
180,152,116658,6,0,B|252:152,1,70,8|8
336,152,117221,2,0,B|336:296,1,140,8|8
152,285,118346,2,0,B|152:141,1,140,8|8
232,144,119096,1,0
152,48,119658,1,0
112,48,119846,1,0
112,128,120221,1,0
112,208,120596,1,0
280,208,121346,5,0
280,248,121533,1,0
408,240,122096,1,0
248,296,122846,1,0
328,296,123221,1,0
328,208,123596,2,0,B|304:136|248:128|192:264|136:312|56:136,1,350,8|8
56,112,124721,1,0
136,112,125096,1,0
264,112,125658,5,0
264,112,125846,2,0,B|408:112,2,140,8|8|8
405,200,127346,6,0,B|261:200,1,140,8|8
184,200,128096,1,0
56,200,128658,1,0
56,200,128846,1,0
56,280,129221,1,0
128,320,129596,1,0
296,320,130346,5,0
336,320,130533,1,0
464,320,131096,1,0
464,152,131846,1,0
464,64,132221,1,0
376,64,132596,1,0
64,288,134283,5,4
64,288,134471,1,4
64,248,134658,1,4
64,248,134846,1,4
