osu file format v5

[General]
AudioFilename: 03upsidedownfrown.mp3
AudioLeadIn: 3000
PreviewTime: -1
Countdown: 0
SampleSet: Soft
StackLeniency: 1
Mode: 0
LetterboxInBreaks: 1
EditorBookmarks: 11471,23287,35287,47287,59850,75037,86850,98850,111037,132787

[Metadata]
Title:Upside Down Frown
Artist:They Might Be Giants
Creator:Symbolic
Version:Hard
Source:
Tags:

[Difficulty]
HPDrainRate:6
CircleSize:5
OverallDifficulty:6
SliderMultiplier:1.4
SliderTickRate:2

[Events]
//Background and Video events
0,0,"background.jpg"
//Break Periods
//Storyboard Layer 0 (Background)
//Storyboard Layer 1 (Failing)
//Storyboard Layer 2 (Passing)
//Storyboard Layer 3 (Foreground)
//Storyboard Sound Samples
//Background Colour Transformations
3,100,163,162,255

[TimingPoints]
596,375,4,2,0,100,1

[Colours]
Combo1 : 0,0,0
Combo2 : 168,168,168
Combo3 : 0,0,0
Combo4 : 18,223,245

[HitObjects]
256,96,225,1,0
288,200,600,1,0
200,136,975,1,0
312,136,1350,1,0
224,200,1725,1,0
256,96,2100,1,0
144,96,2475,1,0
96,128,2662,1,0
96,240,3037,1,0
144,208,3225,1,0
240,144,3600,2,0,B|441:135|527:352|140:342|152:147|327:220|376:184|375:280|328:272|273:310|432:287|160:352,1,560,8|8
128,64,6225,5,0
128,280,6600,1,0
344,280,6975,1,0
336,56,7350,1,0
240,168,7725,5,0
240,168,7912,2,0,L|240:344|280:328,1,210,8|8
392,312,8850,1,0
360,192,9225,1,0
360,248,9412,1,0
192,248,9975,2,0,L|304:248|304:144|184:144|184:176|56:176|56:112,1,560,8|8
56,320,12412,5,0
112,320,12600,1,0
224,320,12975,1,0
224,200,13350,1,0
184,240,13537,1,0
312,120,14100,1,0
448,336,15225,5,0
336,336,15600,1,0
224,336,15975,1,0
280,336,16162,1,0
392,336,16537,1,0
392,168,17100,1,0
56,168,18225,5,0
112,168,18412,1,0
280,168,18975,1,0
224,168,19162,1,0
168,328,19725,1,0
168,272,19912,2,0,L|168:128,1,140,8|8
168,72,20475,1,0
280,72,20850,1,0
280,184,21225,1,0
280,240,21412,2,0,L|336:240|336:136|232:136|232:296|392:296|392:176,1,700,8|8
112,184,24225,5,0
112,72,24600,1,0
112,184,24975,1,0
168,184,25162,1,0
168,72,25537,1,0
168,184,25912,1,0
384,128,26662,5,0
328,128,26850,1,0
216,128,27225,1,0
216,240,27596,2,0,L|216:352|320:352|320:240|288:240,1,350,8|8
216,240,28725,1,0
104,240,29100,1,0
104,72,29662,5,0
104,128,29850,1,0
216,128,30225,1,0
216,240,30600,1,0
408,128,31350,1,0
216,240,32100,1,0
216,72,32662,5,0
216,128,32850,1,0
328,128,33225,1,0
328,240,33600,2,0,L|328:352|432:352|432:259|432:259,1,280,8|8
432,232,34537,1,0
432,64,35100,1,0
72,328,36225,5,0
184,328,36600,1,0
128,224,36975,1,0
128,280,37162,1,0
128,112,37725,1,0
128,168,37912,1,0
288,112,38475,1,0
288,168,38662,1,0
280,336,39225,1,0
224,336,39412,2,0,L|298:212|298:169|224:24|152:24,1,420,8|8
152,80,40725,5,2
152,80,40818,1,2
152,80,40912,1,2
152,80,41006,1,2
152,80,41100,1,2
152,192,41475,1,4
152,136,41662,1,2
152,136,41756,1,2
152,136,41850,1,2
96,136,42037,1,4
96,192,42225,5,0
96,248,42412,1,0
152,248,42596,1,0
264,248,42975,1,0
208,248,43162,1,0
208,80,43725,1,0
208,136,43912,1,0
376,136,44475,1,0
376,192,44662,1,0
488,192,45037,1,0
376,320,45596,2,0,L|160:320|160:256,2,280,8|8|8
112,104,48225,5,0
168,104,48412,2,0,B|224:184|152:256,1,140,8|8
171,288,48975,1,0
171,176,49350,1,0
227,176,49537,1,0
59,176,50100,1,0
392,176,51225,5,0
280,176,51600,1,0
344,272,51975,1,0
312,224,52162,1,0
248,128,52537,1,0
248,296,53100,1,0
248,184,53475,2,0,B|248:256,1,70,8|8
24,240,54412,5,0
72,216,54600,1,0
184,216,54975,1,0
232,240,55162,1,0
128,376,55725,1,0
128,264,56100,1,0
152,208,56287,1,0
192,168,56475,1,0
248,152,56662,1,0
416,152,57225,1,0
472,168,57412,1,0
488,224,57600,5,4
408,296,57975,2,4,B|350:308|367:256,1,70,12|12
200,264,58725,1,4
200,152,59100,1,4
296,208,59475,2,4,B|224:208,1,70,12|12
56,208,60225,5,0
144,144,60600,1,0
232,80,60975,1,0
288,80,61162,1,0
384,144,61537,1,0
472,208,61912,1,0
248,208,62662,5,0
248,152,62850,1,0
248,264,63225,1,0
248,152,63600,2,0,L|112:40|256:40|256:72,1,350,8|8
256,70,64725,1,0
368,72,65100,1,0
368,240,65662,5,0
312,240,65850,2,0,L|312:152|256:152,2,140,8|8|8
88,240,67350,1,0
312,240,68100,1,0
144,240,68662,1,0
200,240,68850,2,0,L|200:312|272:312,2,140,8|8|8
424,240,70350,1,0
368,240,70537,1,0
200,240,71100,2,0,L|320:240|320:128|272:128,1,280,8|8
160,128,72225,1,2
48,128,72600,1,2
48,240,72975,5,2
160,240,73350,1,2
160,184,73537,1,2
104,184,73725,1,2
104,184,73818,1,2
104,184,73912,1,2
216,184,74287,5,4
296,184,74475,1,4
296,264,74662,1,4
216,264,74850,1,4
480,32,75975,5,0
368,32,76350,1,0
424,128,76725,1,0
480,224,77100,1,0
368,224,77475,1,0
424,224,77662,1,0
424,336,78037,1,0
424,336,78225,1,0
312,336,78600,2,0,B|102:354|135:148,1,280,8|8
184,184,79537,5,2
264,184,79818,1,2
264,184,79912,1,2
320,184,80100,1,2
432,184,80475,1,2
432,72,80850,1,2
376,72,81037,1,2
320,72,81225,1,2
320,72,81318,1,2
320,72,81412,1,2
264,72,81600,1,2
152,72,81975,5,0
152,128,82162,1,0
96,128,82350,1,0
40,128,82537,1,0
40,72,82725,1,0
96,72,82912,1,0
96,184,83287,1,0
96,296,83662,1,0
320,296,84412,5,0
320,240,84600,1,0
208,240,84975,1,0
208,128,85350,1,0
320,128,85725,1,0
432,128,86100,1,0
432,184,86287,1,0
432,296,86662,1,0
208,296,87412,5,0
264,296,87600,1,0
264,184,87975,1,0
208,184,88162,1,0
40,184,88725,1,0
40,128,88912,1,0
208,128,89475,1,0
208,240,89850,1,0
320,240,90225,1,0
320,128,90596,2,0,B|440:184|424:152|440:48|360:8|208:24|144:48,1,420,8|8
152,160,92100,5,2
152,272,92475,1,2
208,272,92662,1,2
208,160,93037,1,2
264,160,93225,1,2
264,216,93412,1,2
208,216,93600,5,0
96,216,93975,1,0
96,160,94162,1,0
264,160,94725,1,0
152,160,95100,1,0
40,160,95475,1,0
40,272,95850,1,0
96,272,96037,1,0
264,272,96600,2,0,B|264:56|408:56,2,280,8|8|8
152,272,98471,1,0
264,272,98846,1,0
208,176,99221,1,0
208,232,99412,5,0
208,176,99600,1,0
96,176,99975,1,0
120,64,100350,1,0
120,64,100537,1,0
288,72,101100,1,0
64,320,102225,5,0
176,320,102600,1,0
288,320,102975,2,0,B|345:334|322:255,1,70,8|8
328,168,103537,1,0
160,168,104100,1,0
48,168,104475,2,0,B|34:225|112:200,1,70,8|8
312,208,105412,5,0
368,208,105600,1,0
368,152,105787,1,0
256,152,106158,1,0
256,320,106725,1,0
256,264,106912,1,0
256,96,107475,1,0
144,96,107850,1,0
256,96,108225,1,0
312,96,108412,1,0
368,96,108600,5,4
368,152,108787,1,4
368,320,109350,1,4
480,320,109725,1,4
480,264,109912,1,4
480,96,110475,1,4
480,208,110850,1,4
368,208,111225,5,0
256,208,111600,1,0
144,208,111975,1,0
88,208,112162,1,0
88,96,112537,1,0
200,96,112912,1,0
424,96,113658,5,0
368,96,113850,1,0
368,208,114225,1,0
296,240,114600,2,0,B|296:88|96:88|96:240|224:240,1,350,8|8
221,296,115725,1,0
108,296,116100,1,0
104,128,116662,5,0
160,128,116850,1,0
272,128,117225,1,0
272,240,117600,1,0
464,344,118350,2,0,B|464:200,1,140,8|8
464,88,119100,1,0
296,120,119662,1,0
296,64,119850,1,0
184,64,120225,1,0
184,176,120600,1,0
408,176,121350,5,0
408,120,121537,1,0
408,288,122100,1,0
184,288,122850,1,0
296,288,123225,1,0
296,168,123600,2,0,B|296:96|240:96|240:232|184:232|184:96|128:96|128:232|72:232|72:96|24:72,1,350,8|8
96,80,124725,1,0
176,168,125100,1,0
360,168,125662,5,0
360,112,125850,1,0
240,112,126225,1,0
240,232,126600,1,0
456,176,127350,6,0,B|312:176,1,140,8|8
200,176,128100,1,0
32,176,128662,1,0
88,176,128850,1,0
200,176,129225,1,0
312,176,129600,1,0
144,328,130350,5,0
144,272,130537,1,0
144,104,131100,1,0
368,104,131850,1,0
368,216,132225,1,0
368,328,132600,1,0
424,216,132975,5,2
312,216,133350,1,2
256,216,133537,1,2
200,216,133725,1,2
200,216,133818,1,2
200,216,133912,1,2
88,216,134287,5,4
88,296,134475,1,4
168,296,134662,1,4
168,216,134850,1,4
