osu file format v7

[General]
AudioFilename: 19 - Stomp Box.mp3
AudioLeadIn: 0
PreviewTime: 32745
Countdown: 0
SampleSet: Normal
StackLeniency: 0.7
Mode: 0
LetterboxInBreaks: 0

[Editor]
Bookmarks: 5357,12204,25898,32745,43015,53285,60132,70403,90943,101214
DistanceSpacing: 1
BeatDivisor: 2
GridSize: 8

[Metadata]
Title:Stomp Box
Artist:They Might Be Giants
Creator:Mogsworth
Version:Average
Source:
Tags:alternative john henry

[Difficulty]
HPDrainRate:4
CircleSize:4
OverallDifficulty:5
SliderMultiplier:1.4
SliderTickRate:2

[Events]
//Background and Video events
0,0,"stompbox.png"
//Break Periods
2,22679,24705
2,46658,52109
2,77488,89790
//Storyboard Layer 0 (Background)
//Storyboard Layer 1 (Fail)
//Storyboard Layer 2 (Pass)
//Storyboard Layer 3 (Foreground)
//Storyboard Sound Samples
//Background Colour Transformations
3,100,0,0,0

[TimingPoints]
1927,428.190508285873,4,1,0,80,1,0
76432,-100,4,2,0,0,0,0
77288,-100,4,2,0,100,0,0
87565,-100,4,1,0,80,0,0
109831,-100,4,2,0,0,0,0

[HitObjects]
255,196,5352,1,0
256,336,5780,1,0
255,196,6208,1,0
255,55,6637,1,0
115,43,7065,2,0,B|-32:11|7:310|153:365,1,420,0|8
253,276,8778,5,0
367,195,9206,1,0
250,116,9634,2,0,B|250:206,3,70
250,186,10490,2,0,B|137:195|54:128|54:128|94:65|264:67,1,420,0|8
349,164,12203,6,0,B|418:138|418:138|508:177,3,140,4|0|0|0
353,226,13916,2,2,B|284:252|284:252|194:213,2,140
118,73,15629,5,4
48,194,16057,1,0
116,315,16485,1,0
188,195,16913,1,2
188,195,17127,1,8
188,195,17341,5,0
257,73,17770,1,0
325,194,18198,1,0
256,316,18626,1,2
256,316,18840,1,8
256,316,19054,6,0,L|328:306|392:265,1,140
384,129,19911,2,0,L|416:141|353:179,3,70,0|0|0|8
385,158,20767,2,0,B|224:596|65:142,1,560,4|4
252,202,25905,5,0
358,111,26333,1,0
252,202,26762,1,0
138,283,27190,1,0
256,357,27618,2,0,B|356:343|498:327|487:193|443:57,1,420,0|8
308,87,29331,5,0
180,143,29759,1,0
296,220,30187,2,0,B|189:144,3,70
238,179,31043,2,0,B|202:264|67:276|67:276|58:176|198:101,1,420,0|8
322,120,32756,6,0,L|353:97|370:117|399:97|436:129,3,140,4|0|0|0
289,121,34469,2,2,L|256:147|241:124|212:144|175:112,2,140
465,339,36182,5,4
463,198,36610,1,0
355,108,37038,1,0
252,202,37466,1,2
252,202,37680,1,8
252,202,37895,5,0
147,108,38323,1,0
38,196,38751,1,0
76,330,39179,1,2
76,330,39393,1,8
76,330,39607,6,0,L|140:300|124:273|203:228,1,140
298,172,40464,2,0,L|271:196|303:215,3,70,0|0|0|8
300,213,41320,2,0,B|348:334|471:332|494:173|494:173|521:49|397:28|315:97,1,560,4|0
191,86,43461,5,0
104,196,43889,1,0
190,305,44317,1,0
256,192,44746,12,4,46458
146,171,53309,5,0
256,84,53738,1,0
366,171,54166,1,0
256,84,54594,1,0
214,217,55022,2,0,B|169:272|151:346|262:380|262:380|342:356|353:264|283:205,1,420,0|8
256,79,56735,5,0
177,195,57163,1,0
316,192,57591,2,0,B|276:125,3,70
280,131,58448,2,0,B|340:68|490:132|490:132|443:240|351:282,1,420,0|8
235,214,60160,6,0,B|209:145|248:55,3,140,4|0|0|0
297,210,61873,2,2,B|323:279|284:369,2,140
66,50,63586,5,4
194,106,64014,1,0
321,48,64442,1,0
448,104,64871,1,2
448,104,65085,1,8
448,104,65299,5,0
319,159,65727,1,0
194,106,66155,1,0
63,156,66583,1,2
63,156,66797,1,8
63,156,67011,6,0,L|88:218|169:265,1,140
291,246,67868,2,0,L|268:220|246:249,3,70,0|0|0|8
246,248,68724,2,0,B|175:308|260:380|380:344|424:280|424:280|387:152|252:163,1,490,4|8
286,162,70437,6,0,B|214:124|98:188,1,140
40,75,71293,2,0,B|112:36|228:100,1,140
315,74,72150,2,0,B|387:112|503:48,1,140
336,154,73006,2,0,B|263:192|147:128,1,140
256,281,73863,6,0,L|326:281,3,70,2|2|2|2
257,281,74719,6,0,L|187:281,3,70,2|2|2|2
256,192,75575,12,4,77288
244,79,90990,6,0,L|224:45|200:57|182:27|135:42,3,140,4|0|0|0
274,92,92703,2,2,L|294:128|317:113|335:143|382:128,2,140
100,317,94416,5,4
178,200,94844,1,0
100,317,95272,1,0
240,315,95700,1,2
240,315,95914,1,8
240,315,96128,5,0
178,200,96557,1,0
318,197,96985,1,0
247,76,97413,1,2
247,76,97627,1,8
247,76,97841,6,0,L|321:100|415:69,1,140
329,207,98698,2,0,L|310:238|284:184,3,70,0|0|0|8
295,207,99554,2,0,L|295:136|122:136|122:239|272:239,1,490,4|8
265,239,101267,6,0,L|265:394,1,140,4|0
380,299,102123,2,0,L|380:116,1,140
265,78,102979,2,0,L|72:78,1,140
8,156,103836,2,0,L|148:156,1,140
183,249,104692,6,0,L|253:249,3,70,2|2|2|2
184,249,105549,6,0,L|114:249,3,70,2|2|2|2
183,249,106405,6,0,L|183:319,3,70,2|2|2|2
184,249,107261,6,0,L|184:179,3,70,2|2|2|2
256,192,108118,12,0,109831
