osu file format v5

[General]
AudioFilename: 11 Spines.mp3
AudioLeadIn: 1500
PreviewTime: -1
Countdown: 1
SampleSet: Normal
StackLeniency: 0.7
Mode: 0
LetterboxInBreaks: 1
EditorDistanceSpacing: 0.600000023841858

[Metadata]
Title:Spines
Artist:They Might Be Giants
Creator:nooodl
Version:Insane
Source:Spine
Tags:the spine spines tmbg

[Difficulty]
HPDrainRate:7
CircleSize:6
OverallDifficulty:7
SliderMultiplier:1.9
SliderTickRate:1

[Events]
//Background and Video events
0,0,"ZOE1041_Cover.jpg"
//Break Periods
//Storyboard Layer 0 (Background)
//Storyboard Layer 1 (Fail)
//Storyboard Layer 2 (Pass)
//Storyboard Layer 3 (Foreground)
//Storyboard Sound Samples
//Background Colour Transformations
3,100,163,162,255

[TimingPoints]
320,606.060606060606,4,1,0,100,1,0
9996,-50,4,1,0,100,0,0

[Colours]
Combo1 : 223,219,134
Combo2 : 106,148,82
Combo3 : 126,123,170
Combo4 : 217,121,74

[HitObjects]
256,32,320,1,0
256,32,471,1,0
256,32,623,2,0,B|184:32,1,47.5
224,96,926,1,8
224,96,1077,1,8
224,96,1229,2,8,B|248:152,1,47.5
288,96,1532,1,0
288,96,1683,1,0
288,96,1835,2,0,B|320:40,1,47.5
256,32,2138,1,2
256,240,2744,5,0
256,240,2895,1,0
256,240,3047,2,0,B|208:240,1,47.5
216,304,3350,1,8
216,304,3501,1,8
216,304,3653,2,8,B|240:352,1,47.5
288,304,3956,1,0
288,304,4107,1,0
288,304,4259,2,0,B|312:248,1,47.5
256,216,4562,1,2
368,192,5168,5,0
368,152,5320,1,0
368,112,5471,1,8
288,112,5774,1,0
248,112,5926,1,0
208,112,6077,1,8
208,184,6380,1,0
208,224,6532,1,0
208,264,6683,2,2,B|256:312|304:256,1,95
416,192,7592,5,8
408,152,7744,1,0
392,112,7895,1,0
368,80,8047,1,0
336,56,8198,1,8
296,48,8350,1,0
256,56,8501,1,0
224,80,8653,1,0
208,112,8804,1,4
472,192,10016,6,8,B|456:136|432:112|408:136|392:192|376:248|352:264|328:248|256:56,2,380
472,232,11380,1,0
472,272,11532,1,0
472,272,11683,1,0
472,312,11835,1,0
392,312,12138,1,2
312,312,12441,2,8,B|272:224|208:280|168:384|72:248|72:248|16:144,2,380
352,312,13804,1,0
392,312,13956,1,0
392,312,14107,1,0
392,312,14259,5,0
392,232,14562,1,2
328,272,14865,2,8,B|232:336|144:336|64:264|32:144,2,380
304,240,16229,1,0
280,208,16380,1,0
280,208,16532,1,0
256,176,16683,1,0
256,96,16986,1,0
328,96,17289,1,8
120,192,17895,1,0
120,304,18198,2,8,B|256:304|256:248|272:224|296:224|304:232|320:232|328:248|336:280|360:288|392:304|464:304,2,380
64,200,19713,6,2,B|80:144|104:120|128:144|144:200|160:256|184:272|208:256|280:64,2,380
40,232,21077,1,0
40,272,21229,1,0
40,272,21380,1,0
40,312,21532,1,0
120,312,21835,1,8
200,312,22138,2,2,B|240:224|304:280|344:384|440:248|440:248|496:144,2,380
160,312,23501,1,0
120,312,23653,1,0
120,312,23804,1,0
120,312,23956,5,0
120,232,24259,1,8
184,272,24562,2,2,B|280:336|368:336|448:264|480:144,2,380
208,240,25926,1,0
232,208,26077,1,0
232,208,26229,1,0
256,176,26380,1,0
368,176,26683,1,8
312,272,26986,5,8
200,72,27592,1,0
136,176,27895,1,2
368,176,28501,1,2
136,176,29107,1,4
