osu file format v5

[General]
AudioFilename: Experimental Film.mp3
AudioLeadIn: 3000
PreviewTime: -1
Countdown: 0
SampleSet: Normal
StackLeniency: 0.7
Mode: 0
LetterboxInBreaks: 1

[Metadata]
Title:Experimental Film
Artist:They Might Be Giants
Creator:Dranoel
Version:Normal
Source:
Tags:

[Difficulty]
HPDrainRate:4
CircleSize:4
OverallDifficulty:4
SliderMultiplier:0.999999999999999
SliderTickRate:2

[Events]
//Background and Video events
1,-351,"film.avi"
//Break Periods
2,30713,44426
2,74025,94956
2,108301,116030
2,131760,143774
//Storyboard Layer 0 (Background)
//Storyboard Layer 1 (Failing)
//Storyboard Layer 2 (Passing)
//Storyboard Layer 3 (Foreground)
//Storyboard Sound Samples
//Background Colour Transformations
3,100,163,162,255

[TimingPoints]
2127,450.962749192712,4,1,0,100

[Colours]
Combo1 : 255,0,0
Combo2 : 255,255,255
Combo3 : 128,128,128
Combo4 : 255,255,0

[HitObjects]
75,202,323,1,2
105,164,548,1,2
149,144,774,1,2
246,150,1225,1,2
279,185,1450,2,6,B|369:203|390:250|365:281,1,150
290,334,2577,5,0
184,351,3028,1,0
92,305,3479,1,0
31,222,3930,1,0
39,119,4381,1,0
98,35,4832,1,0
197,10,5283,1,0
296,34,5734,1,0
361,113,6185,1,0
346,209,6636,1,0
271,272,7087,1,0
177,246,7538,1,0
137,157,7989,1,0
210,93,8440,1,4
272,167,8891,1,4
231,140,9116,5,0
209,96,9342,1,0
150,94,9567,1,0
119,131,9793,2,0,B|48:212|63:300|105:349,3,200
181,324,12950,5,0
270,285,13401,1,0
358,245,13852,1,0
274,195,14302,1,0
183,158,14753,1,0
267,109,15204,1,0
352,62,15655,1,4
264,19,16106,1,4
217,32,16332,5,0
178,61,16557,1,0
150,101,16783,1,0
140,148,17008,2,0,B|121:239|250:257|315:244,2,200
182,60,19263,1,0
274,28,19714,1,0
322,23,19940,5,0
370,18,20165,1,0
411,42,20390,1,0
446,75,20616,2,0,B|533:130|419:264,2,200
404,49,22645,1,0
264,91,23322,5,2
302,120,23547,1,2
305,168,23773,2,2,B|248:141|183:185,7,99.9999999999999
196,286,27380,6,4,B|117:311|72:280,1,99.9999999999999
17,228,28282,2,4,B|15:152|65:114,1,99.9999999999999
137,90,29184,2,4,B|209:117|242:177,1,99.9999999999999
256,192,30086,12,0,30537
137,140,45193,5,0
145,190,45419,1,0
182,225,45644,1,0
227,247,45870,1,0
276,259,46095,1,0
425,221,46772,1,0
476,215,46997,1,0
405,78,47674,1,0
447,48,47899,1,0
295,74,48576,1,0
272,27,48801,1,0
185,154,49478,1,0
136,138,49703,1,0
215,269,50380,1,0
168,291,50605,1,0
318,324,51281,1,0
321,378,51507,1,0
121,330,52409,5,2
86,291,52634,1,2
62,245,52860,1,2
72,194,53085,1,2
96,149,53311,2,2,B|193:49|171:223|170:198,1,150
175,245,54213,2,0,B|148:363|289:297,1,150
306,294,55115,2,2,B|393:261|323:158,1,150
289,144,56017,1,2
125,135,56693,1,2
73,136,56918,1,2
211,68,57595,1,2
159,70,57820,1,2
304,20,58497,1,2
252,20,58722,1,2
12,64,59850,5,0
105,28,60301,1,0
53,110,60752,1,0
142,71,61203,1,0
88,152,61654,1,0
178,116,62105,1,0
132,202,62556,1,0
220,161,63006,1,4
222,209,63232,5,0
223,257,63457,1,0
225,353,63908,1,0
317,383,64359,1,0
260,303,64810,1,0
353,331,65261,1,0
292,254,65712,1,0
386,278,66163,1,0
322,204,66614,1,4
319,155,66840,5,0
275,133,67065,1,0
226,137,67291,1,0
181,157,67516,1,0
158,200,67742,2,0,B|237:192|331:308,2,200
307,204,70222,5,4
299,104,70673,2,0,B|231:124|198:67,7,99.9999999999999
143,133,95927,6,0,C|157:30|253:-5|357:14|415:83|431:158|433:292|427:349|380:351|110:354|75:354|55:263|41:199|40:131|128:166|197:202|252:224,1,1500
236,319,103142,6,0,B|277:391|302:331|336:336|386:348|395:271|383:257|425:282|455:126|486:79|421:57|494:-17|365:-6|266:-7|218:-44|161:-27|46:-9|31:45|55:99|47:203|50:394|274:311|165:322|182:355|215:383|260:363|282:352,1,1100
64,151,117347,1,0
78,101,117573,1,0
121,73,117798,1,0
169,57,118024,1,0
214,36,118249,2,4,B|262:41|274:89|256:96,7,50
347,128,120279,1,4
424,195,120730,1,4
442,243,120955,5,0
438,294,121181,1,0
399,320,121406,1,0
348,327,121632,1,0
299,314,121857,2,4,B|274:300|282:255,7,50
205,215,123886,1,4
134,126,124337,5,2
178,101,124563,1,2
229,96,124788,2,2,B|293:111|329:163,7,99.9999999999999
360,236,128396,6,2,B|356:302|291:320,1,99.9999999999999
205,327,129298,6,2,B|154:312|126:252,1,99.9999999999999
140,160,130200,6,2,B|172:109|246:107,1,99.9999999999999
256,192,131102,12,0,131553
256,82,145082,5,0
345,121,145533,1,0
384,149,145758,1,0
393,245,146209,6,2,B|326:223|334:267|237:241,1,150
148,237,147337,5,0
112,203,147562,1,0
89,160,147787,1,0
113,117,148013,6,0,B|181:86|160:138|265:103,1,150
353,129,149140,5,0
374,172,149366,1,0
359,218,149591,1,0
266,246,149817,6,4,L|187:77|129:241|312:138|65:130|273:251,1,1050
415,245,155228,6,2,B|486:244|469:192|475:142|435:109,1,150
376,66,156356,1,0
327,68,156581,1,0
229,69,157032,2,2,B|154:85|154:184|212:200,1,150
280,216,158160,1,0
327,227,158385,1,0
418,259,158836,1,2
276,293,159512,5,2
183,262,159963,1,0
142,234,160189,1,0
110,141,160640,1,0
225,51,161316,1,0
321,61,161767,1,0
361,88,161993,1,0
369,184,162444,1,0
258,279,163120,1,0
172,232,163571,5,0
136,199,163797,1,0
127,102,164248,6,2,B|158:5|215:87|253:13|317:66|357:13|396:47,1,250
379,129,165826,6,2,B|317:196|260:219|196:164|198:149,1,200
109,147,167179,5,4
152,171,167404,5,4
195,195,167630,5,4
238,219,167855,5,4
