osu file format v5

[General]
AudioFilename: Experimental Film.mp3
AudioLeadIn: 3000
PreviewTime: -1
Countdown: 0
SampleSet: Normal
StackLeniency: 0.7
Mode: 0
LetterboxInBreaks: 1
EditorBookmarks: 55320

[Metadata]
Title:Experimental Film
Artist:They Might Be Giants
Creator:Dranoel
Version:Easy
Source:
Tags:

[Difficulty]
HPDrainRate:3
CircleSize:3
OverallDifficulty:3
SliderMultiplier:0.999999999999999
SliderTickRate:2

[Events]
//Background and Video events
1,-351,"film.avi"
//Break Periods
2,30713,44426
2,74025,94956
2,108301,116030
2,131760,143774
//Storyboard Layer 0 (Background)
//Storyboard Layer 1 (Failing)
//Storyboard Layer 2 (Passing)
//Storyboard Layer 3 (Foreground)
//Storyboard Sound Samples
//Background Colour Transformations
3,100,163,162,255

[TimingPoints]
2127,450.962749192712,4,1,0,100

[Colours]
Combo1 : 255,0,0
Combo2 : 255,255,255
Combo3 : 128,128,128
Combo4 : 255,255,0

[HitObjects]
290,334,2577,5,0
92,305,3479,1,0
39,119,4381,1,0
197,10,5283,1,0
361,113,6185,1,0
271,272,7087,1,0
137,157,7989,1,0
272,167,8891,1,4
79,134,9793,6,0,B|8:215|23:303|65:352,3,200
237,341,13401,5,0
402,239,14302,1,0
393,44,15204,1,0
199,20,16106,1,4
80,174,17008,6,0,B|61:265|190:283|255:270,2,200
274,171,19714,1,0
437,65,20616,2,0,B|524:120|410:254,2,200
242,61,23322,5,2
283,149,23773,2,2,B|179:132|105:240,3,200
256,192,27380,12,0,30537
90,75,45419,5,0
284,76,46321,1,0
116,175,47223,1,0
310,178,48125,1,0
145,281,49027,1,0
339,281,49929,1,0
169,376,50830,1,0
363,374,51732,1,0
385,180,52634,6,2,B|287:126|210:124|164:167,3,200
358,252,56242,6,2,B|260:198|183:196|137:239,3,200
12,64,59850,5,0
105,28,60301,1,0
53,110,60752,1,0
142,71,61203,1,0
88,152,61654,1,0
178,116,62105,1,0
132,202,62556,1,0
220,161,63006,1,4
225,353,63908,5,0
317,383,64359,1,0
260,303,64810,1,0
353,331,65261,1,0
292,254,65712,1,0
386,278,66163,1,0
322,204,66614,1,4
158,200,67516,6,0,B|237:192|331:303,2,200
89,131,69771,5,0
185,139,70222,1,4
281,149,70673,2,0,B|219:156|186:99,7,99.9999999999999
143,133,95927,6,0,C|157:30|253:-5|357:14|415:83|431:158|433:292|427:349|380:351|110:354|75:354|55:263|41:199|40:131|128:166|197:202|252:224,1,1500
236,319,103142,6,0,B|277:391|302:331|336:336|386:348|395:271|383:257|425:282|455:126|486:79|421:57|494:-17|365:-6|266:-7|218:-44|161:-27|46:-9|31:45|55:99|47:203|50:394|274:311|165:322|182:355|215:383|260:363|282:352,1,1100
78,101,117573,1,0
169,57,118024,1,0
217,50,118249,2,4,C|293:102|189:134|286:179|245:242,1,350
176,218,120279,1,4
85,253,120730,1,4
166,306,121181,5,0
257,338,121632,1,0
305,333,121857,2,4,C|364:277|251:241|343:191|289:158,1,350
218,160,123886,1,4
130,116,124337,5,2
217,73,124788,2,2,B|281:88|317:140,7,99.9999999999999
256,192,128396,12,0,131553
256,82,145082,5,0
345,121,145533,1,0
384,149,145758,1,0
393,245,146209,6,2,B|326:223|334:267|237:241,1,150
148,237,147337,5,0
89,160,147787,1,0
113,117,148013,6,0,B|181:86|160:138|265:103,1,150
353,129,149140,5,0
359,218,149591,1,0
266,246,149817,6,4,L|187:77|129:241|312:138|65:130|274:252,1,1050
415,236,155228,6,2,B|486:235|466:175|491:135|439:111,1,150
376,66,156356,1,0
327,68,156581,1,0
229,69,157032,2,2,B|154:85|154:184|212:200,1,150
280,216,158160,1,0
327,227,158385,1,0
418,259,158836,1,2
276,293,159512,5,2
183,262,159963,1,0
142,234,160189,1,0
110,141,160640,1,0
225,51,161316,1,0
321,61,161767,1,0
361,88,161993,1,0
369,184,162444,1,0
258,279,163120,1,0
172,232,163571,5,0
136,199,163797,1,0
127,102,164248,6,2,B|158:5|215:87|253:13|317:66|357:13|396:47,1,250
379,129,165826,6,2,B|317:196|260:219|196:164|198:149,1,200
