osu file format v4

[General]
AudioFilename: Destination Moon.mp3
AudioLeadIn: 0
AudioHash: 8fd55ec0331d0a589a94df8d909a555b
PreviewTime: -1
SampleSet: Normal

[Metadata]
Title:Destination Moon
Artist:They Might Be Giants
Creator:Mr. Yes
Version:Normal

[Difficulty]
HPDrainRate:0
CircleSize:5
OverallDifficulty:3
SliderMultiplier: 1.4
SliderTickRate: 1

[Events]
2,68252,74569
3,100,63,63,63

[TimingPoints]
2049,936.03744149766,4,1,0

[Colours]
Combo1 : 90,165,102
Combo2 : 141,80,165
Combo3 : 183,107,62
Combo4 : 73,103,171

[HitObjects]
256,336,6770,1,0
256,240,7238,1,0
256,144,7706,1,0
256,48,8174,1,0
48,192,9070,5,0
144,192,9538,1,0
240,192,10006,1,0
480,192,10943,1,0
256,320,12815,5,0
256,256,13283,1,0
256,144,13985,2,0,C|256:144|256:16,1,105
256,224,15155,1,0
256,80,15624,1,0
256,80,15858,1,4
256,320,16560,5,0
256,224,17028,1,0
192,112,17496,1,0
256,112,17730,1,0
320,112,17964,1,0
256,32,18432,5,0
304,32,18666,2,0,C|304:32|448:32,1,140
444,32,19837,1,2
448,112,20305,1,0
448,112,20539,1,0
80,176,21709,5,0
192,176,22177,1,0
304,176,22645,1,0
416,176,23113,1,0
256,352,23815,5,0
256,304,24050,1,0
256,256,24284,1,0
256,208,24518,1,0
256,112,24986,1,0
256,32,25454,1,6
464,112,26156,5,0
464,160,26390,1,0
464,208,26624,1,2
464,256,26858,2,4,C|464:256|384:256,1,70
64,112,28028,5,0
64,160,28262,1,0
64,208,28496,1,2
64,256,28730,2,4,C|64:256|144:256,1,70
256,288,29901,5,0
256,240,30135,1,0
256,192,30369,1,2
256,144,30603,2,4,C|256:144|256:48,1,70
256,80,31305,1,4
256,272,32475,5,0
256,112,32944,1,0
368,192,33646,1,0
368,192,33880,1,0
160,192,34582,1,0
160,192,34816,1,0
256,192,35518,5,0
256,192,35752,1,0
256,272,36454,1,0
256,272,36688,2,4,C|256:272|256:192,2,70
256,272,38093,1,2
336,160,39029,5,0
304,160,39263,1,0
272,160,39497,2,0,C|272:160|144:160,1,105
160,160,40433,1,2
144,224,40901,5,0
176,224,41135,1,0
208,224,41369,2,0,C|208:224|336:224,1,105
320,224,42305,1,6
208,64,42774,5,0
256,96,43008,1,0
304,64,43242,1,0
224,192,44178,2,6,C|224:192|304:192,3,70
336,192,45816,5,0
448,192,46285,1,0
160,240,46753,1,0
160,352,47221,1,0
256,240,47689,2,0,C|256:240|256:320,1,70
368,32,48625,5,0
368,160,49093,1,0
256,80,49561,2,4,C|256:80|256:160,2,70
112,176,51668,5,0
208,176,52136,1,0
304,176,52604,1,0
400,176,53072,1,0
256,352,53774,5,0
256,304,54009,1,0
256,256,54243,1,0
256,208,54477,1,0
256,112,54945,1,0
256,32,55413,1,6
464,112,56115,5,0
464,160,56349,1,0
464,208,56583,1,2
464,256,56817,2,4,C|464:256|384:256,1,70
64,112,57987,5,0
64,160,58221,1,0
64,208,58455,1,2
64,256,58689,2,4,C|64:256|144:256,1,70
256,288,59860,5,0
256,240,60094,1,0
256,192,60328,1,2
256,144,60562,2,4,C|256:144|256:48,1,70
256,80,61264,1,4
256,272,62434,5,0
256,112,62903,1,0
368,192,63605,1,0
368,192,63839,1,0
160,192,64541,1,0
160,192,64775,1,0
256,192,65477,5,0
256,192,65711,1,0
256,272,66413,1,0
256,272,66647,2,4,C|256:272|256:192,2,70
256,272,68052,1,2
256,256,76009,6,4,B|256:256|256:80,7,140
256,192,83499,12,4,90053
336,160,91457,5,0
304,160,91691,1,0
272,160,91925,2,0,C|272:160|144:160,1,105
160,160,92861,1,2
144,224,93329,5,0
176,224,93563,1,0
208,224,93797,2,0,C|208:224|336:224,1,105
320,224,94733,1,6
208,64,95202,5,0
256,96,95436,1,0
304,64,95670,1,0
224,192,96606,2,6,C|224:192|304:192,3,70
336,192,98244,5,0
448,192,98713,1,0
160,240,99181,1,0
160,352,99649,1,0
256,240,100117,2,0,C|256:240|256:320,1,70
368,32,101053,5,0
368,160,101521,1,0
256,80,101989,2,4,C|256:80|256:160,2,70
112,176,104096,5,0
208,176,104564,1,0
304,176,105032,1,0
400,176,105500,1,0
256,352,106202,5,0
256,304,106437,1,0
256,256,106671,1,0
256,208,106905,1,0
256,112,107373,1,0
256,32,107841,1,6
464,112,108543,5,0
464,160,108777,1,0
464,208,109011,1,2
464,256,109245,2,4,C|464:256|384:256,1,70
64,112,110415,5,0
64,160,110649,1,0
64,208,110883,1,2
64,256,111117,2,4,C|64:256|144:256,1,70
256,288,112288,5,0
256,240,112522,1,0
256,192,112756,1,2
256,144,112990,2,4,C|256:144|256:48,1,70
256,80,113692,1,4
256,272,114862,5,0
256,112,115331,1,0
368,192,116033,1,0
368,192,116267,1,0
160,192,116969,1,0
160,192,117203,1,0
256,192,117905,5,0
256,192,118139,1,0
256,272,118841,1,0
256,272,119075,2,4,C|256:272|256:192,2,70
256,272,120480,1,2
256,352,121182,5,0
256,304,121417,1,0
256,256,121651,1,0
256,208,121885,1,0
256,112,122353,1,0
256,32,122821,1,6
256,112,123756,5,0
240,256,124458,2,0,B|240:256|288:256,2,35
256,192,125395,12,0,130076
