osu file format v9

[General]
AudioFilename: 01 - Can't Keep Johnny Down.mp3
AudioLeadIn: 0
PreviewTime: 39771
Countdown: 1
SampleSet: Normal
StackLeniency: 0.7
Mode: 0
LetterboxInBreaks: 0

[Editor]
Bookmarks: 6200,17628,29057,29132,33953,40485,51914,62985,64414,69771,74489,75843,83399,86200,97628,109057,120560,131989
DistanceSpacing: 1.2
BeatDivisor: 4
GridSize: 8

[Metadata]
Title:Can't Keep Johnny Down
Artist:They Might Be Giants
Creator:Doodley
Version:Normal
Source:
Tags:join us john linnell flansburgh marty beller dan danny stickmeister

[Difficulty]
HPDrainRate:4
CircleSize:4
OverallDifficulty:4
ApproachRate:5
SliderMultiplier:1
SliderTickRate:2

[Events]
//Background and Video events
0,0,"tmbg.png"
//Break Periods
2,52170,61842
2,120741,130770
//Storyboard Layer 0 (Background)
//Storyboard Layer 1 (Fail)
//Storyboard Layer 2 (Pass)
//Storyboard Layer 3 (Foreground)
//Storyboard Sound Samples
//Background Colour Transformations
3,100,163,162,255

[TimingPoints]
555,357.142857142857,4,1,0,81,1,0
29110,357.142857142857,4,1,0,81,1,0
40542,357.142857142857,4,1,0,81,1,1
51970,-100,4,1,0,81,0,0
109113,-100,4,1,0,81,0,1
120541,-100,4,1,0,81,0,0
131970,-100,4,2,0,81,0,0
133399,416.666666666667,4,2,0,81,1,0
135274,-100,4,2,0,40,0,0

[Colours]
Combo1 : 255,168,253
Combo2 : 249,0,211
Combo3 : 140,13,255

[HitObjects]
472,200,6269,2,0,B|456:320|344:376|256:280,1,300,4|0
216,240,7519,1,0
176,128,7876,1,8
360,128,8412,5,8
360,248,8769,1,8
253,282,9126,2,0,B|168:376|56:320|40:200,1,300,4|0
64,144,10376,5,8
176,192,10733,1,8
360,192,11269,1,0
448,272,11626,1,8
336,312,11983,2,0,B|296:384|216:384|176:312,2,200,4|0|4
312,80,14126,5,8
192,80,14483,1,2
176,200,14840,2,0,B|216:128|296:128|336:200,2,200,4|0|4
16,192,17697,6,0,B|16:288|128:368|240:288|240:192,1,350,4|0
192,88,19304,1,0
192,88,19483,1,0
304,40,19841,1,8
408,96,20197,1,0
464,192,20554,2,0,B|448:288|368:320|280:288|264:192,1,300,4|0
256,72,21983,6,0,B|280:48|312:64,2,50
216,184,22697,1,8
288,280,23054,1,2
408,256,23412,2,0,B|464:216|464:128|400:80,2,200,4|0|4
184,344,25554,5,0
184,224,25912,1,10
72,256,26269,2,0,B|16:216|16:128|76:84,2,200,4|0|4
56,48,29110,5,0
176,48,29467,1,0
96,136,29824,2,0,B|96:184,2,50,8|0|8
48,240,30538,5,0
168,240,30895,1,0
160,120,31252,2,0,B|216:120,2,50,8|0|8
256,48,31967,5,0
376,48,32324,1,0
320,152,32681,2,0,B|256:152,2,50,8|0|8
432,192,33395,5,0
360,288,33752,1,0
256,296,34110,2,0,B|256:352,2,50,8|0|8
160,224,34824,5,0
192,104,35181,1,0
256,176,35538,2,0,B|304:168,2,50,8|0|8
368,224,36252,5,0
344,104,36609,1,0
256,176,36966,2,0,B|208:168,2,50,8|0|8
160,248,37681,5,0
256,320,38038,1,0
352,248,38395,2,0,B|408:248,2,50,8|0|8
256,192,39110,12,4,40538
208,64,41970,5,0
128,152,42327,1,0
144,272,42684,2,0,B|184:304|240:280,1,100,8|0
344,224,43399,6,0,B|384:200|384:128,1,100,8|2
304,32,44113,2,0,B|256:8|208:34,1,100,0|2
152,128,44827,2,0,B|152:192|192:216,1,100,0|4
96,288,45542,5,0
200,352,45899,1,2
320,336,46256,2,0,B|392:336|408:272,1,100,8|0
304,224,46970,2,0,B|256:256|208:224,1,100,8|0
192,336,47684,2,0,B|120:336|104:272,1,100,4|0
224,248,48399,2,0,B|256:272|288:248,2,50,0|8|0
256,192,49113,12,4,51970
256,192,63042,5,8
376,192,63399,2,2,B|352:272|256:296|168:272|144:192,1,300,4|2
200,88,64827,1,0
320,88,65184,1,0
256,192,65542,1,0
352,232,65899,1,2
352,232,66077,2,0,B|352:176|328:104|256:64|184:104|152:176|152:232,1,350,4|0
192,344,67684,5,0
312,344,68041,1,0
256,240,68399,1,8
256,240,68577,1,2
336,152,68934,2,0,B|336:96|304:64|256:64|208:64|176:96|176:152,1,250,4|0
288,192,70184,6,0,B|256:208|232:192,2,50,0|8|0
208,104,70899,1,2
128,192,71256,2,0,B|128:256|208:256,1,100
312,256,71970,2,0,B|374:256|374:192,2,100
200,304,73041,1,8
88,256,73399,1,4
152,72,74470,5,0
136,192,74827,2,0,B|176:256|232:256|256:192|288:128|344:128|392:192,1,300,8|0
376,304,76256,2,2,B|376:368|312:368,1,100,2|2
192,368,76970,2,2,B|131:369|131:305,1,100,2|2
144,184,77684,2,0,B|192:72|320:72|376:184,1,300,4|0
344,296,79113,6,0,B|310:352|253:307,1,100
144,288,79827,1,0
48,216,80184,1,8
104,112,80541,2,0,B|88:40|160:-8|248:40,2,200,4|0|4
344,72,82684,5,8
448,136,83042,1,0
400,240,83399,2,0,B|416:312|344:360|256:312,2,200,4|0|4
56,336,86256,5,0
176,336,86613,1,0
88,256,86970,2,0,B|88:200,2,50,8|0|8
48,144,87684,5,0
168,144,88041,1,0
208,256,88398,2,0,B|264:256,2,50,8|0|2
304,336,89113,5,0
424,336,89470,1,0
336,256,89827,2,0,B|288:256,2,50,0|0|8
416,168,90541,1,0
296,168,90898,1,0
400,104,91256,2,0,B|400:48,2,50,0|8|0
400,224,91970,5,0
320,312,92327,1,0
256,208,92684,2,0,B|304:216,2,50,8|0|8
112,224,93398,5,0
192,312,93755,1,0
256,208,94112,2,0,B|208:216,2,50,0|8|0
320,104,94827,5,0
192,104,95184,1,0
232,216,95541,2,0,B|288:216,2,50,8|0|2
256,192,96256,12,4,97684
288,40,99113,5,0
208,128,99470,1,8
232,240,99827,1,0
344,280,100184,1,0
344,280,100363,2,0,B|456:184|344:64,1,250,4|0
224,40,101970,5,0
304,128,102327,1,8
280,240,102684,1,0
168,280,103041,1,0
168,280,103220,2,0,B|56:184|168:64,1,250,4|0
320,256,104827,5,2
200,256,105184,1,8
208,136,105541,2,0,B|256:104|312:136,1,100
256,192,106077,12,4,109113
352,112,110541,5,0
256,48,110899,1,2
152,104,111256,2,0,B|84:95|65:156,1,100
176,192,111970,2,0,B|112:216|96:264|112:312|176:336,1,200,4|0
200,120,113399,5,0
296,48,113757,1,2
408,96,114114,1,8
448,208,114470,1,0
376,304,114828,2,0,B|272:304|272:160,1,200,4|0
256,48,115899,6,0,B|280:64|280:96,2,50
144,88,116613,1,0
104,200,116970,2,0,B|88:264|152:304,1,100
256,192,117684,12,4,120541
176,104,131970,6,0,B|256:0|344:104,2,200
368,256,134232,6,0,B|256:360|144:256,1,250,0|2
