osu file format v9

[General]
AudioFilename: 01 - Can't Keep Johnny Down.mp3
AudioLeadIn: 0
PreviewTime: 39771
Countdown: 1
SampleSet: Normal
StackLeniency: 0.7
Mode: 0
LetterboxInBreaks: 0

[Editor]
Bookmarks: 6200,17628,29057,29132,33953,40485,51914,62985,64414,69771,74489,75843,83399,86200,97628,109057,120560,131989
DistanceSpacing: 1.2
BeatDivisor: 4
GridSize: 8

[Metadata]
Title:Can't Keep Johnny Down
Artist:They Might Be Giants
Creator:Doodley
Version:Insane
Source:
Tags:join us john linnell flansburgh marty beller dan danny stickmeister

[Difficulty]
HPDrainRate:7
CircleSize:5
OverallDifficulty:7
ApproachRate:7
SliderMultiplier:1.3
SliderTickRate:2

[Events]
//Background and Video events
0,0,"tmbg.png"
//Break Periods
2,52170,62141
2,120741,131070
//Storyboard Layer 0 (Background)
//Storyboard Layer 1 (Fail)
//Storyboard Layer 2 (Pass)
//Storyboard Layer 3 (Foreground)
//Storyboard Sound Samples
//Background Colour Transformations
3,100,255,255,255

[TimingPoints]
555,357.142857142857,4,1,0,81,1,0
29110,357.142857142857,4,1,0,81,1,0
40542,357.142857142857,4,1,0,81,1,1
51970,-100,4,1,0,81,0,0
109113,-100,4,1,0,81,0,1
120541,-100,4,1,0,81,0,0
131970,-100,4,2,0,81,0,0
133399,416.666666666667,4,2,0,81,1,0
135274,-100,4,2,0,40,0,0

[Colours]
Combo1 : 255,168,253
Combo2 : 249,0,211
Combo3 : 140,13,255

[HitObjects]
440,264,6269,2,0,B|384:328|328:264,3,130,4|0|0|0
384,216,7519,1,8
328,72,7876,1,8
176,64,8233,1,0
248,96,8412,1,8
272,168,8590,1,0
248,240,8769,1,8
72,264,9126,6,0,B|128:328|184:264,3,130,4|2|0|2
128,216,10376,1,8
184,72,10733,1,0
336,64,11090,1,0
336,64,11269,1,8
472,144,11626,1,0
368,192,11983,2,0,B|312:136|256:192|256:192|200:248|136:192,2,260,4|8|4
328,48,14126,5,8
184,48,14483,1,2
144,192,14840,2,0,B|200:136|256:192|256:192|312:248|376:192,2,260,4|8|4
104,264,16447,5,8
168,312,16626,1,2
200,240,16804,1,0
256,184,16983,1,8
312,240,17162,1,0
344,312,17340,1,2
408,264,17519,1,8
400,184,17697,6,0,B|392:136|352:96|312:64|256:56|200:64|160:96|120:136|112:184,1,390,4|0
192,192,18947,2,0,B|256:232|320:192,1,130,8|0
328,272,19483,1,0
256,304,19662,1,8
184,272,19840,1,0
256,136,20197,1,8
400,176,20554,6,0,B|392:224|352:264|312:296|256:320|200:296|160:264|120:224|112:176,1,390,4|0
216,64,21983,1,0
296,64,22162,1,8
256,128,22340,1,0
184,264,22697,1,8
256,128,23054,1,2
336,264,23412,2,0,B|392:200|400:144|392:88|336:32,2,260,4|0|4
320,120,25554,5,0
192,264,25912,1,10
160,112,26269,2,0,B|104:176|96:232|104:288|160:344,2,260,4|0|0
160,112,27876,5,8
128,40,28054,1,2
200,16,28233,1,0
256,72,28412,1,0
312,16,28590,1,8
384,40,28769,1,0
352,112,28947,1,0
336,184,29110,6,8,B|376:248|336:312,1,130,12|2
256,192,29824,1,0
256,192,30002,1,0
256,192,30181,1,8
172,306,30538,2,8,B|136:248|175:184,1,130,8|10
64,192,31252,1,0
64,192,31431,1,0
64,192,31609,1,8
176,184,31967,6,8,B|136:120|173:61,1,130,8|2
256,192,32681,1,0
256,192,32859,1,0
256,192,33038,1,8
338,61,33395,2,8,B|375:120|336:184,1,130,8|2
424,192,34110,1,0
424,192,34288,1,0
424,192,34467,1,8
424,344,34824,6,8,B|360:384|296:344,1,130,8|2
256,192,35538,1,0
256,192,35717,1,0
256,192,35895,1,8
200,48,36252,2,8,B|134:6|78:46,1,130,8|2
64,200,36967,1,0
64,200,37145,1,0
64,200,37324,1,8
200,120,37681,6,8,B|256:72|320:120,1,130,8|2
160,200,38395,1,0
192,272,38574,1,8
256,224,38752,1,0
320,272,38931,1,8
352,200,39110,1,4
104,192,39467,5,0
144,264,39645,1,8
216,304,39824,1,0
296,304,40002,1,0
368,272,40181,1,0
400,200,40360,1,8
320,192,40542,6,0,B|288:168|256:160|224:168|184:192,2,130,4|2|0
328,136,41434,1,0
256,112,41613,1,8
184,144,41792,1,0
192,224,41970,2,8,B|224:248|256:256|288:248|320:224,2,130,8|2|8
184,304,42863,1,0
256,328,43042,1,2
328,296,43220,1,8
312,216,43399,6,0,B|352:168|352:96,1,130,0|2
200,216,44113,2,0,B|160:168|160:96,1,130,0|2
256,80,44827,2,0,B|256:210,1,130,0|4
336,192,45363,5,0
408,192,45542,2,0,B|392:272|304:272,1,130
256,312,46077,1,8
192,272,46256,2,0,B|119:273|103:193,2,130
144,328,47149,5,0
216,360,47327,1,0
296,360,47506,1,8
368,328,47684,1,4
232,248,48042,1,8
208,96,48399,1,0
264,48,48577,1,0
344,32,48756,5,0
408,72,48934,1,8
440,144,49113,1,8
400,208,49292,1,0
336,256,49470,1,0
256,272,49649,1,0
256,192,49827,2,0,B|256:112,2,65
256,272,50363,1,0
176,256,50542,5,8
112,208,50720,1,0
72,144,50899,1,8
104,72,51078,1,8
176,56,51256,1,0
216,56,51345,1,0
256,72,51434,1,2
312,128,51613,1,0
336,160,51702,1,0
368,176,51791,1,2
408,160,51881,1,0
432,128,51970,1,4
256,192,63041,5,0
256,192,63220,1,8
256,112,63399,2,0,B|336:120|368:192|336:296|256:312|176:280|168:192|192:144,1,390,4|2
128,192,64649,1,8
72,144,64827,2,0,B|120:96|192:144,1,130,0|0
256,288,65542,1,0
408,264,65899,1,2
384,192,66077,2,0,B|384:80|336:24|256:0|176:24|128:88|128:192,1,455,4|0
192,336,67684,6,0,B|256:360|336:336,1,130,8|0
296,224,68399,1,8
216,224,68577,1,2
144,128,68934,2,0,B|152:72|184:32|256:-8|328:32|360:72|368:128,1,325,4|0
320,280,70184,5,0
256,328,70363,1,8
192,280,70542,1,0
256,192,70899,1,2
112,185,71256,2,0,B|112:264|184:280,1,130,8|0
256,264,71792,1,0
328,280,71970,2,0,B|400:264|400:184,2,130,0|8|0
304,208,72863,1,0
336,136,73041,1,0
400,104,73220,1,8
432,32,73399,5,4
360,16,73577,1,0
304,64,73756,1,0
256,120,73934,1,8
200,64,74113,1,2
136,16,74291,1,8
64,32,74469,1,0
64,112,74649,1,8
104,192,74827,6,2,B|168:320|256:216|256:216|344:320|408:192,1,390,6|2
464,192,76077,1,0
400,144,76256,2,2,B|320:144|320:64,1,130,2|2
256,112,76792,1,8
192,72,76970,2,2,B|192:153|112:153,1,130,2|2
152,304,77684,2,0,B|160:360|256:400|344:360|352:296,1,260,4|8
200,248,78756,5,0
256,304,78934,1,0
312,248,79113,2,0,B|392:248|392:168,2,130
304,168,80005,1,0
256,104,80184,1,8
208,168,80363,1,0
144,216,80541,2,2,B|168:256|200:256|208:232|224:200|240:192|272:192|288:200|296:232|304:256|336:256|368:216,2,260,6|2|14
168,80,82684,5,8
216,24,82863,1,0
296,24,83042,1,0
344,80,83220,1,0
368,152,83399,2,2,B|338:115|306:115|298:139|290:171|274:179|242:179|226:171|210:139|202:115|170:115|146:155,2,260,2|2|10
400,224,85006,5,0
360,288,85184,1,8
288,312,85363,1,2
304,232,85541,1,0
256,176,85720,1,8
200,232,85899,1,0
224,312,86077,1,2
160,288,86256,6,0,B|80:288|80:192,1,130,4|2
112,56,86970,1,0
112,56,87149,1,0
112,56,87327,1,8
256,112,87684,2,0,B|200:112|168:128|168:192,1,130,0|2
256,296,88399,1,0
256,296,88577,1,0
256,296,88756,1,8
256,112,89113,6,2,B|312:112|344:128|344:192,1,130,2|2
256,296,89827,1,0
256,296,90006,1,0
256,296,90184,1,8
408,280,90541,2,2,B|488:280|488:184,1,130,6|2
400,56,91256,1,0
400,56,91434,1,0
400,56,91613,1,8
376,208,91970,6,2,B|317:266|256:200,1,130,2|2
256,56,92684,1,0
256,56,92863,1,0
256,56,93041,1,8
249,206,93399,2,2,B|194:266|136:208,1,130,2|2
256,56,94113,1,0
256,56,94291,1,0
256,56,94470,1,8
200,200,94827,6,2,B|256:152|256:256|312:200,1,130,2|2
256,352,95541,1,0
256,352,95720,1,0
256,352,95899,1,8
256,200,96256,1,4
104,192,96613,5,0
168,232,96791,1,8
200,304,96970,1,0
256,248,97149,1,10
312,304,97327,1,0
344,232,97506,1,0
416,192,97684,6,2,B|328:88|256:192|256:192|184:296|96:192,1,390,4|2
256,40,99113,1,0
256,192,99470,1,8
352,304,99827,1,0
296,360,100006,1,2
216,360,100184,1,8
160,304,100363,2,2,B|160:192|176:120|256:64|336:120|352:192|352:304,1,455,4|2
464,192,101970,5,0
408,248,102149,1,0
352,192,102327,1,8
256,72,102684,1,0
408,104,103041,1,0
408,104,103220,2,2,B|256:104|296:192|296:192|336:280|224:280,1,325,2|4
48,192,104470,5,0
104,248,104649,1,8
160,192,104827,1,2
256,312,105184,1,8
272,160,105541,1,0
104,104,105899,1,0
104,104,106077,2,2,B|256:104|216:192|216:192|176:280|288:280,1,325,2|2
336,224,107149,5,0
408,192,107327,1,0
408,112,107506,1,0
336,144,107684,1,8
264,184,107863,1,0
200,144,108041,1,0
136,104,108220,1,0
80,152,108399,2,0,B|112:176,7,32.5,8|0|0|8|0|0|8|0
136,200,109113,6,0,B|136:280|176:336|256:352|328:336|376:280|376:200,1,390,4|0
336,56,110541,1,0
176,56,110899,1,2
256,192,111256,1,8
256,192,111434,1,2
136,184,111791,1,0
136,184,111970,2,2,B|136:104|176:48|256:32|328:48|376:104|376:184,1,390,4|2
256,280,113399,5,0
384,192,113756,1,2
256,104,114113,1,0
128,192,114470,1,2
192,48,114827,2,0,B|144:112|224:152|256:80|272:8|352:16|336:104|296:120,1,260,4|0
320,200,115899,5,2
256,240,116077,1,0
192,200,116256,1,0
256,56,116613,1,2
184,128,116970,5,0
256,168,117149,1,0
328,128,117327,1,2
256,192,117684,12,4,120541
104,88,131970,5,0
104,168,132149,1,8
144,232,132327,1,2
216,272,132506,1,0
296,272,132684,5,0
360,232,132863,1,8
408,168,133041,1,2
408,88,133220,1,0
328,112,133399,6,0,B|328:152|304:192,2,65,0|8|2
256,88,134024,1,0
184,112,134232,2,0,B|184:152|208:192,2,65,0|8|2
200,32,134857,2,0,B|256:-16|320:32,1,130,0|2
