osu file format v7

[General]
AudioFilename: Therion - 01 - The Crowning of Atlantis.mp3
AudioLeadIn: 0
PreviewTime: 101793
Countdown: 1
SampleSet: Normal
StackLeniency: 0.3
Mode: 0
LetterboxInBreaks: 1

[Editor]
Bookmarks: 68387,85090,101793,118496,135199,151902,168605,185308,202002,218687,235385
DistanceSpacing: 0.600000023841858
BeatDivisor: 2
GridSize: 16

[Metadata]
Title:The Crowning of Atlantis
Artist:Therion
Creator:ShaggoN
Version:Normal
Source:Crowning of Atlantis
Tags:Symphonic Metal

[Difficulty]
HPDrainRate:4
CircleSize:5
OverallDifficulty:4
SliderMultiplier:1.3
SliderTickRate:1

[Events]
//Background and Video events
0,0,"background-normal.jpg"
//Break Periods
2,85290,100473
2,135399,150582
2,168805,183988
//Storyboard Layer 0 (Background)
//Storyboard Layer 1 (Fail)
//Storyboard Layer 2 (Pass)
//Storyboard Layer 3 (Foreground)
//Storyboard Sound Samples
//Background Colour Transformations
3,100,0,0,0

[TimingPoints]
1576,521.966072205307,4,1,0,80,1,0
202002,512.820512820513,4,2,0,80,1,0
210207,521.966072205307,4,2,0,80,1,0
216600,521.829883457993,4,1,0,80,1,0
218687,-100,4,1,0,80,0,1
235385,-100,4,1,0,80,0,0

[Colours]
Combo1 : 120,30,20
Combo2 : 176,88,0
Combo3 : 103,87,63
Combo4 : 213,139,2

[HitObjects]
448,272,68387,5,4
368,320,68909,1,0
272,320,69431,1,0
192,272,69953,1,2
192,176,70475,2,0,B|264:152|320:224,1,130
352,128,71519,2,0,B|416:168|432:280,1,130,0|2
384,320,72563,5,0
288,320,73085,2,0,B|160:368|48:256,1,260,0|2
144,240,74651,1,0
224,208,75173,1,0
256,128,75695,1,0
256,32,76217,1,2
176,80,76739,5,4
80,80,77261,1,0
128,160,77783,1,0
176,240,78305,1,2
80,240,78826,1,0
128,320,79348,1,0
224,320,79870,1,0
272,240,80392,1,2
272,144,80914,6,0,B|272:64,1,65
272,79,81436,2,0,B|352:80,1,65
336,79,81958,2,0,B|400:144,1,65
382,126,82480,2,0,B|320:192,1,65,2|0
337,173,83002,2,0,B|400:240,1,65
382,220,83524,2,0,B|464:221,1,65
447,220,84046,2,0,B|448:144,2,65,0|0|2
400,352,85090,5,4
80,48,101793,6,4,B|33:104|80:168,1,130,4|8
176,256,102837,1,0
304,256,103359,1,8
352,208,103620,1,0
400,160,103881,2,4,B|446:97|399:41,1,130,0|8
269,41,104925,1,0
139,41,105447,5,8
80,80,105708,1,0
112,144,105969,2,0,B|100:176|112:208,1,65,0|0
176,208,106491,2,0,B|176:256|176:256|128:289|176:320,1,130,8|0
304,320,107535,5,8
256,272,107796,1,0
320,256,108057,2,0,B|400:256,1,65
448,256,108579,1,8
416,192,108840,1,0
448,128,109101,1,0
320,56,109622,5,8
312,128,109883,1,0
240,128,110144,2,4,B|240:48|160:128|160:48,1,130,4|8
80,160,111188,1,0
96,304,111710,5,8
160,336,111971,1,0
224,304,112232,2,0,B|280:152|336:304,1,195
400,336,113276,1,0
416,208,113798,5,8
448,144,114059,1,0
448,80,114320,2,0,B|400:80|400:80|344:169|288:80,1,195,0|0
224,80,115364,1,0
256,288,115886,5,8
256,208,116147,1,0
304,144,116408,2,0,B|376:144,3,65,0|0|8|0
368,224,117452,2,0,B|288:224,3,65,0|0|8|0
240,176,118496,6,0,B|201:79|160:176,3,130,4|8|0|8
96,224,120323,1,0
160,272,120584,2,0,B|200:367|239:270,3,130,0|8|0|8
304,224,122411,1,0
368,176,122672,6,0,B|406:204|406:258|367:287,2,130,0|8|0
304,32,124238,2,0,B|224:32,1,65,8|0
176,64,124759,1,0
128,112,125020,1,0
96,176,125281,1,8
128,240,125542,1,0
176,288,125803,2,0,B|208:235|256:340|288:288,1,130,0|8
432,224,126847,6,0,B|288:224,1,130,0|8
240,176,127630,1,0
304,128,127891,2,0,B|448:128,1,130,0|8
496,80,128674,1,0
432,32,128935,2,0,B|288:32,1,130,0|8
240,80,129718,1,0
240,80,129979,1,0
80,48,130501,5,8
80,48,130762,1,0
48,112,131023,2,0,B|24:176|48:240,1,130,0|8
96,304,131806,1,0
144,240,132067,2,0,B|192:240|192:240|192:176|256:176,1,130,0|8
336,304,133111,6,0,B|416:304,3,65,0|0|8|0
400,224,134155,2,0,B|400:144,3,65,0|0|8|0
400,80,135199,1,4
464,32,151902,5,4
336,32,152424,1,0
208,32,152946,1,0
80,32,153468,1,2
144,144,153990,1,0
272,144,154512,1,0
400,144,155034,1,0
336,256,155555,1,2
448,352,156077,5,0
320,352,156599,1,0
192,352,157121,1,0
64,352,157643,1,2
128,240,158165,1,0
256,240,158687,1,0
192,128,159209,1,0
64,128,159731,1,2
64,256,160253,6,0,B|112:256|112:304,1,65,4|0
176,288,160775,1,0
176,288,161036,1,0
242,287,161297,2,0,B|288:288|287:253,1,65
288,192,161819,1,2
288,192,162080,1,0
288,128,162341,2,0,B|288:80|336:80,1,65
384,80,162863,2,0,B|419:78|419:126,1,65
416,192,163385,2,0,B|416:237|380:236,1,65
352,176,163907,1,2
160,176,164429,5,0
130,236,164691,2,0,B|95:237|96:192,1,65
92,124,165213,2,0,B|92:78|128:80,1,65
188,81,165735,2,0,B|224:80|224:128,1,65,0|2
224,192,166256,1,0
224,192,166517,1,0
224,253,166779,2,0,B|224:288|269:287,1,65
336,288,167300,1,0
336,288,167561,1,0
401,291,167823,2,0,B|400:256|448:256,1,65,0|2
352,160,168605,5,4
96,160,185308,6,4,B|35:106|96:48,2,130,4|8|0
224,192,186873,1,8
160,192,187134,1,0
96,224,187395,2,4,B|35:278|96:336,2,130,0|8|0
213,280,188961,5,8
278,280,189222,1,0
247,223,189483,2,0,C|256:208|240:192|256:176|240:160|256:144|240:128,2,130,0|8|0
210,79,191049,5,8
275,79,191310,1,0
340,79,191571,2,0,B|453:79,1,64.9999999999999
451,125,192093,1,8
451,190,192354,1,0
384,160,192615,2,0,B|384:208|384:208|320:208|352:272,1,130,0|8
224,192,193659,6,4,B|208:288|96:176|80:288,1,195,4|0
32,240,194703,1,0
32,80,195225,5,8
96,80,195486,1,0
160,80,195747,2,0,B|208:-2|256:80,1,130,0|8
320,80,196530,1,0
384,80,196791,1,0
464,192,197313,5,8
418,237,197574,1,0
372,283,197835,2,0,B|173:284,1,195,0|0
176,224,198879,1,0
128,48,199401,5,8
128,112,199662,1,0
192,112,199923,2,0,B|192:32,1,65
256,48,200445,2,0,B|256:128,1,65,8|0
320,112,200967,2,0,B|320:32,1,65
384,48,201489,2,0,B|384:128,1,65,8|0
352,176,202002,6,4,B|288:208|416:240|352:288,3,130,4|8|0|8
293,282,203796,1,0
227,282,204053,2,0,B|170:239|298:207|234:175,2,130,0|8|0
97,282,205591,5,8
97,216,205848,1,0
64,160,206104,2,0,B|40:96|64:32,1,130,0|8
128,160,207130,2,0,B|152:96|128:32,2,130,0|8|0
176,208,208412,1,0
224,160,208668,1,8
272,208,208925,1,0
224,256,209181,2,0,B|192:256|170:288|170:288|192:320|224:320,1,130,0|8
400,256,210207,6,0,B|400:112,1,130,4|8
400,126,210989,1,0
400,126,211250,1,0
272,192,211772,2,0,B|208:192,2,32.5,8|0|0
336,192,212294,2,0,C|322:128|224:128,1,130,0|8
195,125,213077,1,0
129,125,213338,1,0
192,240,213860,6,0,C|192:304,2,32.5,8|0|0
128,224,214382,2,0,C|48:224,1,65
64,288,214904,2,0,C|144:288,1,65,8|0
192,256,215426,1,0
448,192,216600,5,0
320,192,217121,1,2
192,192,217643,1,0
64,192,218165,1,2
128,320,218687,6,0,C|192:309|256:320,1,130,4|8
256,319,219730,2,0,C|320:309|384:320,2,130,0|8|0
256,192,221296,1,8
256,320,221818,1,0
368,256,222340,6,0,C|432:256,2,32.5,8|0|0
336,192,222861,1,0
256,96,223383,1,8
176,192,223905,1,0
48,192,224427,5,8
48,128,224688,1,0
93,82,224949,2,0,C|144:32,2,65,0|0|8
48,128,225732,1,0
48,192,225992,2,0,B|46:274|128:272,1,130,0|8
352,336,227036,6,0,B|208:336,1,130,4|8
192,288,227819,1,0
224,240,228080,2,0,B|365:240,1,130,0|8
384,192,228863,1,0
352,144,229123,2,0,B|208:144,1,130,0|8
192,96,229906,1,0
224,48,230167,2,0,B|368:48,1,130,0|8
400,80,230950,1,0
448,64,231211,6,0,B|496:192|448:320,1,260
368,192,232776,1,8
289,192,233298,5,0
262,164,233559,1,0
234,136,233820,1,8
207,164,234081,1,0
179,192,234342,1,0
207,219,234603,1,8
234,247,234864,1,8
262,219,235124,1,8
289,192,235385,1,12
