osu file format v7

[General]
AudioFilename: Therion - 01 - The Crowning of Atlantis.mp3
AudioLeadIn: 0
PreviewTime: 101793
Countdown: 1
SampleSet: Normal
StackLeniency: 0.3
Mode: 0
LetterboxInBreaks: 1

[Editor]
Bookmarks: 68387,84568,101793,118496,135199,151902,168605,185308,202002,218687,235385,252084,268791,293845
DistanceSpacing: 1.5
BeatDivisor: 4
GridSize: 8

[Metadata]
Title:The Crowning of Atlantis
Artist:Therion
Creator:ShaggoN
Version:Hard
Source:Crowning of Atlantis
Tags:Symphonic Metal

[Difficulty]
HPDrainRate:6
CircleSize:5
OverallDifficulty:8
SliderMultiplier:1.6
SliderTickRate:2

[Events]
//Background and Video events
0,0,"background-hard.jpg"
//Break Periods
2,84768,101043
2,135399,151152
2,168805,184558
2,235585,251334
//Storyboard Layer 0 (Background)
Sprite,Background,Centre,"spinwarning-bg.png",320,240 M,0,167039,,320,240 S,0,167039,,0.488 F,0,167039,167169,0,1 F,0,167822,167952,1,0
//Storyboard Layer 1 (Fail)
//Storyboard Layer 2 (Pass)
//Storyboard Layer 3 (Foreground)
Sprite,Foreground,Centre,"spinwarning.png",320,240 S,0,167300,,0.4495999 F,2,167300,167365,1,0 F,2,167365,167430,1,0 F,2,167430,167495,1,0 F,2,167495,167561,1,0 F,2,167561,167626,1,0 F,2,167626,167691,1,0
//Storyboard Sound Samples
//Background Colour Transformations
3,100,0,0,0

[TimingPoints]
1576,521.966072205307,4,1,0,80,1,0
202002,1025.64102564103,4,2,0,80,1,0
210207,1043.93214441061,4,2,0,80,1,0
216600,521.829883457993,4,1,0,80,1,0
218687,-100,4,1,0,80,0,1
235385,-100,4,1,0,80,0,0
268791,521.966072205307,4,1,0,80,1,1
293845,-100,4,1,0,80,0,0

[Colours]
Combo1 : 145,16,2
Combo2 : 155,77,23
Combo3 : 106,68,30

[HitObjects]
472,344,68387,5,4
432,288,68648,1,0
392,344,68909,2,0,B|359:340|344:319|361:277,1,80
392,224,69431,1,0
464,224,69692,1,0
429,160,69953,2,0,B|440:131|429:107|394:104,1,80,2|0
352,160,70475,5,0
280,160,70736,1,0
317,221,70997,2,0,B|325:251|312:273|277:273,1,80,2|0
232,216,71519,2,0,B|200:220|185:241|199:273,1,80,2|0
240,336,72041,1,2
256,64,72563,5,0
208,120,72824,1,0
160,64,73085,2,0,B|128:67|113:88|126:121,3,80
168,184,74129,1,2
240,184,74390,1,0
312,184,74651,6,0,B|323:213|312:236|277:240,1,80
336,280,75173,2,0,B|355:254|380:251|402:279,1,80,2|0
464,240,75695,2,0,B|475:210|464:187|429:183,1,80,2|0
368,144,76217,1,2
144,240,76739,5,4
82,200,77000,2,0,B|47:196|36:173|48:144,1,80,0|0
109,104,77522,2,0,B|131:132|156:129|176:104,1,80,0|0
234,143,78044,2,0,B|199:147|188:170|200:200,1,80,0|2
272,200,78565,1,0
344,200,78826,5,0
385,262,79087,2,0,B|398:295|383:316|352:320,3,80,0|2|0|2
304,264,80131,1,0
256,320,80392,1,2
272,48,80914,5,0
312,110,81175,2,0,B|326:142|311:163|280:168,1,80,0|0
234,110,81697,2,0,B|199:110|186:132|195:163,1,80,0|0
232,224,82219,1,0
160,224,82480,1,2
104,272,82741,1,0
40,232,83002,5,0
48,160,83263,1,0
120,160,83524,1,2
154,97,83785,2,0,B|168:65|153:44|120:40,1,80,0|2
80,96,84307,1,0
40,40,84568,1,2
88,72,101793,6,0,B|-1:136|88:200,1,160,4|8
208,272,102837,1,0
336,200,103359,1,8
384,248,103620,1,0
432,200,103881,6,0,B|519:137|430:73,1,160,0|8
304,136,104925,1,0
336,72,105186,1,0
280,24,105447,1,8
248,24,105577,1,0
216,24,105708,1,0
160,72,105969,6,0,B|127:108|160:144,1,80
232,144,106491,2,0,B|276:212|200:272,1,120,8|0
184,253,107013,2,0,B|151:289|184:325,1,80
248,288,107535,1,8
320,288,107796,1,0
368,336,108057,6,0,B|419:336|413:285,1,80
384,216,108579,1,8
440,168,108840,1,0
384,120,109101,2,0,B|390:71|439:73,1,80,0|0
376,32,109622,1,8
344,32,109753,1,0
312,32,109883,1,0
256,96,110144,6,4,B|192:174|120:96,1,160,4|12
48,96,110927,1,0
88,160,111188,1,0
48,224,111449,1,0
88,280,111710,1,8
120,296,111841,1,0
152,280,111971,1,0
192,224,112232,6,0,B|256:146|328:224,1,160,0|8
258,247,113015,1,0
304,304,113276,1,0
376,304,113537,1,0
416,248,113798,1,8
432,216,113929,1,0
416,184,114059,1,0
483,158,114320,6,4,B|419:80|347:158,1,160,4|12
280,176,115103,1,0
232,128,115364,1,0
192,72,115625,1,0
152,128,115886,1,8
104,176,116147,1,0
32,176,116408,5,0
48,272,116669,1,0
112,336,116930,1,8
208,352,117191,1,0
304,352,117452,1,0
400,336,117713,1,0
464,272,117974,1,8
480,176,118235,1,0
256,192,118496,6,0,B|212:320|168:192,1,160,4|8
212,108,119279,1,0
256,192,119540,2,0,B|300:320|344:192,1,160,0|8
300,108,120323,1,0
336,16,120584,2,0,B|168:16,2,160,0|8|0
408,80,121889,1,0
408,176,122150,5,8
432,216,122280,1,0
384,216,122411,1,0
336,296,122672,2,0,B|256:296|160:296,2,160,0|8|0
256,344,123977,1,0
256,248,124238,6,0,B|211:216|256:184,1,80,8|0
344,216,124759,1,0
304,128,125020,1,0
256,128,125151,1,0
208,128,125281,1,8
168,216,125542,1,0
232,288,125803,2,0,B|256:138|280:290,1,160,0|8
256,64,126847,6,0,B|181:47|96:64,1,160,4|8
256,192,127630,1,0
256,64,127891,2,0,B|331:47|416:64,1,160,0|8
414,63,128544,1,0
414,63,128674,1,0
416,320,128935,6,0,B|332:336|257:319,1,160,0|8
256,192,129718,1,0
256,320,129979,2,0,B|181:337|96:320,1,160,0|8
97,320,130632,1,0
97,320,130762,1,0
97,191,131023,6,0,B|160:176|192:208|256:192,1,160,0|8
255,192,131806,1,0
414,191,132067,2,0,B|352:176|320:208|256:192,1,160,0|8
256,0,133111,5,0
392,40,133372,1,0
472,160,133633,1,8
440,296,133894,1,0
328,384,134155,1,0
184,384,134416,1,0
72,296,134677,1,8
40,160,134938,1,0
120,40,135199,1,4
184,128,151902,5,4
256,72,152163,1,0
328,128,152424,1,0
256,192,152685,1,0
184,256,152946,1,0
256,312,153207,1,0
328,256,153468,1,2
400,192,153729,1,0
400,192,153859,1,0
352,192,153990,6,0,B|318:119,1,80
160,192,154512,2,0,B|193:119,1,80,2|0
256,312,155034,2,0,B|256:216,1,80,2|0
256,120,155555,1,2
96,344,156077,6,0,B|192:344,1,80
416,240,156599,2,0,B|320:240,1,80
96,144,157121,2,0,B|192:144,1,80
416,40,157643,2,0,B|320:40,1,80,2|0
168,64,158165,5,0
256,104,158426,1,0
344,144,158687,1,2
256,192,158948,1,0
168,224,159209,1,2
256,280,159470,1,0
344,328,159731,2,0,B|408:288|272:248|344:192,1,160,2|4
344,96,160514,5,0
344,96,160645,1,0
344,96,160775,1,0
256,24,161036,5,0
256,24,161167,1,0
256,24,161297,1,0
168,96,161558,5,0
168,96,161689,1,0
168,96,161819,1,2
168,208,162080,5,0
168,208,162211,1,0
168,208,162341,1,0
256,280,162602,5,0
256,280,162733,1,0
256,280,162863,1,2
344,208,163124,5,0
344,208,163254,1,0
344,208,163385,1,2
256,208,163646,1,0
256,96,163907,1,2
456,336,164429,5,0
456,216,164690,1,0
456,160,164820,1,0
456,104,164951,1,0
312,32,165212,5,0
256,16,165342,1,0
200,32,165473,1,0
56,104,165734,5,0
56,160,165864,1,0
56,216,165995,1,2
56,328,166256,1,0
152,272,166517,5,0
360,224,166908,1,0
360,224,167039,1,2
152,176,167430,1,0
152,176,167561,1,2
360,120,167952,1,0
360,120,168083,1,2
256,192,168213,12,4,168605
168,56,185308,6,4,B|62:35|77:146,1,160,4|8
168,144,186091,1,0
168,56,186351,2,0,B|273:35|258:146,1,160,0|8
168,144,187134,1,0
104,216,187395,6,0,B|164:305|232:216,2,160,0|8|0
168,144,188700,1,0
264,144,188961,1,8
304,120,189092,1,0
344,96,189222,1,0
416,216,189483,6,0,B|356:127|288:216,2,160,0|8|0
448,296,190788,1,0
448,296,190919,1,0
448,296,191049,1,8
368,352,191310,1,0
296,296,191571,6,0,B|208:296,1,80
216,88,192093,2,0,B|304:88,1,80,8|0
488,192,192615,2,0,C|480:184|472:192|464:184|456:192|448:184|440:192|432:184|424:192|416:184|408:192|400:184|392:192|384:184|376:192|368:184,1,160,0|8
328,192,193268,1,0
280,192,193398,1,0
232,192,193529,1,0
232,239,193659,6,0,B|202:244|179:219|161:194|177:162|198:139|238:144,1,160,4|8
256,48,194442,1,0
280,143,194703,2,0,B|314:139|335:162|351:194|333:219|310:244|280:239,1,160,0|8
256,280,195355,1,0
256,328,195486,1,0
256,232,195747,6,0,B|173:191|344:152|256:112,1,160,0|8
176,232,196530,1,0
336,232,196791,1,0
256,360,197052,1,0
176,232,197313,1,8
176,232,197443,1,0
176,232,197574,1,0
257,112,197835,6,0,B|344:152|173:191|256:232,1,160,0|8
336,112,198618,1,0
176,112,198879,2,0,B|344:112,1,160,0|8
464,184,199662,1,0
392,56,199923,5,0
120,96,200184,1,0
392,136,200445,1,8
120,176,200706,1,0
392,216,200967,1,0
120,256,201228,1,0
392,296,201489,1,8
120,336,201749,1,0
312,152,202002,6,0,B|312:240,1,80,4|8
256,288,202771,1,0
200,232,203027,2,0,B|200:152,1,80,0|8
256,96,203796,1,0
296,32,204053,2,0,B|256:23|216:32,2,80,0|8|0
344,96,205335,1,0
424,96,205591,2,0,B|456:96,2,20,8|0|0
384,168,206104,6,0,B|392:207|383:247,1,80,0|8
224,248,207130,2,0,B|215:208|223:168,1,80,0|8
304,168,207899,1,0
304,248,208155,1,0
247,304,208412,1,0
168,304,208668,1,8
111,247,208925,1,0
112,168,209181,2,0,B|116:144|88:144|88:144|61:144|64:168,1,80,0|8
64,328,210207,6,0,B|144:360,1,80,4|8
216,360,210989,1,0
288,328,211250,2,0,B|368:368,1,80,0|8
400,363,211903,1,0
439,363,212033,1,0
480,296,212294,2,0,B|400:256,1,80,0|8
448,192,213077,1,0
408,120,213338,1,2
104,64,213860,5,8
72,88,213991,1,0
40,112,214121,1,0
40,192,214382,2,0,B|120:232,1,80,0|8
191,227,215165,1,0
240,288,215426,2,0,B|320:328,1,80,2|8
256,56,216600,5,2
176,192,216860,1,0
336,192,217121,1,2
336,192,217252,1,0
336,192,217382,1,0
176,192,217643,1,0
256,56,217904,1,0
256,56,218035,1,0
256,56,218165,1,2
256,344,218687,6,0,B|216:296|297:248|256:192,1,160,4|8
376,192,219470,1,0
487,191,219730,2,0,B|447:136|528:88|488:40,1,160,0|8
392,120,220513,1,0
256,192,220774,6,0,B|256:240|207:245,1,80,0|0
256,136,221296,2,0,B|303:140|303:189,1,80,8|0
200,136,221818,2,0,B|199:87|247:82,1,80
200,192,222340,1,8
168,240,222470,1,0
136,288,222601,1,0
64,192,222861,6,0,B|47:112|64:32,2,160,0|8|0
152,112,224166,1,0
264,72,224427,2,0,B|273:112|264:152,1,80,8|0
256,272,224949,5,0
400,344,225210,1,0
464,200,225471,1,8
320,128,225732,1,0
360,240,225992,2,0,B|407:220|368:125|431:107,1,160
24,192,227036,6,0,B|112:192,1,80,4|0
160,80,227558,1,8
216,192,227819,2,0,B|304:192,1,80
352,304,228341,1,0
408,192,228602,2,0,B|496:192,1,80,8|0
448,80,229123,5,0
336,40,229384,1,0
336,96,229515,1,0
286,68,229645,1,8
256,184,229906,1,0
296,296,230167,2,0,B|256:306|216:296,1,80
104,256,230689,1,8
72,208,230819,1,0
56,152,230950,1,0
72,96,231080,1,0
104,48,231211,6,0,B|180:1|256:48,1,160,0|8
254,47,231993,1,0
406,47,232254,2,0,B|332:1|256:48,1,160,0|8
336,136,233037,1,0
488,192,233298,5,0
430,360,233559,1,0
372,192,233820,1,8
314,24,234081,1,0
256,192,234342,1,0
198,360,234603,1,8
139,192,234864,1,8
82,24,235124,1,8
24,192,235385,1,4
256,192,252084,12,0,253128
216,160,253649,6,0,B|304:160,1,80,2|0
336,96,254171,2,0,B|176:96,1,160
176,288,254954,2,0,B|336:288,1,160
296,224,255737,2,0,B|216:224,1,80,2|0
256,192,256259,12,0,257302
120,192,257563,5,0
176,248,257824,2,0,B|256:265|336:248,1,160,2|0
334,248,258607,1,0
392,192,258868,1,0
334,135,259129,2,0,B|256:119|176:136,1,160
176,135,259911,1,2
232,192,260172,1,0
256,192,260303,1,0
256,192,260433,12,0,261477
296,192,261738,5,0
216,192,261999,1,2
177,262,262260,1,0
177,262,262390,1,0
177,262,262521,2,0,B|257:279|337:262,1,160
177,122,263303,2,0,B|257:105|337:122,1,160
216,192,264086,1,2
296,192,264347,1,0
296,192,264477,1,0
256,192,264608,12,0,265652
424,32,265912,5,0
362,85,266173,2,0,B|338:174|255:192,1,160,2|0
184,232,266956,1,0
184,152,267217,1,0
256,192,267478,2,0,B|338:209|362:299,1,160
424,352,268261,1,6
32,344,268791,6,0,B|96:255|160:346,1,160,4|8
240,328,269573,1,0
320,352,269834,1,0
400,328,270095,1,0
480,352,270356,1,8
400,328,270617,1,0
480,288,270878,6,0,B|417:198|353:287,1,160,0|8
272,280,271661,1,0
192,304,271922,1,0
112,280,272183,1,0
32,304,272444,1,8
112,280,272705,1,0
32,240,272966,6,0,B|94:150|158:239,1,160,0|8
240,232,273749,1,0
320,256,274010,1,0
400,232,274271,1,0
480,256,274532,1,8
400,232,274793,1,0
480,192,275054,6,0,B|417:102|353:191,1,160,0|8
272,184,275837,1,0
192,208,276098,1,0
112,184,276359,1,0
32,208,276620,1,12
112,184,276881,1,0
72,256,277142,6,0,B|191:375,1,160,4|8
256,272,277925,1,0
208,128,278186,1,0
336,208,278447,1,0
176,208,278708,1,8
304,128,278969,1,0
185,14,279230,6,0,B|72:128,1,160,0|8
256,112,280013,1,0
208,256,280274,1,0
336,176,280535,1,0
176,176,280796,1,8
304,256,281057,1,0
440,128,281318,6,0,B|320:8,1,160,0|8
256,112,282101,1,0
304,256,282362,1,0
176,176,282623,1,0
336,176,282884,1,8
208,256,283145,1,0
326,369,283406,6,0,B|440:256,1,160,0|8
256,272,284189,1,0
304,128,284450,1,0
176,208,284711,1,0
336,208,284972,1,8
208,128,285233,1,0
56,272,285493,6,0,B|32:224|80:152|56:104,1,160,4|8
256,192,286276,1,0
451,114,286537,2,0,B|432:152|480:224|456:272,1,160,4|8
256,192,287320,1,0
171,345,287581,2,0,B|218:368|290:320|327:340,1,160,4|8
256,192,288364,1,0
327,43,288625,2,0,B|290:63|218:15|171:39,1,160,4|8
256,192,289408,1,0
105,191,289669,2,0,B|257:285|409:191,1,320,4|0
177,94,291235,6,0,B|257:77|337:94,2,160,8|0|8
256,320,292801,1,0
160,172,293323,5,8
208,212,293453,1,0
256,172,293584,1,8
304,212,293714,1,0
352,172,293845,1,4
