osu file format v14

[General]
AudioFilename: fireworks.mp3
AudioLeadIn: 1500
PreviewTime: 89677
Countdown: 0
SampleSet: Soft
StackLeniency: 0.7
Mode: 0
LetterboxInBreaks: 0
WidescreenStoryboard: 0

[Editor]
Bookmarks: 153677,192077,217677,230477,237677,280877
DistanceSpacing: 1.7
BeatDivisor: 4
GridSize: 4
TimelineZoom: 1.1

[Metadata]
Title:Here Is Where
TitleUnicode:Here Is Where
Artist:There Will Be Fireworks
ArtistUnicode:There Will Be Fireworks
Creator:YellowManul
Version:Nowhere
Source:
Tags:indie folk the dark bright post-rock
BeatmapID:655970
BeatmapSetID:291301

[Difficulty]
HPDrainRate:6
CircleSize:4
OverallDifficulty:7
ApproachRate:7.5
SliderMultiplier:1.6
SliderTickRate:1

[Events]
//Background and Video events
0,0,"bg.jpg",0,0
//Break Periods
2,153877,165652
2,217677,226452
//Storyboard Layer 0 (Background)
//Storyboard Layer 1 (Fail)
//Storyboard Layer 2 (Pass)
//Storyboard Layer 3 (Foreground)
//Storyboard Sound Samples

[TimingPoints]
77,800,4,2,1,45,1,0
77,-117.647058823529,4,2,1,30,0,0
25677,-111.111111111111,4,2,1,70,0,0
192077,-100,4,2,1,70,0,1
217677,-111.111111111111,4,2,1,70,0,0
284877,-111.111111111111,4,2,1,50,0,0
291277,-111.111111111111,4,2,1,40,0,0
294477,-133.333333333333,4,2,1,30,0,0
307277,-133.333333333333,4,2,1,20,0,0
345677,-133.333333333333,4,2,1,5,0,0

[Colours]
Combo1 : 255,176,98
Combo2 : 255,255,183
Combo3 : 174,255,174
Combo4 : 187,233,255

[HitObjects]
140,100,77,5,0,0:0:0:0:
140,100,477,2,0,L|136:172,1,68.0000012969971,0|2,0:0|0:0,0:0:0:0:
216,232,1277,1,2,0:0:0:0:
264,322,1677,1,0,0:0:0:0:
312,232,2077,2,0,P|348:228|396:208,2,68.0000012969971,0|2|2,0:0|0:0|0:0,0:0:0:0:
256,112,3277,6,0,P|260:68|248:28,1,68.0000012969971
156,68,4077,1,2,0:0:0:0:
63,110,4477,1,2,0:0:0:0:
68,212,4877,2,0,P|72:260|64:304,1,68.0000012969971
160,328,5677,1,2,0:0:0:0:
260,344,6077,1,2,0:0:0:0:
288,188,6477,6,0,P|329:187|360:176,1,68.0000012969971
308,84,7277,1,2,0:0:0:0:
208,106,7677,1,2,0:0:0:0:
200,208,8077,2,0,P|208:252|228:288,1,68.0000012969971
305,326,8877,1,2,0:0:0:0:
399,286,9277,1,2,0:0:0:0:
404,144,9677,6,0,P|396:104|400:64,1,68.0000012969971
295,78,10477,1,2,0:0:0:0:
295,179,10877,1,2,0:0:0:0:
212,120,11277,2,0,P|160:120|124:136,2,68.0000012969971,0|0|2,0:0|0:0|0:0,0:0:0:0:
190,220,12477,1,2,0:0:0:0:
280,304,12877,5,0,0:0:0:0:
348,228,13277,2,0,P|384:240|432:240,1,68.0000012969971,0|2,0:0|0:0,0:0:0:0:
480,164,14077,1,2,0:0:0:0:
422,80,14477,1,0,0:0:0:0:
320,84,14877,2,0,P|287:91|258:108,1,68.0000012969971,0|2,0:0|0:0,0:0:0:0:
164,68,15677,1,2,0:0:0:0:
180,204,16077,6,0,P|172:252|176:292,1,68.0000012969971
288,324,16877,2,0,P|296:276|292:236,1,68.0000012969971,2|2,0:0|0:0,0:0:0:0:
348,172,17677,1,0,0:0:0:0:
436,224,18077,1,0,0:0:0:0:
348,172,18477,2,0,P|352:132|344:96,1,68.0000012969971,2|2,0:0|0:0,0:0:0:0:
224,120,19277,6,0,P|184:132|128:124,1,68.0000012969971
100,48,20077,1,2,0:0:0:0:
72,144,20477,1,2,0:0:0:0:
160,208,20877,2,0,P|168:252|160:296,1,68.0000012969971
254,325,21677,1,2,0:0:0:0:
279,226,22077,1,2,0:0:0:0:
220,124,22477,6,0,L|302:119,1,68.0000012969971
404,148,23277,1,2,0:0:0:0:
352,76,23677,2,0,P|349:43|339:5,1,68.0000012969971
460,76,24477,1,0,0:0:0:0:
404,148,24877,2,0,P|392:192|396:232,1,68.0000012969971
436,312,25677,6,0,L|428:352,1,35.9999989013672,0|0,1:0|0:0,0:0:0:0:
308,312,26077,2,0,L|300:272,1,35.9999989013672
184,320,26477,1,10,0:0:0:0:
40,192,26877,1,2,0:0:0:0:
96,136,27077,1,0,0:0:0:0:
41,59,27277,6,0,L|81:63,1,35.9999989013672
156,60,27677,1,0,0:0:0:0:
224,100,27877,1,0,0:0:0:0:
292,60,28077,1,10,0:0:0:0:
356,106,28277,2,0,L|372:144,2,35.9999989013672,0|2|0,0:0|0:0|0:0,0:0:0:0:
286,169,28877,6,0,L|280:233,1,35.9999989013672,0|0,1:0|0:0,0:0:0:0:
216,268,29277,2,0,L|235:308,1,35.9999989013672
314,354,29677,1,10,0:0:0:0:
314,354,30077,2,0,L|275:386,1,35.9999989013672,2|0,0:0|0:0,0:0:0:0:
216,340,30477,5,0,0:0:0:0:
151,295,30677,1,0,0:0:0:0:
89,246,30877,2,0,L|32:228,1,35.9999989013672
91,165,31277,2,0,L|128:160,2,35.9999989013672,10|0|2,0:0|0:0|0:0,0:0:0:0:
43,102,31877,1,0,0:0:0:0:
136,44,32077,6,0,L|175:37,1,35.9999989013672,0|0,1:0|0:0,0:0:0:0:
227,94,32477,2,0,L|265:107,1,35.9999989013672
327,60,32877,1,10,0:0:0:0:
327,60,33277,2,0,L|352:104,1,35.9999989013672,2|0,0:0|0:0,0:0:0:0:
415,128,33677,5,0,0:0:0:0:
366,190,33877,1,0,0:0:0:0:
426,241,34077,1,0,0:0:0:0:
380,305,34277,1,0,0:0:0:0:
302,312,34477,2,0,L|265:323,1,35.9999989013672,10|0,0:0|0:0,0:0:0:0:
202,277,34877,2,0,L|160:272,1,35.9999989013672,2|0,0:0|0:0,0:0:0:0:
105,222,35277,5,0,1:0:0:0:
40,140,35477,2,0,L|31:100,2,35.9999989013672
105,222,36077,2,0,L|176:196,1,71.9999978027344,10|2,0:0|0:0,0:0:0:0:
194,124,36677,1,0,0:0:0:0:
194,124,36877,2,0,L|240:132,1,35.9999989013672
304,105,37277,2,0,L|328:136,1,35.9999989013672
399,164,37677,1,10,0:0:0:0:
335,210,37877,1,0,0:0:0:0:
265,246,38077,2,0,L|236:296,1,35.9999989013672,2|0,0:0|0:0,0:0:0:0:
172,304,38477,6,0,L|149:228,1,71.9999978027344,0|0,1:0|0:0,0:0:0:0:
77,227,39077,1,0,0:0:0:0:
77,227,39277,2,0,L|36:240,1,35.9999989013672,10|0,0:0|0:0,0:0:0:0:
10,166,39677,2,0,L|51:153,1,35.9999989013672,2|0,0:0|0:0,0:0:0:0:
93,92,40077,2,0,L|170:106,1,71.9999978027344
236,69,40677,1,0,0:0:0:0:
236,69,40877,2,0,L|260:112,1,35.9999989013672,10|0,0:0|0:0,0:0:0:0:
327,130,41277,2,0,L|313:168,1,35.9999989013672,2|0,0:0|0:0,0:0:0:0:
420,220,41677,6,0,L|408:300,1,71.9999978027344,0|0,1:0|0:0,0:0:0:0:
317,318,42277,1,0,0:0:0:0:
317,318,42477,2,0,L|261:341,1,35.9999989013672,10|0,0:0|0:0,0:0:0:0:
262,256,42877,1,2,0:0:0:0:
185,272,43077,1,0,0:0:0:0:
131,214,43277,2,0,L|145:134,1,71.9999978027344
210,99,43877,1,0,0:0:0:0:
210,99,44077,2,0,L|256:84,1,35.9999989013672,10|0,0:0|0:0,0:0:0:0:
315,52,44477,2,0,L|357:68,1,35.9999989013672,2|0,0:0|0:0,0:0:0:0:
428,168,44877,6,0,P|432:203|427:239,1,71.9999978027344,0|0,1:0|0:0,0:0:0:0:
347,231,45477,1,0,0:0:0:0:
274,200,45677,1,10,0:0:0:0:
202,224,45877,1,0,0:0:0:0:
202,224,46077,2,0,L|172:243,1,35.9999989013672,0|8,0:0|0:0,0:0:0:0:
163,155,46477,2,0,L|144:92,1,35.9999989013672,0|8,0:0|0:0,0:0:0:0:
203,59,46877,1,0,0:0:0:0:
278,86,47077,1,0,0:0:0:0:
351,116,47277,2,0,L|356:196,1,71.9999978027344,10|2,0:0|0:0,0:0:0:0:
424,227,47877,1,0,0:0:0:0:
354,263,48077,6,0,L|344:312,1,35.9999989013672,0|0,1:0|0:0,0:0:0:0:
271,318,48477,2,0,L|245:353,1,35.9999989013672
173,329,48877,2,0,P|172:290|151:247,1,71.9999978027344,10|0,0:0|0:0,0:0:0:0:
84,238,49477,1,8,0:0:0:0:
85,159,49677,2,0,L|88:116,1,35.9999989013672,8|8,0:0|0:0,0:0:0:0:
165,110,50077,2,0,L|180:68,1,35.9999989013672,0|10,0:0|0:0,0:0:0:0:
256,71,50477,2,0,P|293:79|333:75,1,71.9999978027344,10|2,0:0|0:0,0:0:0:0:
399,43,51077,1,0,0:0:0:0:
452,102,51277,6,0,L|444:148,1,35.9999989013672
462,215,51677,2,0,L|479:253,1,35.9999989013672
423,307,52077,2,0,P|388:318|332:312,1,71.9999978027344,10|2,0:0|0:0,0:0:0:0:
283,281,52677,2,0,P|241:279|203:293,1,71.9999978027344
139,306,53277,1,0,0:0:0:0:
64,288,53477,1,0,0:0:0:0:
116,232,53677,2,0,P|140:220|176:212,1,35.9999989013672,8|0,0:0|0:0,0:0:0:0:
48,200,54077,2,0,L|32:160,1,35.9999989013672,2|0,0:0|0:0,0:0:0:0:
88,111,54477,6,0,L|112:56,1,35.9999989013672,0|0,1:0|0:0,0:0:0:0:
180,61,54877,1,0,0:0:0:0:
249,100,55077,1,0,0:0:0:0:
323,73,55277,2,0,P|382:90|411:178,1,143.999995605469,10|0,0:0|0:0,0:0:0:0:
393,237,56277,1,0,0:0:0:0:
319,265,56477,1,0,0:0:0:0:
248,228,56677,1,0,0:0:0:0:
196,332,56877,2,0,L|136:336,1,35.9999989013672,10|0,0:0|0:0,0:0:0:0:
104,284,57277,2,0,L|56:280,1,35.9999989013672,2|0,0:0|0:0,0:0:0:0:
26,218,57677,6,0,P|19:180|31:132,1,71.9999978027344,0|0,1:0|0:0,0:0:0:0:
89,101,58277,1,0,0:0:0:0:
89,101,58477,2,0,L|144:104,1,35.9999989013672,10|0,0:0|0:0,0:0:0:0:
182,47,58877,2,0,L|223:67,1,35.9999989013672,2|0,0:0|0:0,0:0:0:0:
312,32,59277,2,0,P|307:70|316:113,1,71.9999978027344
362,165,59877,1,0,0:0:0:0:
362,165,60077,2,0,L|406:160,1,35.9999989013672,10|0,0:0|0:0,0:0:0:0:
445,225,60477,2,0,L|488:243,1,35.9999989013672
436,306,60877,6,0,P|393:303|356:320,1,71.9999978027344,0|0,1:0|0:0,0:0:0:0:
302,351,61477,1,0,0:0:0:0:
302,351,61677,2,0,L|280:280,1,71.9999978027344,10|2,0:0|0:0,0:0:0:0:
208,258,62277,1,0,0:0:0:0:
133,234,62477,2,0,L|112:272,1,35.9999989013672
46,229,62877,2,0,L|32:192,1,35.9999989013672
65,124,63277,1,10,0:0:0:0:
131,81,63477,2,0,L|120:44,2,35.9999989013672,0|2|0,0:0|0:0|0:0,0:0:0:0:
208,100,64077,6,0,L|212:176,1,71.9999978027344,0|0,1:0|0:0,0:0:0:0:
282,206,64677,1,0,0:0:0:0:
250,278,64877,2,0,P|215:288|176:284,1,71.9999978027344,10|2,0:0|0:0,0:0:0:0:
105,280,65477,2,0,P|103:238|84:188,1,71.9999978027344
36,162,66077,1,0,0:0:0:0:
85,100,66277,2,0,L|64:64,2,35.9999989013672,0|10|0,0:0|0:0|0:0,0:0:0:0:
163,111,66877,1,2,0:0:0:0:
224,61,67077,1,0,0:0:0:0:
235,139,67277,6,0,P|240:173|260:212,1,71.9999978027344,0|0,1:0|0:0,0:0:0:0:
333,213,67877,1,0,0:0:0:0:
333,213,68077,2,0,P|328:247|308:288,1,71.9999978027344,10|2,0:0|0:0,0:0:0:0:
239,302,68677,1,0,0:0:0:0:
168,268,68877,2,0,L|144:296,1,35.9999989013672
78,250,69277,2,0,L|40:268,1,35.9999989013672
34,185,69677,2,0,P|32:147|44:108,1,71.9999978027344,10|2,0:0|0:0,0:0:0:0:
92,60,70277,1,0,0:0:0:0:
208,148,70477,6,0,P|244:156|280:148,1,71.9999978027344,0|0,1:0|0:0,0:0:0:0:
376,264,71277,2,0,L|400:300,2,35.9999989013672,8|2|8,0:0|0:0|0:0,0:0:0:0:
414,195,71877,1,0,0:0:0:0:
414,195,72077,2,0,L|420:156,1,35.9999989013672,0|8,0:0|0:0,0:0:0:0:
378,92,72477,1,0,0:0:0:0:
312,49,72677,1,0,0:0:0:0:
236,70,72877,2,0,L|220:120,1,35.9999989013672,10|0,0:0|0:0,0:0:0:0:
152,134,73277,2,0,L|168:180,1,35.9999989013672,2|0,0:0|0:0,0:0:0:0:
228,209,73677,6,0,L|220:280,1,71.9999978027344,0|0,1:0|0:0,0:0:0:0:
290,313,74277,1,0,0:0:0:0:
290,313,74477,2,0,L|336:344,1,35.9999989013672,10|0,0:0|0:0,0:0:0:0:
389,297,74877,1,2,0:0:0:0:
338,237,75077,2,0,L|328:200,1,35.9999989013672,8|0,0:0|0:0,0:0:0:0:
267,155,75477,2,0,L|256:112,1,35.9999989013672,8|0,0:0|0:0,0:0:0:0:
192,80,75877,1,0,0:0:0:0:
122,116,76077,2,0,L|112:156,1,35.9999989013672,10|0,0:0|0:0,0:0:0:0:
53,202,76477,1,2,0:0:0:0:
91,271,76677,1,0,0:0:0:0:
192,280,76877,6,0,P|251:286|307:322,1,107.999996704102,0|0,1:0|0:0,0:0:0:0:
348,260,77677,2,0,P|338:228|339:186,1,71.9999978027344,10|2,0:0|0:0,0:0:0:0:
404,152,78277,1,0,0:0:0:0:
404,152,78477,2,0,L|415:109,1,35.9999989013672
424,44,78877,1,0,0:0:0:0:
352,56,79077,1,0,0:0:0:0:
352,56,79277,2,0,L|315:97,1,35.9999989013672,10|0,0:0|0:0,0:0:0:0:
252,80,79677,2,0,L|242:123,1,35.9999989013672,2|0,0:0|0:0,0:0:0:0:
144,200,80077,6,0,L|140:316,1,107.999996704102,0|0,1:0|0:0,0:0:0:0:
211,334,80877,2,0,L|251:352,1,35.9999989013672,10|0,0:0|0:0,0:0:0:0:
266,277,81277,1,2,0:0:0:0:
311,216,81477,1,0,0:0:0:0:
389,227,81677,2,0,L|436:245,2,35.9999989013672
356,155,82277,2,0,L|336:117,1,35.9999989013672,0|10,0:0|0:0,0:0:0:0:
272,82,82677,1,8,0:0:0:0:
198,109,82877,1,10,0:0:0:0:
121,123,83077,1,8,0:0:0:0:
94,197,83277,6,0,P|99:240|96:289,1,71.9999978027344,0|0,1:0|0:0,0:0:0:0:
169,296,83877,1,0,0:0:0:0:
169,296,84077,2,0,B|205:279|245:294,1,71.9999978027344,10|2,0:0|0:0,0:0:0:0:
310,316,84677,2,0,L|332:357,2,35.9999989013672
336,244,85277,2,0,L|355:206,1,35.9999989013672
332,136,85677,2,0,L|311:90,1,35.9999989013672,10|0,0:0|0:0,0:0:0:0:
248,68,86077,1,2,0:0:0:0:
172,56,86277,1,0,0:0:0:0:
104,92,86477,6,0,L|111:166,1,71.9999978027344,0|0,1:0|0:0,0:0:0:0:
60,220,87077,1,0,0:0:0:0:
60,220,87277,2,0,L|29:254,1,35.9999989013672,10|0,0:0|0:0,0:0:0:0:
84,304,87677,2,0,L|89:344,1,35.9999989013672,2|0,0:0|0:0,0:0:0:0:
165,331,88077,1,0,0:0:0:0:
233,291,88277,1,0,0:0:0:0:
302,329,88477,2,0,L|320:285,1,35.9999989013672
378,218,88877,5,8,0:0:0:0:
378,218,89077,1,8,0:0:0:0:
360,118,89277,1,8,0:0:0:0:
360,118,89477,1,8,0:0:0:0:
271,53,89677,5,0,1:0:0:0:
202,91,89877,1,0,0:0:0:0:
129,61,90077,2,0,L|114:102,1,35.9999989013672
58,148,90477,2,0,P|68:183|66:222,1,71.9999978027344,10|2,0:0|0:0,0:0:0:0:
129,267,91077,1,0,0:0:0:0:
129,267,91277,2,0,L|120:310,2,35.9999989013672
202,236,91877,1,0,0:0:0:0:
277,260,92077,2,0,L|311:251,1,35.9999989013672,10|0,0:0|0:0,0:0:0:0:
371,303,92477,2,0,L|407:310,1,35.9999989013672,2|0,0:0|0:0,0:0:0:0:
475,271,92877,6,0,P|469:236|481:184,1,71.9999978027344,0|0,1:0|0:0,0:0:0:0:
428,136,93477,1,0,0:0:0:0:
353,112,93677,2,0,L|276:129,1,71.9999978027344,10|2,0:0|0:0,0:0:0:0:
214,89,94277,1,0,0:0:0:0:
214,89,94477,2,0,L|193:131,1,35.9999989013672
124,150,94877,2,0,L|142:184,1,35.9999989013672
87,240,95277,2,0,L|74:278,1,35.9999989013672,10|0,0:0|0:0,0:0:0:0:
137,324,95677,1,2,0:0:0:0:
215,313,95877,1,0,0:0:0:0:
256,200,96077,6,0,P|295:197|348:221,1,71.9999978027344,0|0,1:0|0:0,0:0:0:0:
408,212,96677,1,0,0:0:0:0:
408,212,96877,2,0,L|443:174,1,35.9999989013672,10|0,0:0|0:0,0:0:0:0:
386,122,97277,2,0,L|378:85,1,35.9999989013672,10|8,0:0|0:0,0:0:0:0:
306,55,97677,1,0,0:0:0:0:
238,95,97877,1,8,0:0:0:0:
160,83,98077,2,0,L|122:74,1,35.9999989013672
62,123,98477,2,0,P|69:163|60:212,1,71.9999978027344,10|10,0:0|0:0,0:0:0:0:
26,262,99077,1,8,0:0:0:0:
26,262,99277,6,0,L|43:311,1,35.9999989013672,0|0,1:0|0:0,0:0:0:0:
112,324,99677,1,0,0:0:0:0:
183,290,99877,1,0,0:0:0:0:
253,326,100077,2,0,L|278:366,2,35.9999989013672,10|0|2,0:0|0:0|0:0,0:0:0:0:
313,274,100677,2,0,L|350:281,1,35.9999989013672,8|0,0:0|0:0,0:0:0:0:
413,326,101077,1,8,0:0:0:0:
463,265,101277,2,0,L|471:224,1,35.9999989013672
424,164,101677,1,10,0:0:0:0:
360,120,101877,1,0,0:0:0:0:
280,132,102077,2,0,L|268:186,1,35.9999989013672,10|8,0:0|0:0,0:0:0:0:
192,164,102477,6,0,L|203:218,1,35.9999989013672,0|0,1:0|0:0,0:0:0:0:
236,268,102877,1,0,0:0:0:0:
296,216,103077,1,0,0:0:0:0:
366,252,103277,2,0,P|406:252|443:263,1,71.9999978027344,10|2,0:0|0:0,0:0:0:0:
454,172,103877,1,0,0:0:0:0:
390,109,104077,1,0,0:0:0:0:
319,54,104277,1,0,0:0:0:0:
303,142,104477,2,0,L|268:128,1,35.9999989013672
188,104,104877,2,0,P|192:141|178:186,1,71.9999978027344,10|2,0:0|0:0,0:0:0:0:
111,224,105477,1,0,0:0:0:0:
111,224,105677,6,0,L|98:275,1,35.9999989013672,0|0,1:0|0:0,0:0:0:0:
15,238,106077,2,0,L|29:199,1,35.9999989013672
83,134,106477,1,10,0:0:0:0:
162,92,106677,1,0,0:0:0:0:
241,50,106877,2,0,L|263:92,1,35.9999989013672,2|0,0:0|0:0,0:0:0:0:
342,114,107277,2,0,L|323:155,1,35.9999989013672
348,260,107677,1,0,0:0:0:0:
280,216,107877,1,0,0:0:0:0:
408,208,108077,1,8,0:0:0:0:
424,284,108277,1,0,0:0:0:0:
476,168,108477,1,0,0:0:0:0:
408,128,108677,1,8,0:0:0:0:
332,148,108877,6,0,L|286:144,1,35.9999989013672,0|0,1:0|0:0,0:0:0:0:
220,100,109277,1,0,0:0:0:0:
136,120,109477,1,0,0:0:0:0:
108,202,109677,2,0,P|104:242|111:293,1,71.9999978027344,10|2,0:0|0:0,0:0:0:0:
185,318,110277,1,0,0:0:0:0:
268,284,110477,2,0,L|286:328,1,35.9999989013672
368,293,110877,2,0,L|403:322,1,35.9999989013672
470,265,111277,2,0,P|465:218|468:187,1,71.9999978027344,10|2,0:0|0:0,0:0:0:0:
418,118,111877,1,0,0:0:0:0:
418,118,112077,6,0,L|367:135,1,35.9999989013672,0|0,1:0|0:0,0:0:0:0:
294,122,112477,2,0,L|259:164,1,35.9999989013672
183,169,112877,1,10,0:0:0:0:
208,255,113077,1,0,0:0:0:0:
295,277,113277,5,2,0:0:0:0:
208,255,113477,1,0,0:0:0:0:
121,234,113677,2,0,L|108:278,1,35.9999989013672
33,223,114077,2,0,L|52:171,1,35.9999989013672
132,98,114477,5,10,0:0:0:0:
132,98,114677,1,8,0:0:0:0:
285,61,114877,1,10,0:0:0:0:
265,185,115077,1,8,0:0:0:0:
377,242,115277,6,0,L|422:230,2,35.9999989013672,0|8|0,1:0|0:0|0:0,0:0:0:0:
330,319,115877,1,0,0:0:0:0:
253,273,116077,2,0,P|217:283|169:280,1,71.9999978027344,10|2,0:0|0:0,0:0:0:0:
92,300,116677,1,0,0:0:0:0:
92,300,116877,2,0,L|75:246,1,35.9999989013672
29,191,117277,2,0,L|42:156,1,35.9999989013672
127,128,117677,2,0,P|175:122|216:131,1,71.9999978027344,10|2,0:0|0:0,0:0:0:0:
276,81,118277,1,0,0:0:0:0:
344,140,118477,6,0,L|403:114,2,35.9999989013672,0|8|0,1:0|0:0|0:0,0:0:0:0:
295,215,119077,1,0,0:0:0:0:
222,267,119277,2,0,P|247:302|254:351,1,71.9999978027344,10|2,0:0|0:0,0:0:0:0:
341,351,119877,1,0,0:0:0:0:
416,302,120077,2,0,L|435:269,1,35.9999989013672
414,183,120477,2,0,L|394:144,1,35.9999989013672
330,92,120877,1,10,0:0:0:0:
211,245,121277,1,2,0:0:0:0:
128,70,121677,6,0,L|116:106,1,35.9999989013672,0|0,1:0|0:0,0:0:0:0:
54,169,122077,1,0,0:0:0:0:
110,239,122277,1,0,0:0:0:0:
85,325,122477,2,0,L|124:333,1,35.9999989013672,10|0,0:0|0:0,0:0:0:0:
195,282,122877,1,2,0:0:0:0:
195,282,123077,1,8,0:0:0:0:
250,211,123277,2,0,L|205:178,2,35.9999989013672,0|8|0,0:0|0:0|0:0,0:0:0:0:
338,231,123877,1,0,0:0:0:0:
411,179,124077,2,0,P|398:144|401:99,1,71.9999978027344,10|10,0:0|0:0,0:0:0:0:
316,73,124677,1,0,0:0:0:0:
316,73,124877,6,0,L|257:66,1,35.9999989013672,0|8,1:0|0:0,0:0:0:0:
209,123,125277,2,0,L|177:144,1,35.9999989013672
233,215,125677,2,0,L|308:231,1,71.9999978027344,10|2,0:0|0:0,0:0:0:0:
278,316,126277,1,8,0:0:0:0:
278,316,126477,2,0,L|236:325,1,35.9999989013672,0|8,0:0|0:0,0:0:0:0:
163,282,126877,2,0,L|126:289,1,35.9999989013672
55,236,127277,5,8,0:0:0:0:
38,148,127477,1,0,1:0:0:0:
144,128,127677,1,0,2:0:0:0:
169,49,127877,1,8,0:0:0:0:
246,95,128077,6,0,L|286:90,1,35.9999989013672,0|0,1:0|0:0,0:0:0:0:
341,158,128477,2,0,L|382:153,1,35.9999989013672
461,184,128877,2,0,L|448:256,1,71.9999978027344,10|2,0:0|0:0,0:0:0:0:
372,302,129477,2,0,P|334:309|272:302,1,71.9999978027344
212,297,130077,1,0,0:0:0:0:
271,212,130277,1,0,0:0:0:0:
271,212,130477,2,0,L|263:149,1,35.9999989013672,10|0,0:0|0:0,0:0:0:0:
189,115,130877,2,0,L|150:124,1,35.9999989013672,2|0,0:0|0:0,0:0:0:0:
262,58,131277,6,0,L|323:46,1,35.9999989013672,0|0,1:0|0:0,0:0:0:0:
374,98,131677,1,0,0:0:0:0:
412,179,131877,1,0,0:0:0:0:
355,248,132077,2,0,L|284:271,1,71.9999978027344,10|2,0:0|0:0,0:0:0:0:
201,297,132677,1,0,0:0:0:0:
114,319,132877,2,0,P|114:271|96:234,1,71.9999978027344
135,164,133477,5,0,0:0:0:0:
199,101,133677,1,10,0:0:0:0:
300,176,133877,1,0,0:0:0:0:
364,113,134077,1,2,0:0:0:0:
386,200,134277,1,8,0:0:0:0:
317,257,134477,6,0,L|244:273,1,71.9999978027344,0|0,1:0|0:0,0:0:0:0:
164,237,135077,1,0,0:0:0:0:
164,237,135277,2,0,P|114:228|81:229,1,71.9999978027344,10|2,0:0|0:0,0:0:0:0:
36,159,135877,1,0,0:0:0:0:
36,159,136077,2,0,L|65:113,1,35.9999989013672
140,100,136477,2,0,L|176:84,1,35.9999989013672
257,116,136877,2,0,P|301:113|357:127,1,71.9999978027344,10|2,0:0|0:0,0:0:0:0:
404,69,137477,1,0,0:0:0:0:
404,69,137677,6,0,L|443:105,1,35.9999989013672,0|0,1:0|0:0,0:0:0:0:
399,178,138077,1,0,0:0:0:0:
328,233,138277,1,0,0:0:0:0:
255,181,138477,2,0,P|246:144|251:105,1,71.9999978027344,10|2,0:0|0:0,0:0:0:0:
173,64,139077,1,0,0:0:0:0:
112,128,139277,2,0,P|115:169|101:219,1,71.9999978027344
153,277,139877,1,0,0:0:0:0:
242,268,140077,2,0,L|284:292,1,35.9999989013672,10|0,0:0|0:0,0:0:0:0:
361,307,140477,2,0,L|400:301,1,35.9999989013672,2|8,0:0|0:0,0:0:0:0:
424,216,140877,6,0,P|432:176|424:136,1,71.9999978027344,0|0,1:0|0:0,0:0:0:0:
357,86,141477,1,0,0:0:0:0:
279,130,141677,2,0,P|244:148|202:149,1,71.9999978027344,10|2,0:0|3:0,0:0:0:0:
136,199,142277,1,0,0:0:0:0:
136,199,142477,2,0,P|149:235|145:285,1,71.9999978027344
231,305,143077,1,0,0:0:0:0:
231,305,143277,2,0,L|279:295,1,35.9999989013672,10|0,0:0|0:0,0:0:0:0:
306,217,143677,2,0,L|266:211,1,35.9999989013672,2|0,0:0|0:0,0:0:0:0:
297,126,144077,6,0,L|271:74,1,35.9999989013672,0|8,1:0|0:0,0:0:0:0:
195,68,144477,1,0,0:0:0:0:
120,118,144677,1,0,0:0:0:0:
156,199,144877,2,0,L|140:273,1,71.9999978027344,10|2,0:0|0:0,0:0:0:0:
62,313,145477,1,0,0:0:0:0:
62,313,145677,2,0,L|39:255,1,35.9999989013672
54,190,146077,1,0,0:0:0:0:
109,119,146277,1,0,0:0:0:0:
198,131,146477,2,0,P|237:138|286:134,1,71.9999978027344,10|2,0:0|0:0,0:0:0:0:
348,180,147077,1,0,0:0:0:0:
348,180,147277,6,0,L|357:226,1,35.9999989013672,0|0,1:0|0:0,0:0:0:0:
430,264,147677,2,0,L|415:303,1,35.9999989013672
338,341,148077,2,0,P|299:337|259:348,1,71.9999978027344,10|2,0:0|0:0,0:0:0:0:
196,290,148677,1,0,0:0:0:0:
196,290,148877,2,0,L|186:241,1,35.9999989013672,0|8,0:0|0:0,0:0:0:0:
121,149,149277,2,0,L|128:192,1,35.9999989013672
214,162,149677,2,0,P|252:158|304:172,1,71.9999978027344,10|10,0:0|0:0,0:0:0:0:
359,113,150277,1,0,0:1:0:0:
359,113,150477,6,0,L|416:108,1,35.9999989013672,0|8,1:0|0:0,0:0:0:0:
443,186,150877,1,0,0:1:0:0:
391,259,151077,1,0,0:1:0:0:
306,231,151277,2,0,P|266:228|234:216,1,71.9999978027344,10|2,0:0|0:0,0:0:0:0:
190,140,151877,1,0,1:0:0:0:
190,140,152077,2,0,L|144:158,1,35.9999989013672,8|0,0:0|0:0,0:0:0:0:
77,111,152477,2,0,L|117:94,1,35.9999989013672,8|0,0:0|0:0,0:0:0:0:
269,67,152877,5,0,1:0:0:0:
340,160,153077,1,0,1:0:0:0:
415,260,153277,2,0,L|392:308,1,35.9999989013672,0|0,1:0|1:0,1:0:0:0:
307,324,153677,1,4,1:0:0:0:
163,115,166477,6,0,L|174:177,1,35.9999989013672,0|0,1:0|0:0,0:0:0:0:
246,197,166877,2,0,L|235:241,1,35.9999989013672
306,290,167277,2,0,P|346:278|386:277,1,71.9999978027344,10|2,0:0|0:0,0:0:0:0:
431,205,167877,1,0,0:0:0:0:
431,205,168077,2,0,P|384:194|355:182,1,71.9999978027344
375,96,168677,1,0,0:0:0:0:
375,96,168877,1,10,0:0:0:0:
211,168,169277,2,0,L|225:204,1,35.9999989013672,2|0,0:0|0:0,0:0:0:0:
160,306,169677,6,0,P|121:309|84:328,1,71.9999978027344,0|0,1:0|0:0,0:0:0:0:
56,245,170277,1,0,0:0:0:0:
56,245,170477,2,0,L|41:169,1,71.9999978027344,10|2,0:0|0:0,0:0:0:0:
99,105,171077,1,0,0:0:0:0:
172,157,171277,2,0,L|180:196,1,35.9999989013672
263,215,171677,2,0,P|285:210|321:213,1,35.9999989013672
374,258,172077,1,10,0:0:0:0:
476,332,172277,1,0,1:0:0:0:
484,200,172477,1,10,0:0:0:0:
448,116,172677,1,0,0:0:0:0:
448,116,172877,6,0,P|405:111|370:99,1,71.9999978027344,0|0,1:0|1:0,1:0:0:0:
296,92,173477,1,0,0:0:0:0:
237,156,173677,2,0,P|241:193|231:233,1,71.9999978027344,10|2,0:0|0:0,0:0:0:0:
159,277,174277,1,0,0:0:0:0:
159,277,174477,2,0,P|119:277|66:296,1,71.9999978027344
33,214,175077,1,0,1:0:0:0:
75,135,175277,1,10,0:0:0:0:
206,192,175677,1,2,0:0:0:0:
291,162,175877,1,0,0:0:0:0:
376,190,176077,6,0,L|387:267,1,71.9999978027344,0|0,1:0|0:0,0:0:0:0:
309,307,176677,1,0,0:0:0:0:
309,307,176877,2,0,P|261:323|232:317,1,71.9999978027344,10|2,0:0|0:0,0:0:0:0:
171,264,177477,1,0,0:0:0:0:
171,264,177677,2,0,L|183:224,1,35.9999989013672,0|0,0:0|1:0,0:0:0:0:
116,168,178077,2,0,L|143:138,1,35.9999989013672
257,95,178477,1,8,0:0:0:0:
358,48,178677,1,8,0:0:0:0:
453,106,178877,1,8,0:0:0:0:
360,167,179077,1,8,0:0:0:0:
318,246,179277,5,0,1:0:0:0:
236,210,179477,1,0,0:0:0:0:
155,248,179677,2,0,L|147:288,1,35.9999989013672
82,201,180077,2,0,L|98:126,1,71.9999978027344,10|2,0:0|0:0,0:0:0:0:
65,47,180677,1,0,0:0:0:0:
152,59,180877,2,0,P|195:55|237:69,1,71.9999978027344
274,136,181477,1,0,0:0:0:0:
274,136,181677,2,0,L|266:184,1,35.9999989013672,10|0,0:0|0:0,0:0:0:0:
335,232,182077,2,0,L|328:275,1,35.9999989013672,2|0,0:0|0:0,0:0:0:0:
407,187,182477,6,0,L|415:131,2,35.9999989013672,0|8|0,1:0|0:0|0:0,0:0:0:0:
471,250,183077,1,0,0:0:0:0:
419,323,183277,2,0,P|376:316|327:321,1,71.9999978027344,10|2,0:0|0:0,0:0:0:0:
268,347,183877,1,0,0:0:0:0:
268,347,184077,2,0,P|271:299|262:271,1,71.9999978027344
185,235,184677,1,0,0:0:0:0:
107,279,184877,1,8,0:0:0:0:
242,161,185277,1,8,0:0:0:0:
82,80,185677,6,0,P|120:75|156:81,1,71.9999978027344,0|0,1:0|0:0,0:0:0:0:
239,53,186277,1,0,0:0:0:0:
317,97,186477,2,0,L|360:96,1,35.9999989013672,10|0,0:0|0:0,0:0:0:0:
383,181,186877,2,0,L|419:196,1,35.9999989013672,2|8,0:0|0:0,0:0:0:0:
468,268,187277,1,0,1:0:0:0:
393,317,187477,1,8,0:0:0:0:
306,295,187677,2,0,L|269:292,1,35.9999989013672,0|0,1:0|0:0,0:0:0:0:
189,332,188077,2,0,P|192:297|176:247,1,71.9999978027344,10|10,0:0|0:0,0:0:0:0:
230,185,188677,1,0,0:0:0:0:
230,185,188877,6,0,L|273:175,1,35.9999989013672,0|0,1:0|0:0,0:0:0:0:
326,111,189277,2,0,L|286:104,1,35.9999989013672
223,45,189677,1,10,0:0:0:0:
142,83,189877,1,0,0:0:0:0:
64,127,190077,2,0,L|54:175,1,35.9999989013672,2|8,0:0|0:0,0:0:0:0:
114,231,190477,2,0,L|125:272,1,35.9999989013672,0|8,0:0|0:0,0:0:0:0:
207,234,190877,1,0,0:0:0:0:
289,198,191077,1,0,0:0:0:0:
326,78,191277,2,8,L|289:87,2,35.9999989013672,10|8|10,0:0|0:0|0:0,0:0:0:0:
423,158,191877,1,0,1:0:0:0:
472,233,192077,5,0,1:0:0:0:
382,233,192277,1,0,0:0:0:0:
305,279,192477,2,0,L|271:306,1,40,2|0,0:0|0:0,0:0:0:0:
207,245,192877,2,0,P|208:208|195:165,1,80,10|0,0:0|0:0,0:0:0:0:
115,145,193477,1,0,0:0:0:0:
77,64,193677,2,0,P|113:55|154:66,1,80
233,38,194277,1,0,0:0:0:0:
233,38,194477,2,0,P|272:48|320:44,1,80,10|2,0:0|0:0,0:0:0:0:
285,135,195077,1,0,0:0:0:0:
285,135,195277,6,0,L|294:184,1,40,0|0,1:0|0:0,0:0:0:0:
239,243,195677,2,0,L|226:293,1,40
300,334,196077,2,0,P|341:328|382:338,1,80,10|2,0:0|0:0,0:0:0:0:
450,289,196677,1,0,0:0:0:0:
450,289,196877,2,0,P|446:248|455:210,1,80
411,99,197477,1,0,0:0:0:0:
411,99,197677,2,0,L|372:106,1,40,10|0,0:0|0:0,0:0:0:0:
311,214,198077,2,0,L|258:198,1,40,2|8,0:0|0:0,0:0:0:0:
193,235,198477,6,0,L|185:316,1,80,0|0,1:0|0:0,0:0:0:0:
103,341,199077,1,0,0:0:0:0:
57,264,199277,2,0,P|61:222|43:182,1,80,10|2,0:0|0:0,0:0:0:0:
118,133,199877,1,0,0:0:0:0:
118,133,200077,2,0,L|156:104,1,40
236,105,200477,2,0,L|286:88,1,40
301,179,200877,2,0,L|226:208,1,80,10|2,0:0|0:0,0:0:0:0:
152,242,201477,1,0,0:0:0:0:
152,242,201677,6,0,L|184:320,1,80,0|0,1:0|0:0,0:0:0:0:
264,341,202277,1,0,0:0:0:0:
264,341,202477,2,0,P|305:330|356:333,1,80,10|2,0:0|0:0,0:0:0:0:
405,274,203077,1,0,0:0:0:0:
405,274,203277,2,0,P|428:234|432:191,1,80
391,129,203877,1,0,0:0:0:0:
391,129,204077,2,0,L|347:128,1,40,8|0,0:0|0:0,0:0:0:0:
290,66,204477,2,0,L|241:65,1,40,8|0,0:0|0:0,0:0:0:0:
192,130,204877,5,0,1:0:0:0:
234,209,205077,1,0,0:0:0:0:
155,251,205277,1,0,0:0:0:0:
211,321,205477,1,0,0:0:0:0:
211,321,205677,2,0,P|255:306|297:310,1,80,10|2,0:0|0:0,0:0:0:0:
367,285,206277,1,0,0:0:0:0:
422,214,206477,2,0,L|436:176,1,40
381,108,206877,2,0,L|369:68,1,40
283,93,207277,2,0,P|245:105|205:101,1,80,10|2,0:0|0:0,0:0:0:0:
150,167,207877,1,0,0:0:0:0:
150,167,208077,6,0,L|154:214,1,40,0|0,1:0|0:0,0:0:0:0:
228,253,208477,1,0,0:0:0:0:
297,196,208677,1,0,0:0:0:0:
361,133,208877,2,0,L|441:124,1,80,10|2,0:0|0:0,0:0:0:0:
473,205,209477,1,0,0:0:0:0:
424,276,209677,2,0,L|344:285,1,80
256,272,210277,1,0,0:0:0:0:
232,356,210477,1,8,0:0:0:0:
210,169,210877,1,8,0:0:0:0:
63,271,211277,6,0,L|135:277,2,40,0|0|0,1:0|0:0|0:0,0:0:0:0:
120,185,211877,1,0,0:0:0:0:
145,99,212077,2,0,L|189:84,1,40,10|0,0:0|0:0,0:0:0:0:
268,73,212477,1,2,0:0:0:0:
353,102,212677,1,0,0:0:0:0:
391,183,212877,2,0,L|403:232,1,40,0|8,0:0|0:0,0:0:0:0:
328,274,213277,2,0,L|316:231,1,40
247,185,213677,1,10,0:0:0:0:
80,119,214077,2,0,L|129:98,1,40,10|0,0:0|0:0,0:0:0:0:
141,191,214477,6,0,L|120:233,1,40,0|8,1:0|0:0,0:0:0:0:
165,304,214877,1,0,0:0:0:0:
254,293,215077,1,0,0:0:0:0:
331,247,215277,2,0,P|377:236|412:245,1,80,10|2,0:0|0:0,0:0:0:0:
465,178,215877,1,8,0:0:0:0:
465,178,216077,6,0,L|450:114,1,40,0|8,1:0|0:0,0:0:0:0:
382,95,216477,2,0,L|372:56,1,40,0|8,1:0|0:0,0:0:0:0:
227,41,216877,1,0,1:0:0:0:
140,150,217077,1,0,1:0:0:0:
222,263,217277,1,0,1:0:0:0:
354,217,217477,1,0,1:0:0:0:
256,192,227277,12,0,230077,0:0:0:0:
256,193,230477,5,0,1:0:0:0:
415,110,230877,1,0,0:0:0:0:
404,289,231277,1,10,0:0:0:0:
233,343,231677,2,0,L|196:357,2,35.9999989013672,2|0|0,0:0|0:0|0:0,0:0:0:0:
263,258,232277,1,0,0:0:0:0:
225,177,232477,2,0,L|190:164,1,35.9999989013672,0|0,1:0|0:0,0:0:0:0:
121,109,232877,2,0,L|101:178,1,71.9999978027344,10|2,0:0|0:0,0:0:0:0:
40,244,233477,1,0,0:0:0:0:
40,244,233677,6,0,L|63:337,1,71.9999978027344,0|0,1:0|0:0,0:0:0:0:
232,353,234477,1,10,0:0:0:0:
138,200,234877,1,2,0:0:0:0:
211,148,235077,1,0,0:0:0:0:
294,182,235277,6,0,L|345:169,1,35.9999989013672
381,246,235677,2,0,L|422:255,1,35.9999989013672
460,175,236077,2,0,L|495:157,2,35.9999989013672,10|0|10,0:0|1:0|0:0,0:0:0:0:
426,92,236677,1,0,1:0:0:0:
341,63,236877,6,0,P|303:68|269:61,1,71.9999978027344,0|0,1:0|0:0,0:0:0:0:
146,191,237677,2,0,P|181:184|216:189,1,71.9999978027344,10|2,0:0|0:0,0:0:0:0:
302,160,238277,1,0,0:0:0:0:
366,223,238477,2,0,L|395:257,2,35.9999989013672
314,296,239077,1,0,0:0:0:0:
314,296,239277,2,0,L|305:342,2,35.9999989013672,10|0|2,0:0|0:0|0:0,0:0:0:0:
225,286,239877,1,0,0:0:0:0:
225,286,240077,6,0,P|194:300|142:293,1,71.9999978027344,0|0,1:0|0:0,0:0:0:0:
66,144,240877,1,10,0:0:0:0:
234,81,241277,2,0,L|259:111,1,35.9999989013672,2|0,0:0|0:0,0:0:0:0:
345,128,241677,1,0,0:0:0:0:
303,207,241877,1,0,0:0:0:0:
359,277,242077,2,0,L|398:271,2,35.9999989013672,0|0|10,0:0|0:0|0:0,0:0:0:0:
303,207,242677,1,0,1:0:0:0:
221,171,242877,1,10,0:0:0:0:
135,196,243077,1,0,1:0:0:0:
135,196,243277,6,0,L|144:261,1,35.9999989013672,0|8,1:0|0:0,0:0:0:0:
61,330,243677,2,0,L|55:294,1,35.9999989013672
41,206,244077,1,10,0:0:0:0:
185,99,244477,1,2,0:0:0:0:
244,268,244877,2,0,L|305:253,1,35.9999989013672
355,307,245277,1,0,0:0:0:0:
399,229,245477,1,0,0:0:0:0:
324,180,245677,2,0,L|320:142,1,35.9999989013672,10|0,0:0|0:0,0:0:0:0:
394,93,246077,2,0,L|408:48,1,35.9999989013672,2|0,0:0|0:0,0:0:0:0:
316,45,246477,6,0,L|251:40,1,35.9999989013672,0|8,1:0|0:0,0:0:0:0:
208,96,246877,1,0,0:0:0:0:
131,50,247077,1,0,0:0:0:0:
121,139,247277,2,0,P|128:185|113:223,1,71.9999978027344,10|2,0:0|0:0,0:0:0:0:
161,289,247877,1,0,0:0:0:0:
161,289,248077,2,0,P|201:287|236:300,1,71.9999978027344
286,226,248677,1,0,0:0:0:0:
286,226,248877,1,10,0:0:0:0:
168,91,249277,1,2,0:0:0:0:
87,129,249477,1,0,0:0:0:0:
49,210,249677,6,0,P|86:218|125:244,1,71.9999978027344,0|0,1:0|0:0,0:0:0:0:
168,308,250277,1,0,0:0:0:0:
168,308,250477,2,0,P|211:323|252:320,1,71.9999978027344,10|2,0:0|0:0,0:0:0:0:
307,267,251077,2,0,L|334:296,2,35.9999989013672,8|0|8,0:0|0:0|0:0,0:0:0:0:
288,179,251677,1,0,0:0:0:0:
267,92,251877,1,0,0:0:0:0:
288,179,252077,2,0,P|349:165|371:168,1,71.9999978027344,10|2,0:0|0:0,0:0:0:0:
404,105,252677,1,0,0:0:0:0:
435,189,252877,5,0,1:0:0:0:
484,264,253077,1,8,0:0:0:0:
414,320,253277,2,0,P|375:318|333:328,1,71.9999978027344,2|10,0:0|0:0,0:0:0:0:
269,273,253877,1,0,0:0:0:0:
269,273,254077,2,0,L|277:220,1,35.9999989013672,0|8,0:0|0:0,0:0:0:0:
219,167,254477,2,0,L|211:132,1,35.9999989013672,0|8,0:0|0:0,0:0:0:0:
243,48,254877,2,8,P|279:35|336:45,1,71.9999978027344,10|10,0:0|0:0,0:0:0:0:
437,57,255477,1,0,1:0:0:0:
329,121,255677,1,8,0:0:0:0:
439,182,255877,1,0,1:0:0:0:
439,182,256077,6,0,L|425:265,1,71.9999978027344,0|0,1:0|0:0,0:0:0:0:
333,293,256677,1,0,0:0:0:0:
256,226,256877,2,0,P|218:220|169:229,1,71.9999978027344,10|2,0:0|0:0,0:0:0:0:
134,150,257477,1,0,0:0:0:0:
134,150,257677,2,0,L|118:100,1,35.9999989013672
42,76,258077,2,0,L|59:40,1,35.9999989013672
146,33,258477,2,0,P|183:31|230:47,1,71.9999978027344,10|2,0:0|0:0,0:0:0:0:
318,136,259077,1,0,0:0:0:0:
289,221,259277,6,0,L|304:263,1,35.9999989013672,0|0,1:0|0:0,0:0:0:0:
365,318,259677,2,0,L|376:276,1,35.9999989013672
451,237,260077,1,10,0:0:0:0:
318,136,260477,2,0,L|265:122,1,35.9999989013672,2|0,0:0|0:0,0:0:0:0:
225,58,260877,1,0,0:0:0:0:
204,145,261077,1,0,0:0:0:0:
123,107,261277,2,0,L|81:118,1,35.9999989013672
36,189,261677,2,0,L|-10:183,2,35.9999989013672,10|0|10,0:0|1:0|0:0,1:0:0:0:
102,282,262277,1,0,1:0:0:0:
102,283,262477,6,0,L|158:277,1,35.9999989013672,0|0,1:0|0:0,0:0:0:0:
208,335,262877,2,0,L|245:323,1,35.9999989013672
280,242,263277,2,0,P|290:206|315:180,1,71.9999978027344,10|2,0:0|0:0,0:0:0:0:
378,119,263877,1,0,0:0:0:0:
378,119,264077,2,0,P|351:97|291:93,1,71.9999978027344
236,47,264677,1,0,0:0:0:0:
155,85,264877,2,0,L|165:134,1,35.9999989013672,10|0,0:0|0:0,0:0:0:0:
119,199,265277,2,0,L|113:247,1,35.9999989013672,2|0,0:0|0:0,0:0:0:0:
161,312,265677,6,0,P|197:300|239:304,1,71.9999978027344,0|0,1:0|0:0,0:0:0:0:
316,275,266277,1,0,0:0:0:0:
316,275,266477,2,0,P|303:235|305:195,1,71.9999978027344,10|2,0:0|0:0,0:0:0:0:
366,141,267077,1,0,0:0:0:0:
366,141,267277,2,0,L|414:132,1,35.9999989013672
433,50,267677,2,0,L|386:46,1,35.9999989013672
309,68,268077,2,8,L|270:77,1,35.9999989013672,10|0,0:0|1:0,0:0:0:0:
185,86,268477,1,10,0:0:0:0:
141,164,268677,1,0,1:0:0:0:
198,233,268877,6,0,L|175:265,2,35.9999989013672,0|0|8,1:0|0:0|0:0,0:0:0:0:
141,164,269477,1,0,0:0:0:0:
141,164,269677,2,0,P|104:178|41:167,1,71.9999978027344,10|2,0:0|0:0,0:0:0:0:
30,257,270277,1,0,0:0:0:0:
30,257,270477,2,0,L|40:296,1,35.9999989013672
118,335,270877,2,0,L|155:324,1,35.9999989013672
209,255,271277,2,0,P|250:249|286:260,1,71.9999978027344,10|2,0:0|0:0,0:0:0:0:
347,316,271877,1,0,0:0:0:0:
347,316,272077,6,0,L|355:275,1,35.9999989013672,0|8,1:0|0:0,0:0:0:0:
314,200,272477,2,0,L|311:163,1,35.9999989013672
264,88,272877,2,0,P|223:83|185:92,1,71.9999978027344,10|2,0:0|0:0,0:0:0:0:
121,142,273477,1,0,0:0:0:0:
121,142,273677,2,0,P|131:182|123:218,1,71.9999978027344
152,298,274277,1,0,0:0:0:0:
152,298,274477,2,0,P|191:298|248:279,1,71.9999978027344,10|2,0:0|0:0,0:0:0:0:
281,222,275077,1,0,0:0:0:0:
243,141,275277,6,0,L|292:124,1,35.9999989013672,0|0,1:0|0:0,0:0:0:0:
337,62,275677,2,0,L|382:48,1,35.9999989013672
439,110,276077,2,0,P|433:152|445:202,1,71.9999978027344,10|2,0:0|0:0,0:0:0:0:
367,237,276677,2,0,L|323:245,2,35.9999989013672,8|0|8,0:0|0:0|0:0,0:0:0:0:
258,301,277277,1,0,0:0:0:0:
185,249,277477,1,0,0:0:0:0:
227,170,277677,2,0,P|230:129|219:98,1,71.9999978027344,10|10,0:0|0:0,0:0:0:0:
148,47,278277,1,8,0:0:0:0:
148,47,278477,6,0,L|103:53,1,35.9999989013672,0|8,1:0|0:0,0:0:0:0:
48,114,278877,2,0,L|91:121,1,35.9999989013672
63,207,279277,2,0,P|58:247|73:288,1,71.9999978027344,10|2,0:0|0:0,0:0:0:0:
141,328,279877,1,8,0:0:0:0:
216,279,280077,2,0,L|259:274,1,35.9999989013672,0|8,0:0|0:0,0:0:0:0:
297,197,280477,2,0,L|256:196,1,35.9999989013672
177,102,280877,1,10,0:0:0:0:
289,45,281077,1,0,1:0:0:0:
392,117,281277,2,0,L|434:111,1,35.9999989013672,10|0,0:0|1:0,0:0:0:0:
467,192,281677,6,0,P|465:233|484:279,1,71.9999978027344,0|0,1:0|0:0,0:0:0:0:
294,272,282477,1,10,0:0:0:0:
170,143,282877,2,0,L|218:136,1,35.9999989013672,2|0,0:0|0:0,0:0:0:0:
260,66,283277,2,0,L|320:58,2,35.9999989013672
367,133,283877,1,0,0:0:0:0:
445,177,284077,2,0,L|453:262,1,71.9999978027344,10|2,0:0|0:0,0:0:0:0:
377,298,284677,1,0,0:0:0:0:
307,242,284877,6,0,P|270:239|233:224,1,71.9999978027344,0|0,1:0|0:0,0:0:0:0:
153,256,285477,1,0,0:0:0:0:
153,256,285677,1,10,0:0:0:0:
75,126,286077,2,0,L|87:67,1,35.9999989013672,2|0,0:0|0:0,0:0:0:0:
170,73,286477,2,0,L|256:64,1,71.9999978027344
230,155,287077,1,0,0:0:0:0:
178,228,287277,2,0,L|181:268,1,35.9999989013672,10|0,0:0|1:0,0:0:0:0:
265,296,287677,2,0,L|283:333,1,35.9999989013672,10|0,0:0|1:0,0:0:0:0:
369,313,288077,6,0,P|391:285|410:241,1,71.9999978027344,0|0,1:0|0:0,0:0:0:0:
364,173,288677,1,0,0:0:0:0:
364,173,288877,2,0,P|379:140|401:112,1,71.9999978027344,10|2,0:0|0:0,0:0:0:0:
345,42,289477,1,0,0:0:0:0:
264,80,289677,2,0,L|251:120,1,35.9999989013672
176,160,290077,2,0,L|161:206,1,35.9999989013672
205,275,290477,2,0,P|172:295|121:296,1,71.9999978027344,10|2,0:0|0:0,0:0:0:0:
72,240,291077,1,0,0:0:0:0:
51,327,291277,5,0,1:0:0:0:
98,154,291677,1,0,0:0:0:0:
268,97,292077,2,0,P|281:135|271:182,1,71.9999978027344,10|2,0:0|0:0,0:0:0:0:
343,333,292877,1,0,0:0:0:0:
164,341,293277,1,0,0:0:0:0:
94,285,293477,1,0,0:0:0:0:
94,285,293677,2,0,L|110:243,1,35.9999989013672,10|0,0:0|1:0,0:0:0:0:
182,202,294077,2,0,L|171:158,1,35.9999989013672,10|0,0:0|1:0,0:0:0:0:
229,96,294477,6,0,P|264:85|344:104,1,120.000004577637,2|0,0:0|0:0,0:0:0:0:
390,248,295677,2,0,P|380:192|432:140,1,120.000004577637,2|0,0:0|0:0,0:0:0:0:
258,233,296877,1,2,0:0:0:0:
167,127,297277,1,2,0:0:0:0:
281,122,297677,6,0,P|219:109|159:131,1,120.000004577637
168,220,298877,2,0,P|230:233|290:211,1,120.000004577637
356,288,300077,2,0,L|368:360,1,60.0000022888184,2|0,0:0|0:0,0:0:0:0:
215,335,300877,6,0,P|183:343|148:340,1,60.0000022888184,2|2,0:0|0:0,0:0:0:0:
122,260,301677,2,0,P|168:192|24:56,1,300.000011444092,2|0,0:0|0:0,0:0:0:0:
56,152,304077,2,0,P|168:192|288:124,1,240.000009155274
352,80,306077,2,0,L|428:96,1,60.0000022888184
380,202,306877,1,2,0:0:0:0:
296,286,307277,6,0,L|268:168,1,120.000004577637,2|0,0:0|0:0,0:0:0:0:
178,179,308477,2,0,L|212:56,1,120.000004577637,2|0,0:0|0:0,0:0:0:0:
297,84,309677,2,0,P|337:72|392:80,1,90.0000034332277,2|0,0:0|0:0,0:0:0:0:
414,123,310477,6,0,L|428:256,1,120.000004577637,2|0,0:0|0:0,0:0:0:0:
360,320,311677,2,0,P|269:300|197:352,1,180.000006866455,2|0,0:0|0:0,0:0:0:0:
156,256,313277,1,2,0:0:0:0:
112,164,313677,6,0,L|180:173,1,60.0000022888184,2|0,0:0|0:0,0:0:0:0:
248,192,314477,2,0,B|380:308|488:148|488:148|380:-48|224:108,1,600.000022888184
148,140,318877,2,0,P|116:144|72:132,2,60.0000022888184
80,216,320077,6,0,P|133:240|192:232,1,120.000004577637,2|0,0:0|0:0,0:0:0:0:
248,160,321277,2,0,P|284:244|238:311,1,180.000006866455,2|0,0:0|0:0,0:0:0:0:
136,171,323277,6,0,P|196:183|256:151,1,120.000004577637,2|0,0:0|0:0,0:0:0:0:
328,96,324477,2,0,P|360:156|328:224,1,120.000004577637,2|0,0:0|0:0,0:0:0:0:
275,238,325677,2,0,L|200:256,1,60.0000022888184,2|0,0:0|0:0,0:0:0:0:
215,160,326477,6,0,L|148:148,1,60.0000022888184,2|0,0:0|0:0,0:0:0:0:
72,208,327277,2,0,B|14:158|44:87|44:87|106:94|150:46,1,240.000009155274,2|0,0:0|0:0,0:0:0:0:
232,104,329277,1,0,0:0:0:0:
220,204,329677,6,0,B|264:216|272:248|272:248|276:280|296:316|352:344|436:328|444:244,1,300.000011444092
368,192,332077,2,0,P|396:156|396:132,1,60.0000022888184
256,192,333277,12,0,339077,0:0:0:0:
256,192,339277,12,0,345677,0:0:0:0:
