osu file format v12

[General]
AudioFilename: Theme of Cody.mp3
AudioLeadIn: 0
PreviewTime: -1
Countdown: 1
SampleSet: None
StackLeniency: 0.7
Mode: 0
LetterboxInBreaks: 1
WidescreenStoryboard: 0

[Editor]
DistanceSpacing: 1.1
BeatDivisor: 8
GridSize: 4

[Metadata]
Title:Theme of Cody
TitleUnicode:Theme of Cody
Artist:
ArtistUnicode:
Creator:taka1235
Version:
Source:
Tags:
BeatmapID:316439
BeatmapSetID:124047

[Difficulty]
HPDrainRate:5
CircleSize:5
OverallDifficulty:5
ApproachRate:8
SliderMultiplier:1.8
SliderTickRate:1

[Events]
//Background and Video events
0,0,"streetfighter-4---cody-wallpapers_21889_1920x1200.jpg",0,0
//Break Periods
//Storyboard Layer 0 (Background)
//Storyboard Layer 1 (Fail)
//Storyboard Layer 2 (Pass)
//Storyboard Layer 3 (Foreground)
//Storyboard Sound Samples
//Background Colour Transformations
3,100,163,162,255

[TimingPoints]
184,728.528524748882,4,2,0,70,1,0
20596,-100,4,1,0,40,0,0
20961,-100,4,2,0,5,0,0
21143,-100,4,1,0,40,0,0
21507,-100,4,2,0,5,0,0
21689,-100,4,1,0,40,0,0
22053,-100,4,2,0,5,0,0
22235,-100,4,1,0,40,0,0

[Colours]
Combo1 : 0,128,255
Combo2 : 255,255,255

[HitObjects]
80,328,184,1,4,1:0:0:0:
56,304,912,1,0,0:0:0:0:
40,256,1641,1,0,0:0:0:0:
56,184,2369,1,0,0:0:0:0:
432,56,6012,5,4,1:0:0:0:
456,80,6740,1,0,0:0:0:0:
472,128,7469,1,0,0:0:0:0:
456,200,8197,1,0,0:0:0:0:
384,280,8926,5,0,0:0:0:0:
224,336,9290,1,0,0:0:0:0:
96,208,9654,1,0,0:0:0:0:
192,48,10019,1,0,0:0:0:0:
368,88,10383,6,0,L|448:96,1,67.5
488,216,10747,2,0,P|456:240|392:248,1,90,0|8,0:0|0:0,0:0:0:0:
112,360,11840,6,0,L|104:280,1,45,4|0,1:0|0:0,0:0:0:0:
144,208,12204,1,0,0:0:0:0:
232,256,12386,1,0,0:0:0:0:
232,256,12477,1,0,0:0:0:0:
232,256,12568,2,0,L|296:264,1,45,8|0,0:0|0:0,0:0:0:0:
376,352,12933,2,0,P|392:328|392:304,1,45,0|0,0:0|0:0,0:0:0:0:
416,168,13297,6,0,L|480:176,1,45
460,173,13570,1,0,0:0:0:0:
460,173,13661,1,0,0:0:0:0:
488,80,13843,1,0,0:0:0:0:
352,16,14026,2,0,P|328:40|320:56,1,45,8|0,0:0|0:0,0:0:0:0:
240,144,14390,2,0,L|192:136,1,45
96,48,14754,5,4,1:0:0:0:
48,168,14936,1,0,0:0:0:0:
48,168,15027,1,0,0:0:0:0:
48,168,15118,2,0,L|40:224,1,45
104,344,15483,2,0,P|128:328|160:328,1,45,8|0,0:0|0:0,0:0:0:0:
320,256,15847,2,0,L|328:312,1,45
348,328,16120,1,0,0:0:0:0:
380,340,16211,6,0,L|440:352,1,45
480,248,16575,1,0,0:0:0:0:
376,148,16758,1,0,0:0:0:0:
244,184,16940,2,0,P|200:188|140:212,1,90,8|0,0:0|0:0,0:0:0:0:
148,316,17486,1,0,0:0:0:0:
148,316,17668,6,0,L|152:372,1,45,4|0,1:0|0:0,0:0:0:0:
16,280,18032,2,0,L|60:292,1,45,0|0,0:0|0:0,0:0:0:0:
128,208,18397,1,8,0:0:0:0:
232,148,18579,2,0,L|228:48,1,90
228,58,19034,1,0,0:0:0:0:
228,58,19125,6,0,P|204:40|184:32,1,45
60,48,19490,1,0,0:0:0:0:
40,168,19672,1,0,0:0:0:0:
160,256,19854,1,8,0:0:0:0:
80,348,20036,2,0,L|176:340,1,90
308,360,20582,6,2,P|316:316|316:252,1,90,2|0,1:0|0:0,0:0:0:0:
224,92,21129,6,2,P|220:140|220:188,1,90,2|0,1:0|0:0,0:0:0:0:
136,32,21675,6,2,P|88:28|32:24,1,90,2|0,1:0|0:0,0:0:0:0:
304,64,22221,6,2,P|356:68|396:68,1,90,2|2,1:0|1:0,0:0:0:0:
468,24,22768,1,0,0:0:0:0:
432,160,22950,1,0,0:0:0:0:
512,272,23132,1,0,0:0:0:0:
48,320,23496,6,0,L|152:332,1,90,4|0,1:0|0:0,0:0:0:0:
212,260,24043,1,0,0:0:0:0:
232,248,24134,1,0,0:0:0:0:
252,236,24225,2,0,P|256:208|248:176,1,45
192,124,24589,2,0,L|144:112,1,45
16,24,24953,6,0,P|4:60|4:120,1,90,4|0,0:0|0:0,0:0:0:0:
72,188,25500,1,0,0:0:0:0:
96,196,25591,1,0,0:0:0:0:
120,204,25682,2,0,P|136:228|148:256,1,45
80,344,26046,1,0,2:0:0:0:
80,344,26228,1,0,2:0:0:0:
208,364,26411,6,0,P|248:352|304:320,1,90,4|0,0:0|0:0,0:0:0:0:
312,220,26957,1,0,0:0:0:0:
416,260,27139,1,0,0:0:0:0:
432,356,27321,1,0,0:0:0:0:
432,356,27685,1,0,0:0:0:0:
432,356,27777,1,0,0:0:0:0:
432,356,27868,6,0,L|424:248,1,90,4|0,0:0|0:0,0:0:0:0:
348,172,28414,1,0,0:0:0:0:
232,132,28596,1,0,0:0:0:0:
320,28,28778,2,0,P|372:16|424:12,1,90
