osu file format v14

[General]
AudioFilename: TheFatRat - Unity.mp3
AudioLeadIn: 0
PreviewTime: -1
Countdown: 1
SampleSet: Normal
StackLeniency: 0.7
Mode: 0
LetterboxInBreaks: 1
WidescreenStoryboard: 1

[Editor]
DistanceSpacing: 2
BeatDivisor: 3
GridSize: 4
TimelineZoom: 2.1

[Metadata]
Title:Unity
TitleUnicode:Unity
Artist:Thefatrat
ArtistUnicode:Thefatrat
Creator:Bulldog
Version:Insane
Source:
Tags:
BeatmapID:891410
BeatmapSetID:410817

[Difficulty]
HPDrainRate:6
CircleSize:4
OverallDifficulty:7
ApproachRate:9
SliderMultiplier:1.8
SliderTickRate:1

[Events]
//Background and Video events
//Break Periods
//Storyboard Layer 0 (Background)
//Storyboard Layer 1 (Fail)
//Storyboard Layer 2 (Pass)
//Storyboard Layer 3 (Foreground)
//Storyboard Sound Samples

[TimingPoints]
220,285.714285714286,4,1,0,100,1,0
45934,-100,4,1,0,100,0,1

[HitObjects]
43,270,220,6,0,P|118:347|190:330,1,180
248,233,696,1,0,0:0:0:0:
227,217,791,1,0,0:0:0:0:
39,230,1077,1,0,0:0:0:0:
73,54,1362,2,0,L|39:233,1,180
177,141,1934,1,0,0:0:0:0:
338,154,2124,2,0,L|337:84,1,60
254,38,2410,2,0,L|173:37,1,60
229,225,2981,5,0,0:0:0:0:
246,236,3077,1,0,0:0:0:0:
310,24,3362,1,0,0:0:0:0:
487,194,3648,2,0,L|393:108,1,120
236,121,4124,5,0,0:0:0:0:
228,139,4220,1,0,0:0:0:0:
361,233,4410,5,0,0:0:0:0:
383,234,4505,1,0,0:0:0:0:
416,60,4696,1,0,0:0:0:0:
379,62,4791,2,0,P|324:95|327:154,1,120
461,336,5267,5,0,0:0:0:0:
436,336,5362,1,0,0:0:0:0:
235,334,5648,5,0,0:0:0:0:
149,256,5934,2,0,P|186:201|249:202,1,120
296,228,6220,1,0,0:0:0:0:
219,351,6410,5,0,0:0:0:0:
189,350,6505,1,0,0:0:0:0:
41,238,6696,5,0,0:0:0:0:
40,211,6791,1,0,0:0:0:0:
252,171,6981,5,0,0:0:0:0:
230,190,7077,1,0,0:0:0:0:
142,336,7362,5,0,0:0:0:0:
312,321,7648,1,0,0:0:0:0:
437,226,7934,1,0,0:0:0:0:
412,64,8220,1,0,0:0:0:0:
219,158,8696,6,0,L|225:233,1,60
110,216,8981,2,0,L|52:172,1,60
85,40,9267,2,0,L|165:40,1,60
307,236,9839,6,0,L|386:236,1,60
473,103,10124,2,0,L|406:140,1,60
290,131,10410,2,0,L|289:65,1,60
221,348,10981,6,0,L|151:349,1,60
226,232,11267,2,0,L|227:151,1,60
345,295,11553,2,0,L|411:293,1,60
352,152,11934,1,0,0:0:0:0:
230,33,12220,1,0,0:0:0:0:
352,152,12505,1,0,0:0:0:0:
178,157,12791,2,0,L|179:234,1,60
473,295,13267,6,0,L|469:220,1,60
350,237,13553,2,0,L|349:166,1,60
236,189,13839,2,0,L|236:116,1,60
390,44,14410,6,0,L|439:89,1,60
358,171,14696,2,0,L|288:172,1,60
174,175,14981,2,0,L|126:239,1,60
288,338,15553,2,0,L|372:338,1,60
325,208,15839,2,0,L|269:248,1,60
157,226,16124,2,0,L|157:131,1,60
207,36,16505,5,0,0:0:0:0:
364,70,16791,1,0,0:0:0:0:
456,204,17077,1,0,0:0:0:0:
336,348,17362,1,0,0:0:0:0:
64,259,17839,5,0,0:0:0:0:
66,244,17934,1,0,0:0:0:0:
123,149,18124,2,0,L|185:149,1,60
237,286,18410,2,0,L|180:326,1,60
145,162,18981,6,0,L|224:93,1,60
88,48,19267,1,0,0:0:0:0:
63,42,19362,1,0,0:0:0:0:
31,183,19553,2,0,L|101:222,1,60
229,156,20124,5,0,0:0:0:0:
238,145,20220,1,0,0:0:0:0:
160,241,20410,1,0,0:0:0:0:
150,254,20505,1,0,0:0:0:0:
279,261,20696,1,0,0:0:0:0:
289,272,20791,1,0,0:0:0:0:
425,309,21077,5,0,0:0:0:0:
482,179,21362,1,0,0:0:0:0:
401,39,21648,1,0,0:0:0:0:
271,163,21934,2,0,L|356:218,1,60
433,329,22410,5,0,0:0:0:0:
415,328,22505,1,0,0:0:0:0:
325,252,22696,2,0,L|273:205,1,60
190,162,22981,1,0,0:0:0:0:
173,173,23077,1,0,0:0:0:0:
186,337,23553,6,0,L|248:338,1,60
373,301,23839,1,0,0:0:0:0:
386,286,23934,1,0,0:0:0:0:
446,171,24124,1,0,0:0:0:0:
444,154,24220,1,0,0:0:0:0:
218,141,24696,6,0,L|172:193,1,60
26,107,24981,2,0,L|45:30,1,60
193,49,25267,1,0,0:0:0:0:
211,57,25362,1,0,0:0:0:0:
320,158,25648,5,0,0:0:0:0:
415,260,25934,1,0,0:0:0:0:
305,357,26220,1,0,0:0:0:0:
214,248,26505,1,0,0:0:0:0:
33,77,27553,5,0,0:0:0:0:
51,63,27648,1,0,0:0:0:0:
201,166,27934,1,0,0:0:0:0:
355,252,28220,1,0,0:0:0:0:
201,166,28505,1,0,0:0:0:0:
233,343,28696,2,0,L|166:298,1,60
44,223,28981,1,0,0:0:0:0:
44,243,29077,1,0,0:0:0:0:
183,310,29362,1,0,0:0:0:0:
256,198,29648,1,0,0:0:0:0:
86,155,29839,5,0,0:0:0:0:
70,139,29934,1,0,0:0:0:0:
176,34,30220,1,0,0:0:0:0:
296,155,30505,1,0,0:0:0:0:
151,269,30791,1,0,0:0:0:0:
298,306,30981,2,0,L|261:227,1,60
168,115,31267,5,0,0:0:0:0:
181,98,31362,1,0,0:0:0:0:
355,41,31648,1,0,0:0:0:0:
483,135,31934,1,0,0:0:0:0:
320,204,32220,5,0,0:0:0:0:
178,204,32505,1,0,0:0:0:0:
42,203,32791,1,0,0:0:0:0:
178,204,33077,1,0,0:0:0:0:
321,204,33267,1,0,0:0:0:0:
332,192,33362,1,0,0:0:0:0:
215,101,33553,1,0,0:0:0:0:
205,86,33648,1,0,0:0:0:0:
59,195,33934,2,0,P|70:302|154:318,1,180
221,237,34410,6,0,L|197:169,1,60
300,60,34791,1,0,0:0:0:0:
41,148,35077,1,0,0:0:0:0:
300,60,35362,1,0,0:0:0:0:
408,189,35553,2,0,L|363:139,1,60
216,37,35839,2,0,L|133:37,1,60
56,178,36220,1,0,0:0:0:0:
214,317,36505,1,0,0:0:0:0:
56,178,36696,2,0,L|157:181,1,60
263,184,37077,5,0,0:0:0:0:
318,255,37362,1,0,0:0:0:0:
376,322,37648,1,0,0:0:0:0:
190,332,37839,2,0,L|116:330,1,60
36,217,38124,1,0,0:0:0:0:
51,231,38220,1,0,0:0:0:0:
227,220,38505,1,0,0:0:0:0:
174,90,38791,1,0,0:0:0:0:
41,157,38981,5,0,0:0:0:0:
29,145,39077,1,0,0:0:0:0:
76,29,39362,1,0,0:0:0:0:
241,73,39648,1,0,0:0:0:0:
115,195,39934,1,0,0:0:0:0:
241,73,40124,2,0,L|265:144,1,60
339,258,40410,2,0,L|380:201,1,60
259,130,40791,1,0,0:0:0:0:
390,33,41077,1,0,0:0:0:0:
484,189,41267,5,0,0:0:0:0:
464,191,41362,1,0,0:0:0:0:
289,193,41648,1,0,0:0:0:0:
216,42,41934,1,0,0:0:0:0:
25,154,42124,2,0,L|25:78,1,60
125,110,42410,6,0,L|195:110,1,60
215,240,42791,2,0,P|325:165|325:101,1,180
224,34,43267,2,0,L|223:98,1,60
223,229,43553,2,0,L|111:229,1,60
31,292,43934,5,0,0:0:0:0:
115,367,44220,1,0,0:0:0:0:
233,344,44505,1,0,0:0:0:0:
113,222,44791,2,0,B|84:191|60:163|130:127,1,120
290,36,45267,6,0,L|338:72,1,60
462,67,45553,1,0,0:0:0:0:
472,54,45648,1,0,0:0:0:0:
379,161,45839,1,0,0:0:0:0:
369,172,45934,1,0,0:0:0:0:
228,234,46410,6,0,L|186:164,1,60
123,226,46696,2,0,L|64:250,1,60
198,353,46981,2,0,L|282:307,1,60
132,207,47553,5,0,0:0:0:0:
84,156,47648,1,0,0:0:0:0:
162,41,47839,1,0,0:0:0:0:
233,42,47934,1,0,0:0:0:0:
197,154,48124,2,0,L|270:154,1,60
464,158,48505,5,0,0:0:0:0:
385,32,48791,1,0,0:0:0:0:
226,31,49077,1,0,0:0:0:0:
286,163,49362,2,0,P|311:246|213:310,1,180
45,338,49839,5,0,0:0:0:0:
114,338,49934,1,0,0:0:0:0:
224,210,50124,1,0,0:0:0:0:
154,208,50220,1,0,0:0:0:0:
34,132,50410,1,0,0:0:0:0:
64,70,50505,1,0,0:0:0:0:
274,36,50981,5,0,0:0:0:0:
296,36,51077,1,0,0:0:0:0:
475,94,51267,1,0,0:0:0:0:
428,143,51362,1,0,0:0:0:0:
288,176,51553,2,0,L|288:109,1,60
71,142,52124,1,0,0:0:0:0:
27,181,52220,1,0,0:0:0:0:
33,350,52410,2,0,L|108:351,1,60
238,225,52696,2,0,L|158:225,1,60
27,132,53077,5,0,0:0:0:0:
314,154,53362,1,0,0:0:0:0:
191,317,53648,1,0,0:0:0:0:
391,320,53934,2,0,L|326:247,1,60
178,83,54410,6,0,L|109:147,1,60
75,305,54696,1,0,0:0:0:0:
133,337,54791,1,0,0:0:0:0:
230,211,54981,1,0,0:0:0:0:
229,144,55077,1,0,0:0:0:0:
371,37,55553,5,0,0:0:0:0:
438,37,55648,1,0,0:0:0:0:
478,196,55839,2,0,L|404:196,1,60
283,105,56124,1,0,0:0:0:0:
230,59,56220,1,0,0:0:0:0:
224,232,56696,6,0,L|223:306,1,60
61,244,56981,2,0,L|24:188,1,60
143,37,57267,1,0,0:0:0:0:
184,90,57362,1,0,0:0:0:0:
27,194,57648,1,0,0:0:0:0:
237,198,57934,1,0,0:0:0:0:
433,202,58220,1,0,0:0:0:0:
237,198,58505,2,0,L|331:198,1,60
451,323,58981,5,0,0:0:0:0:
435,336,59077,1,0,0:0:0:0:
288,268,59267,1,0,0:0:0:0:
287,201,59362,1,0,0:0:0:0:
484,194,59553,2,0,L|409:198,1,60
153,93,60124,6,0,L|212:150,1,60
221,289,60410,1,0,0:0:0:0:
168,330,60505,1,0,0:0:0:0:
32,197,60696,1,0,0:0:0:0:
50,197,60791,1,0,0:0:0:0:
290,222,61267,5,0,0:0:0:0:
304,204,61362,1,0,0:0:0:0:
225,72,61553,1,0,0:0:0:0:
205,73,61648,1,0,0:0:0:0:
351,74,61839,2,0,L|422:72,1,60
489,196,62220,1,0,0:0:0:0:
336,356,62505,1,0,0:0:0:0:
355,224,62791,1,0,0:0:0:0:
205,151,63077,2,0,L|258:93,1,60
171,76,63267,2,0,L|101:75,1,60
30,179,63553,2,0,L|31:254,1,60
149,335,63934,1,0,0:0:0:0:
217,158,64220,5,0,0:0:0:0:
304,44,64505,1,0,0:0:0:0:
369,218,64791,1,0,0:0:0:0:
291,338,65077,1,0,0:0:0:0:
246,178,65267,1,0,0:0:0:0:
196,130,65362,1,0,0:0:0:0:
25,35,65553,1,0,0:0:0:0:
25,102,65648,1,0,0:0:0:0:
259,258,65934,6,0,B|185:310|313:108,1,180
412,36,66505,1,0,0:0:0:0:
491,162,66791,1,0,0:0:0:0:
272,161,67077,1,0,0:0:0:0:
154,298,67362,1,0,0:0:0:0:
71,326,68791,5,0,0:0:0:0:
289,328,69077,1,0,0:0:0:0:
73,113,69362,1,0,0:0:0:0:
290,114,69648,1,0,0:0:0:0:
199,225,69839,2,0,L|153:272,1,60
32,353,70124,2,0,L|134:358,1,60
291,337,70505,2,0,B|311:318|324:305|334:294|329:299|321:290|310:279|299:268|288:256|281:248|346:194,1,180
429,40,71077,5,0,0:0:0:0:
144,133,71362,1,0,0:0:0:0:
293,83,71648,1,0,0:0:0:0:
291,303,71934,1,0,0:0:0:0:
293,83,72124,2,0,L|293:157,1,60
291,303,72410,2,0,L|231:259,1,60
109,35,72791,2,0,B|76:52|45:66|18:78|36:70|26:75|7:82|2:84|58:160,1,180
291,248,73362,5,0,0:0:0:0:
110,322,73648,1,0,0:0:0:0:
223,68,73934,1,0,0:0:0:0:
441,160,74220,1,0,0:0:0:0:
223,68,74410,2,0,L|191:139,1,60
302,162,74696,2,0,L|335:88,1,60
340,305,74981,2,0,P|223:268|125:176,1,240
209,78,75648,5,0,0:0:0:0:
36,297,75934,1,0,0:0:0:0:
373,300,76220,1,0,0:0:0:0:
206,229,76505,1,0,0:0:0:0:
373,300,76696,1,0,0:0:0:0:
417,246,76791,1,0,0:0:0:0:
328,154,76981,1,0,0:0:0:0:
259,156,77077,1,0,0:0:0:0:
69,132,77362,2,0,P|110:61|200:68,1,180
316,255,77934,5,0,0:0:0:0:
198,68,78220,1,0,0:0:0:0:
139,222,78505,1,0,0:0:0:0:
285,125,78696,2,0,L|329:66,1,60
460,52,78981,1,0,0:0:0:0:
481,117,79077,1,0,0:0:0:0:
372,228,79362,5,0,0:0:0:0:
281,117,79648,1,0,0:0:0:0:
117,227,79839,1,0,0:0:0:0:
186,229,79934,1,0,0:0:0:0:
358,295,80220,5,0,0:0:0:0:
150,100,80505,1,0,0:0:0:0:
358,295,80791,1,0,0:0:0:0:
332,158,81077,1,0,0:0:0:0:
196,242,82505,1,0,0:0:0:0:
40,75,82981,5,0,0:0:0:0:
106,75,83077,1,0,0:0:0:0:
221,161,83267,1,0,0:0:0:0:
222,231,83362,1,0,0:0:0:0:
394,333,83553,1,0,0:0:0:0:
462,336,83648,1,0,0:0:0:0:
214,284,84124,5,0,0:0:0:0:
217,216,84220,1,0,0:0:0:0:
291,41,84410,1,0,0:0:0:0:
313,42,84505,1,0,0:0:0:0:
438,160,84696,1,0,0:0:0:0:
491,111,84791,1,0,0:0:0:0:
221,158,85077,5,0,0:0:0:0:
103,34,85362,1,0,0:0:0:0:
221,158,85648,1,0,0:0:0:0:
314,36,85934,2,0,P|380:69|381:150,1,120
251,319,86410,6,0,L|186:348,1,60
58,278,86696,1,0,0:0:0:0:
56,245,86791,1,0,0:0:0:0:
209,155,86981,2,0,L|211:220,1,60
430,314,87553,5,0,0:0:0:0:
386,263,87648,1,0,0:0:0:0:
251,201,87839,1,0,0:0:0:0:
213,144,87934,1,0,0:0:0:0:
74,86,88124,1,0,0:0:0:0:
37,30,88220,1,0,0:0:0:0:
52,321,88696,6,0,L|79:253,1,60
228,232,88981,1,0,0:0:0:0:
248,204,89077,1,0,0:0:0:0:
410,128,89267,2,0,L|433:70,1,60
206,73,89648,5,0,0:0:0:0:
355,297,89934,1,0,0:0:0:0:
232,250,90220,1,0,0:0:0:0:
410,131,90505,2,0,P|476:192|474:218,1,120
307,314,90981,5,0,0:0:0:0:
270,314,91077,1,0,0:0:0:0:
313,197,91267,1,0,0:0:0:0:
378,197,91362,1,0,0:0:0:0:
300,83,91553,1,0,0:0:0:0:
273,82,91648,1,0,0:0:0:0:
55,187,92124,5,0,0:0:0:0:
53,256,92220,1,0,0:0:0:0:
197,264,92410,2,0,L|199:190,1,60
331,194,92696,1,0,0:0:0:0:
332,263,92791,1,0,0:0:0:0:
84,250,93267,6,0,L|44:202,1,60
176,163,93553,2,0,L|250:162,1,60
347,229,93839,2,0,L|290:268,1,60
195,347,94220,5,0,0:0:0:0:
347,231,94505,1,0,0:0:0:0:
461,349,94791,1,0,0:0:0:0:
274,347,95077,2,0,L|350:301,1,60
462,155,95553,6,0,L|421:83,1,60
286,154,95839,1,0,0:0:0:0:
218,155,95934,1,0,0:0:0:0:
259,37,96124,2,0,L|331:37,1,60
101,156,96696,5,0,0:0:0:0:
44,119,96791,1,0,0:0:0:0:
223,37,96981,1,0,0:0:0:0:
224,106,97077,1,0,0:0:0:0:
223,252,97267,1,0,0:0:0:0:
153,253,97362,1,0,0:0:0:0:
153,253,97839,5,0,0:0:0:0:
223,252,97934,1,0,0:0:0:0:
221,108,98124,1,0,0:0:0:0:
226,35,98220,1,0,0:0:0:0:
41,118,98410,1,0,0:0:0:0:
100,152,98505,1,0,0:0:0:0:
293,288,98791,5,0,0:0:0:0:
472,154,99077,1,0,0:0:0:0:
293,288,99362,1,0,0:0:0:0:
334,73,99648,2,0,P|260:99|271:181,1,120
400,326,100791,5,0,0:0:0:0:
127,229,101077,1,0,0:0:0:0:
361,147,101362,1,0,0:0:0:0:
131,50,101648,1,0,0:0:0:0:
127,229,101839,2,0,L|192:163,1,60
294,43,102124,2,0,L|192:43,1,60
298,227,102505,2,0,B|375:185|226:336,1,180
91,157,103077,5,0,0:0:0:0:
293,35,103362,1,0,0:0:0:0:
424,228,103648,1,0,0:0:0:0:
222,343,103934,1,0,0:0:0:0:
236,201,104124,2,0,L|297:202,1,60
293,119,104410,2,0,L|388:120,1,60
472,226,104791,2,0,B|472:286|472:243|472:257|472:272|471:298|471:309|457:309|444:309|430:309|425:309|421:309|416:308|412:308|409:307|403:307|401:307|396:307|396:307|392:307|389:307|388:307|334:259,1,180
160,61,105362,5,0,0:0:0:0:
28,178,105648,1,0,0:0:0:0:
160,61,105934,1,0,0:0:0:0:
296,225,106220,1,0,0:0:0:0:
163,278,106410,1,0,0:0:0:0:
201,332,106505,1,0,0:0:0:0:
106,184,106696,1,0,0:0:0:0:
67,127,106791,1,0,0:0:0:0:
367,171,107077,2,0,P|442:130|360:58,1,180
103,107,107648,5,0,0:0:0:0:
239,312,107934,1,0,0:0:0:0:
91,273,108220,1,0,0:0:0:0:
323,130,108505,1,0,0:0:0:0:
232,205,108696,1,0,0:0:0:0:
251,229,108791,1,0,0:0:0:0:
324,312,108981,1,0,0:0:0:0:
354,319,109077,1,0,0:0:0:0:
437,152,109362,2,0,P|451:76|351:49,1,180
359,315,109934,5,0,0:0:0:0:
220,159,110220,1,0,0:0:0:0:
377,35,110505,1,0,0:0:0:0:
510,182,110791,1,0,0:0:0:0:
405,246,110981,1,0,0:0:0:0:
341,218,111077,1,0,0:0:0:0:
239,164,111267,2,0,L|171:125,1,60
45,257,111648,2,0,P|54:323|160:320,1,180
214,143,112220,5,0,0:0:0:0:
400,144,112505,1,0,0:0:0:0:
214,143,112791,1,0,0:0:0:0:
34,146,113077,1,0,0:0:0:0:
214,143,113267,1,0,0:0:0:0:
253,202,113362,1,0,0:0:0:0:
344,302,113553,1,0,0:0:0:0:
402,260,113648,1,0,0:0:0:0:
96,134,113934,2,0,P|138:66|235:80,1,180
74,330,114505,5,0,0:0:0:0:
216,270,114791,1,0,0:0:0:0:
73,164,115077,1,0,0:0:0:0:
185,37,115267,1,0,0:0:0:0:
241,82,115362,1,0,0:0:0:0:
231,206,115553,2,0,L|149:207,1,60
92,298,115934,1,0,0:0:0:0:
287,158,116220,1,0,0:0:0:0:
405,303,116410,2,0,L|356:340,1,60
277,246,116696,1,0,0:0:0:0:
233,191,116791,1,0,0:0:0:0:
370,37,117077,5,0,0:0:0:0:
488,171,117362,1,0,0:0:0:0:
336,277,117648,1,0,0:0:0:0:
222,46,117934,2,0,P|43:34|236:222,1,660
