osu file format v14

[General]
AudioFilename: TheFatRat - Unity.mp3
AudioLeadIn: 0
PreviewTime: -1
Countdown: 1
SampleSet: Normal
StackLeniency: 0.7
Mode: 0
LetterboxInBreaks: 1
WidescreenStoryboard: 1

[Editor]
DistanceSpacing: 1.5
BeatDivisor: 3
GridSize: 4
TimelineZoom: 2.599999

[Metadata]
Title:Unity
TitleUnicode:Unity
Artist:Thefatrat
ArtistUnicode:Thefatrat
Creator:Bulldog
Version:Combind
Source:
Tags:
BeatmapID:893483
BeatmapSetID:410817

[Difficulty]
HPDrainRate:7
CircleSize:4
OverallDifficulty:7
ApproachRate:9
SliderMultiplier:1.8
SliderTickRate:1

[Events]
//Background and Video events
//Break Periods
2,64429,81249
2,100715,136772
//Storyboard Layer 0 (Background)
//Storyboard Layer 1 (Fail)
//Storyboard Layer 2 (Pass)
//Storyboard Layer 3 (Foreground)
//Storyboard Sound Samples

[TimingPoints]
0,-100,4,1,0,100,0,0
230,285.714285714286,4,1,0,100,1,0
45944,-100,4,1,0,100,0,1
64230,-100,4,1,0,100,0,1
81372,-100,4,1,0,100,0,0
117944,-181.818181818182,4,1,0,100,0,0
155658,-100,4,1,0,100,0,0

[HitObjects]
132,80,230,6,0,P|132:132|236:216,1,180
332,332,706,1,0,0:0:0:0:
364,296,801,1,0,0:0:0:0:
436,192,991,2,0,L|392:144,1,60
224,64,1277,2,0,L|280:132,1,60
284,224,1658,2,0,P|216:184|100:240,1,180
272,312,2134,1,0,0:0:0:0:
308,336,2230,2,0,P|392:324|456:248,1,180
376,108,2991,6,0,L|348:52,1,60
224,148,3277,2,0,L|188:196,1,60
212,348,3563,1,0,0:0:0:0:
160,336,3658,2,0,P|76:296|68:172,1,180
136,72,4134,2,0,L|200:80,1,60
372,104,4420,1,0,0:0:0:0:
388,136,4515,2,0,P|368:220|264:256,1,180
184,112,4991,5,0,0:0:0:0:
148,152,5087,2,0,P|120:240|152:308,1,120
144,312,5372,1,0,0:0:0:0:
332,280,5563,6,0,L|396:248,1,60
448,96,5849,2,0,L|392:128,1,60
228,220,6134,2,0,L|184:280,1,60
224,120,6420,2,0,L|192:64,1,60
312,168,6706,2,0,L|372:192,1,60
168,312,7087,5,0,0:0:0:0:
380,128,7372,1,0,0:0:0:0:
120,124,7658,1,0,0:0:0:0:
344,312,7944,1,0,0:0:0:0:
256,40,8230,1,0,0:0:0:0:
156,84,8706,5,0,0:0:0:0:
136,156,8801,2,0,P|140:224|208:280,1,120
224,292,9087,2,0,P|282:306|336:283,1,120
396,240,9372,1,0,0:0:0:0:
400,240,9849,5,0,0:0:0:0:
420,167,9944,2,0,P|419:107|384:59,1,120
323,23,10230,2,0,P|265:9|211:32,1,120
160,84,10515,1,0,0:0:0:0:
460,268,10991,6,0,L|428:200,1,60
312,144,11277,2,0,L|344:208,1,60
308,332,11563,2,0,L|272:248,1,60
112,144,11944,1,0,0:0:0:0:
336,196,12230,1,0,0:0:0:0:
236,48,12515,1,0,0:0:0:0:
204,272,12801,1,0,0:0:0:0:
176,88,13277,5,0,0:0:0:0:
200,120,13372,2,0,L|276:216,1,120
316,248,13658,2,0,L|424:152,1,120
440,128,13944,1,0,0:0:0:0:
248,340,14420,5,0,0:0:0:0:
216,300,14515,2,0,L|128:184,1,120
108,152,14801,2,0,L|212:64,1,120
236,40,15087,1,0,0:0:0:0:
396,356,15563,5,0,0:0:0:0:
356,272,15658,2,0,P|316:212|256:176,1,120
60,168,15944,2,0,P|92:100|128:72,1,120
256,40,16230,1,0,0:0:0:0:
400,192,16515,1,0,0:0:0:0:
256,328,16801,1,0,0:0:0:0:
96,192,17087,1,0,0:0:0:0:
324,120,17372,1,0,0:0:0:0:
36,132,17849,5,0,0:0:0:0:
104,208,17944,2,0,P|180:208|240:168,1,120
416,204,18230,2,0,P|320:200|284:176,1,120
256,116,18515,2,0,P|156:104|96:56,1,180,0|8,0:0|0:0,0:0:0:0:
376,60,18991,5,0,0:0:0:0:
320,116,19087,2,0,L|228:204,1,120
48,268,19372,2,0,L|164:152,1,120
208,112,19658,2,0,P|124:100|76:16,1,180,0|8,0:0|0:0,0:0:0:0:
240,32,20134,5,0,0:0:0:0:
300,84,20230,2,0,P|348:156|344:208,1,120
264,360,20515,2,0,P|288:300|268:228,1,120
244,168,20801,1,0,0:0:0:0:
108,312,21087,5,0,0:0:0:0:
408,180,21372,1,0,0:0:0:0:
104,84,21658,1,0,0:0:0:0:
424,40,21944,1,0,0:0:0:0:
368,192,22230,1,8,0:0:0:0:
296,288,22420,5,0,0:0:0:0:
272,220,22515,2,0,P|240:152|168:112,1,120
32,80,22801,2,0,P|112:120|132:188,1,120
152,232,23087,2,0,P|212:300|320:268,1,180,0|8,0:0|0:0,0:0:0:0:
344,104,23563,5,0,0:0:0:0:
288,128,23658,2,0,L|160:184,1,120
252,224,23944,2,0,L|180:328,1,120
300,280,24230,2,0,P|352:336|452:260,1,180,0|8,0:0|0:0,0:0:0:0:
420,136,24706,6,0,L|372:56,1,60
284,168,24991,1,0,0:0:0:0:
236,124,25087,1,0,0:0:0:0:
56,180,25277,1,0,0:0:0:0:
96,128,25372,1,0,0:0:0:0:
252,48,25658,5,0,0:0:0:0:
168,216,25944,1,0,0:0:0:0:
392,304,26230,1,0,0:0:0:0:
256,132,26515,1,0,0:0:0:0:
116,136,26706,5,0,0:0:0:0:
136,184,26801,2,0,L|280:304,1,180
316,176,27372,1,0,0:0:0:0:
80,104,27563,5,0,0:0:0:0:
128,60,27658,1,0,0:0:0:0:
256,192,27944,1,0,0:0:0:0:
392,312,28230,1,0,0:0:0:0:
256,192,28515,1,0,0:0:0:0:
420,72,28706,5,0,0:0:0:0:
412,136,28801,2,0,P|380:200|324:232,1,120
288,244,29087,1,0,0:0:0:0:
136,148,29372,1,0,0:0:0:0:
40,300,29658,1,0,0:0:0:0:
148,244,29849,6,0,L|224:184,1,60
336,96,30230,1,0,0:0:0:0:
452,232,30515,1,0,0:0:0:0:
304,336,30801,1,0,0:0:0:0:
232,240,30991,6,0,L|184:168,1,60
132,88,31277,1,0,0:0:0:0:
168,40,31372,1,0,0:0:0:0:
348,44,31658,1,0,0:0:0:0:
420,208,31944,1,0,0:0:0:0:
256,280,32230,5,0,0:0:0:0:
100,192,32515,1,0,0:0:0:0:
240,192,32801,1,0,0:0:0:0:
84,100,33087,1,0,0:0:0:0:
256,56,33277,5,0,0:0:0:0:
312,40,33372,1,0,0:0:0:0:
444,168,33563,1,0,0:0:0:0:
428,216,33658,1,0,0:0:0:0:
320,332,33944,2,0,P|192:308|184:244,1,180
120,176,34420,6,0,L|204:128,1,60
328,52,34801,1,0,0:0:0:0:
440,192,35087,1,0,0:0:0:0:
320,60,35372,1,0,0:0:0:0:
324,180,35563,2,0,L|256:244,1,60
160,240,35849,2,0,L|88:240,1,60
188,80,36230,1,0,0:0:0:0:
296,224,36515,1,0,0:0:0:0:
400,160,36706,6,0,L|388:224,1,60
252,336,37087,1,0,0:0:0:0:
320,168,37372,1,0,0:0:0:0:
152,228,37658,1,0,0:0:0:0:
108,116,37849,6,0,L|152:48,1,60
280,60,38134,1,0,0:0:0:0:
336,36,38230,1,0,0:0:0:0:
224,196,38515,1,0,0:0:0:0:
368,304,38801,1,0,0:0:0:0:
420,196,38991,6,0,L|380:132,1,60
228,64,39372,1,0,0:0:0:0:
64,144,39658,1,0,0:0:0:0:
232,212,39944,1,0,0:0:0:0:
160,296,40134,6,0,L|228:368,1,60
312,288,40420,1,0,0:0:0:0:
352,244,40515,1,0,0:0:0:0:
176,100,40801,1,0,0:0:0:0:
384,36,41087,1,0,0:0:0:0:
380,180,41277,5,0,0:0:0:0:
332,148,41372,1,0,0:0:0:0:
184,44,41658,1,0,0:0:0:0:
80,192,41944,1,0,0:0:0:0:
180,124,42134,2,0,L|180:192,1,60
156,304,42420,6,0,L|224:344,1,60
380,280,42801,2,0,P|428:204|368:120,1,180
296,56,43277,2,0,L|244:124,1,60
140,100,43563,1,0,0:0:0:0:
100,144,43658,5,0,0:0:0:0:
288,296,43944,1,0,0:0:0:0:
448,144,44230,1,0,0:0:0:0:
252,12,44515,1,0,0:0:0:0:
128,280,44801,1,0,0:0:0:0:
256,68,45277,6,0,L|316:116,1,60
384,276,45563,2,0,L|324:224,1,60
188,128,45849,1,0,0:0:0:0:
144,92,45944,2,0,P|44:148|40:232,1,180
192,288,46420,1,0,0:0:0:0:
280,288,46515,1,0,0:0:0:0:
440,208,46706,1,0,0:0:0:0:
440,120,46801,2,0,P|368:72|272:64,1,180
120,124,47563,6,0,L|168:192,1,60
276,308,47849,1,0,0:0:0:0:
340,368,47944,2,0,P|364:268|300:180,1,180
92,80,48515,5,0,0:0:0:0:
356,156,48801,1,0,0:0:0:0:
156,184,49087,1,0,0:0:0:0:
388,44,49372,1,0,0:0:0:0:
60,352,49849,6,0,L|124:336,1,60
296,304,50135,1,0,0:0:0:0:
384,280,50230,2,0,P|424:192|360:108,1,180
76,64,50991,6,0,L|152:92,1,60
312,116,51277,1,0,0:0:0:0:
396,148,51372,2,0,P|404:236|344:312,1,180
192,296,52134,5,0,0:0:0:0:
280,280,52230,1,0,0:0:0:0:
420,168,52420,1,0,0:0:0:0:
384,88,52515,1,0,0:0:0:0:
212,144,52706,2,0,L|172:76,1,60
444,52,53087,1,0,0:0:0:0:
128,104,53372,1,0,0:0:0:0:
308,244,53658,2,0,P|236:292|140:276,1,180
80,144,54420,6,0,L|152:140,1,60
320,128,54706,1,0,0:0:0:0:
372,200,54801,1,0,0:0:0:0:
240,324,54991,2,0,L|316:388,1,60
396,196,55563,6,0,L|408:280,1,60
244,340,55849,1,0,0:0:0:0:
172,288,55944,1,0,0:0:0:0:
256,132,56134,2,0,L|180:68,1,60
412,272,56706,6,0,L|316:272,1,60
228,140,56991,1,0,0:0:0:0:
176,224,57087,1,0,0:0:0:0:
48,100,57277,2,0,L|48:28,1,60
420,140,57658,1,0,0:0:0:0:
72,228,57944,1,0,0:0:0:0:
380,40,58230,1,0,0:0:0:0:
200,352,58515,1,0,0:0:0:0:
256,68,58991,6,0,L|340:124,1,60
416,244,59277,1,0,0:0:0:0:
352,308,59372,1,0,0:0:0:0:
216,192,59563,1,0,0:0:0:0:
128,192,59658,1,0,0:0:0:0:
88,308,60134,6,0,L|152:240,1,60
172,88,60420,1,0,0:0:0:0:
240,144,60515,1,0,0:0:0:0:
420,116,60706,1,0,0:0:0:0:
420,204,60801,1,0,0:0:0:0:
120,256,61277,6,0,L|172:204,1,60
296,92,61563,1,0,0:0:0:0:
212,64,61658,1,0,0:0:0:0:
256,240,61849,1,0,0:0:0:0:
340,276,61944,1,0,0:0:0:0:
40,76,62230,1,0,0:0:0:0:
396,108,62515,1,0,0:0:0:0:
132,352,62801,1,0,0:0:0:0:
264,16,63087,1,0,0:0:0:0:
116,32,63563,6,0,L|164:116,1,60
384,120,63849,2,0,L|348:200,1,60
140,272,64134,2,0,L|172:336,1,60
252,56,81849,5,0,0:0:0:0:
220,108,81944,1,0,0:0:0:0:
312,184,82134,1,0,0:0:0:0:
356,224,82230,1,0,0:0:0:0:
240,256,82420,1,0,0:0:0:0:
212,308,82515,2,0,P|108:328|32:264,1,180
168,152,82991,5,0,0:0:0:0:
200,200,83086,1,0,0:0:0:0:
312,136,83276,1,0,0:0:0:0:
340,192,83372,2,0,P|352:280|280:336,1,180
48,156,84134,5,0,0:0:0:0:
88,112,84230,1,0,0:0:0:0:
192,172,84420,1,0,0:0:0:0:
192,232,84515,2,0,P|304:224|360:144,1,180
28,352,85087,1,0,0:0:0:0:
347,178,85372,1,0,0:0:0:0:
36,52,85658,1,0,0:0:0:0:
232,352,85944,1,0,0:0:0:0:
252,72,86420,6,0,L|296:112,1,60
136,196,86706,1,0,0:0:0:0:
200,260,86801,2,0,P|80:296|8:252,1,180
440,76,87563,6,0,L|368:148,1,60
328,288,87849,1,0,0:0:0:0:
284,212,87944,2,0,P|204:128|140:120,1,180
152,296,88706,5,0,0:0:0:0:
212,228,88801,1,0,0:0:0:0:
392,228,88991,1,0,0:0:0:0:
392,136,89087,1,0,0:0:0:0:
212,136,89277,1,0,0:0:0:0:
272,68,89372,1,0,0:0:0:0:
44,348,89658,1,0,0:0:0:0:
256,56,89944,1,0,0:0:0:0:
460,352,90230,1,0,0:0:0:0:
140,188,90515,1,0,0:0:0:0:
208,72,90991,6,0,L|224:136,1,60
124,272,91277,2,0,L|196:284,1,60
356,228,91563,2,0,L|392:164,1,60
276,304,92134,6,0,L|261:245,1,60
360,104,92420,2,0,L|300:94,1,60
128,148,92706,2,0,L|98:200,1,60
316,40,93277,6,0,L|260:76,1,60
124,236,93563,2,0,L|208:192,1,60
392,224,93849,2,0,L|324:264,1,60
64,88,94230,2,0,L|104:112,1,30
324,88,94515,2,0,L|284:108,1,30
64,260,94801,2,0,L|104:236,1,30
324,260,95087,1,0,0:0:0:0:
424,64,95563,6,0,L|376:112,1,60
336,280,95849,1,0,0:0:0:0:
256,240,95944,1,0,0:0:0:0:
76,248,96134,2,0,L|104:176,1,60
256,52,96706,6,0,L|244:128,1,60
220,288,96991,1,0,0:0:0:0:
296,240,97087,1,0,0:0:0:0:
124,192,97277,2,0,L|80:280,1,60
380,312,97849,5,0,0:0:0:0:
448,252,97944,1,0,0:0:0:0:
272,208,98134,1,0,0:0:0:0:
324,132,98230,1,0,0:0:0:0:
144,140,98420,1,0,0:0:0:0:
148,52,98515,1,0,0:0:0:0:
372,204,98801,2,0,P|268:296|200:288,1,180
40,40,99372,1,0,0:0:0:0:
364,72,99658,1,0,0:0:0:0:
64,196,100134,6,0,L|64:272,1,60
280,264,100420,2,0,L|280:340,1,60
256,80,137372,6,0,P|364:124|244:316,1,396.000012084961
96,120,139658,6,0,B|216:44|264:188|300:340|416:264,1,396.000012084961
128,292,141944,6,0,B|236:228|320:264|320:264|276:184|384:92,1,396.000012084961
416,64,144230,6,0,L|376:172,1,99.0000030212403
252,116,144801,2,0,L|152:156,1,99.0000030212403
304,260,145372,1,0,0:0:0:0:
112,112,146515,6,0,B|236:80|236:80|172:256|368:256,1,396.000012084961
136,60,148801,6,0,P|160:288|316:312,1,396.000012084961
32,100,151087,6,0,B|108:156|136:132|136:132|168:156|168:156|200:132|200:132|232:156|232:156|260:132|260:132|288:156|388:96,1,396.000012084961
104,128,153372,6,0,L|208:176,1,99.0000030212403
368,288,153944,2,0,L|424:184,1,99.0000030212403
188,168,154515,1,0,0:0:0:0:
