osu file format v7

[General]
AudioFilename: Durarara_-_Uragiri_no_Yuuyake_TV_Size.mp3
AudioLeadIn: 1489
PreviewTime: 28821
Countdown: 0
SampleSet: Normal
StackLeniency: 0.7
Mode: 0
LetterboxInBreaks: 1

[Editor]
Bookmarks: 16193,28709,42517,54736,67848,80564
DistanceSpacing: 1.20000004768372
BeatDivisor: 4
GridSize: 8

[Metadata]
Title:Uragiri no Yuuyake (TV Size)
Artist:Theatre Brook
Creator:Ichigo-Sora
Version:Hard
Source:Durarara!!
Tags:opening

[Difficulty]
HPDrainRate:7
CircleSize:4
OverallDifficulty:8
SliderMultiplier:1.6
SliderTickRate:1

[Events]
//Background and Video events
0,0,"bg.jpg"
Video,355,"cvt_durarara.avi"
//Break Periods
//Storyboard Layer 0 (Background)
//Storyboard Layer 1 (Fail)
//Storyboard Layer 2 (Pass)
//Storyboard Layer 3 (Foreground)
//Storyboard Sound Samples
//Background Colour Transformations
3,100,0,0,0

[TimingPoints]
790,397.350993377483,4,2,1,49,1,0
10207,-200,4,2,1,49,0,0
10902,-100,4,2,1,49,0,0
16193,-100,4,1,0,40,0,0
16594,-100,4,1,0,49,0,0
27919,-100,4,1,0,56,0,0
28316,-100,4,1,0,61,0,0
28709,-100,4,1,0,40,0,0
29107,-100,4,1,0,51,0,0
29379,-100,4,1,0,61,0,1
33879,-200,4,1,0,61,0,1
35339,-100,4,1,0,61,0,1
38846,-100,4,1,0,30,0,1
39442,-100,4,1,0,41,0,1
40038,-100,4,1,0,50,0,1
40634,-100,4,1,0,60,0,1
51561,-100,4,1,0,30,0,1
52157,-100,4,1,0,40,0,1
52753,-100,4,1,0,50,0,1
54043,-100,4,2,0,80,0,0
64076,-100,4,1,0,30,0,0
64872,-100,4,1,0,39,0,0
65468,-100,4,1,0,49,0,0
67524,-100,4,1,0,49,0,1
87416,-100,4,1,0,30,0,0
88211,-100,4,1,0,9,0,0
88981,-100,4,2,0,0,0,0

[Colours]
Combo1 : 84,136,194
Combo2 : 181,106,106
Combo3 : 187,162,74

[HitObjects]
56,80,790,5,0
120,88,988,1,0
184,96,1187,1,8
248,104,1386,1,0
312,112,1584,1,0
376,120,1783,1,0
440,136,1982,1,8
440,200,2180,1,0
440,264,2379,5,0
376,272,2578,1,0
312,280,2776,1,8
248,288,2975,1,0
184,296,3174,1,0
120,304,3372,1,0
56,312,3571,1,8
56,256,3770,1,0
56,192,3968,6,0,L|56:128|152:104,1,160,0|8
152,168,4564,1,0
216,160,4763,2,0,L|304:136|304:40,1,160,0|8
368,72,5359,1,0
368,136,5558,1,0
264,216,5955,1,8
200,232,6154,1,0
152,112,6551,5,0
216,112,6750,2,0,L|280:112|336:200,1,160,8|0
352,64,7544,1,8
408,40,7743,1,0
400,104,7942,1,0
400,232,8339,1,8
272,232,8737,2,0,L|160:232,2,80,0|0|8
336,232,9333,2,0,L|312:176|128:176,1,240,0|8
136,112,10127,5,0
136,112,10326,2,0,L|48:112,1,80,0|8
72,176,10922,5,0
88,240,11121,2,0,L|112:288|240:288,1,160,0|8
264,328,11717,1,0
392,328,12114,1,0
456,320,12313,1,8
456,256,12511,1,0
320,184,13107,5,8
272,184,13306,1,0
224,184,13505,2,0,L|160:184|80:120,1,160,0|8
48,96,14101,1,0
48,48,14299,1,0
96,48,14498,1,0
96,96,14697,1,8
136,144,14895,6,0,L|240:144,3,80,0|0|0|8
280,144,15690,2,0,L|360:304,1,160
416,296,16286,1,0
416,264,16386,1,0
392,240,16485,1,0
392,208,16584,1,0
392,176,16684,6,2,L|392:16,1,160,6|2
312,120,17478,2,2,L|152:120,1,160
88,232,18273,2,0,L|264:232,1,160
312,232,18869,1,0
344,288,19068,2,0,L|392:288|432:240,1,80
440,96,19862,5,4
328,96,20260,2,0,L|248:96,2,80
328,160,20856,1,0
376,200,21054,2,0,L|320:264,2,80
440,200,21650,1,0
496,232,21849,1,0
440,264,22048,2,0,L|440:328|264:328,1,240
264,296,22743,1,0
264,264,22842,1,0
264,232,22942,1,0
264,200,23041,6,2,L|264:112|192:48,1,160,6|2
88,104,23836,2,2,L|88:192|160:256,1,160,2|2
224,336,24631,1,4
120,264,25028,5,0
80,232,25227,1,0
48,200,25425,1,0
48,152,25624,1,0
152,48,26220,5,0
200,48,26419,1,0
248,48,26617,1,0
296,48,26816,1,0
344,48,27015,2,0,L|376:104|480:104,1,160
472,152,27611,5,0
440,184,27809,1,0
408,216,28008,1,0
368,248,28207,1,0
336,280,28405,1,0
248,312,28803,5,0
216,312,28902,1,0
184,312,29001,1,0
152,312,29101,1,0
120,312,29200,1,0
88,312,29299,1,0
88,280,29399,6,2,L|88:208|136:168|136:56,1,240,4|0
232,72,30193,1,0
328,48,30392,1,0
352,144,30591,1,0
256,168,30789,1,0
448,168,31187,2,0,L|400:256|176:256,1,320,0|4
48,56,32975,5,0
96,144,33174,1,0
144,224,33372,1,0
192,304,33571,1,0
248,224,33770,1,0
296,144,33968,2,2,L|360:48|496:48,1,240,2|2
464,136,35359,5,0
384,200,35558,2,0,L|384:288|320:328,1,160,0|0
256,256,36154,1,0
184,320,36352,2,2,L|136:280|136:96,1,240,2|2
208,168,37147,6,0,L|208:72|152:24,1,160,0|0
112,112,37743,1,0
24,64,37942,2,0,L|24:160|80:208,1,160,0|0
320,48,38935,5,0
408,88,39134,1,0
408,184,39333,1,0
320,224,39531,1,0
232,184,39730,1,0
232,88,39929,1,0
144,48,40127,1,0
56,88,40326,1,0
56,184,40525,1,0
144,224,40723,1,0
232,184,40922,1,0
232,88,41121,1,0
256,192,41319,12,4,42114
360,112,42511,5,0
432,48,42710,1,0
360,112,42909,1,0
432,168,43107,1,0
360,224,43306,1,0
432,288,43505,1,0
280,168,43902,2,0,L|72:168|8:40,1,320,0|4
448,288,45690,5,0
376,224,45889,1,0
368,312,46088,1,0
288,256,46286,1,0
312,160,46485,1,0
408,136,46684,2,2,L|368:32|-8:32,1,480
56,112,48074,5,0
136,168,48273,2,0,L|136:256|184:312,1,160,0|0
224,224,48869,1,0
304,280,49068,2,2,L|432:280|496:160,1,240,2|2
392,208,49862,6,0,L|440:120|440:48,1,160
360,112,50458,1,0
312,32,50657,2,0,L|264:120|264:192,1,160,0|0
264,224,51154,1,0
264,272,51253,1,0
168,104,51650,5,0
216,192,51849,1,0
120,192,52048,1,0
168,272,52246,1,0
264,272,52445,1,0
312,192,52644,1,0
368,272,52842,1,0
424,192,53041,1,0
368,112,53240,2,0,L|368:16,3,80
456,56,54829,5,4
264,56,55227,5,0
176,88,55425,1,0
88,120,55624,1,2
176,152,55823,1,0
264,184,56021,1,0
176,216,56220,1,0
88,248,56419,1,2
176,272,56617,1,0
264,312,56816,1,0
352,264,57015,5,0
448,240,57213,1,2
352,216,57412,1,0
264,184,57611,1,0
325,116,57809,2,0,B|304:64|208:64|192:120,1,160
40,288,59001,6,0,B|120:320|216:288,1,160,0|4
392,288,59796,1,4
480,40,61187,6,0,B|424:32|448:152|328:128,1,160
264,136,61783,1,0
168,136,61982,1,2
72,136,62180,1,0
80,328,62578,5,0
136,248,62776,1,2
184,328,62975,1,0
240,248,63174,1,0
296,328,63372,1,0
352,248,63571,1,2
408,328,63770,1,0
472,144,64167,5,0
472,96,64266,1,0
472,48,64366,2,0,B|360:48,1,80
296,56,64763,1,0
224,120,64962,1,0
128,120,65160,1,0
128,216,65359,1,0
224,216,65558,1,0
296,280,65756,1,0
392,280,65955,5,0
64,200,66352,1,0
160,72,66551,1,0
256,192,66750,12,4,67544
256,192,67942,5,0
160,192,68140,1,0
64,192,68339,2,0,L|64:144|104:104,2,80
64,288,68935,1,0
256,288,69333,2,0,L|424:288|488:144,1,320,0|4
392,48,71121,6,0,L|504:48,2,80
392,144,71717,1,0
312,192,71915,1,0
216,192,72114,2,2,L|216:96|368:96,1,240
384,288,73107,5,4
304,240,73306,1,0
224,192,73505,1,0
136,152,73703,2,0,L|32:288,1,160,0|0
128,320,74299,1,0
216,352,74498,2,2,L|352:144,1,240,2|6
392,64,75293,5,4
488,232,75690,1,0
392,232,75889,1,0
296,232,76088,2,0,L|144:120,1,160
64,336,77081,5,0
120,256,77280,1,0
176,336,77478,1,0
272,336,77677,1,0
224,256,77876,2,0,L|408:256,1,160
480,248,78472,1,0
480,152,78670,2,0,L|480:96|360:56,1,160
256,192,79266,12,0,80260
40,48,80657,5,0
256,192,81054,1,0
472,48,81452,1,0
256,192,81849,1,0
40,336,82246,1,0
256,192,82644,1,0
256,192,82842,1,0
256,192,83041,1,0
472,336,83439,6,0,L|472:264|416:192,1,160
280,312,84233,1,0
280,312,84432,1,0
280,312,84631,1,0
232,128,85028,1,4
96,256,85425,1,4
64,64,85823,1,0
64,64,86021,1,0
64,64,86220,1,0
256,192,86617,12,0,89001
