osu file format v14

[General]
AudioFilename: TNG's Bittan Bittan.mp3
AudioLeadIn: 0
PreviewTime: 21021
Countdown: 1
SampleSet: Normal
StackLeniency: 0.7
Mode: 0
LetterboxInBreaks: 0
WidescreenStoryboard: 0

[Editor]
DistanceSpacing: 1.4
BeatDivisor: 4
GridSize: 4
TimelineZoom: 3.299999

[Metadata]
Title:TNG's Bittan Bittan
TitleUnicode:TNG's Bittan Bittan
Artist:TheNutritiousGuy
ArtistUnicode:TheNutritiousGuy
Creator:Stefan
Version:Lv. 4
Source:Super Mario RPG: Legend of the Seven Stars
Tags:smrpg fight against monsters parody nintendo tng
BeatmapID:655436
BeatmapSetID:40087

[Difficulty]
HPDrainRate:8
CircleSize:5
OverallDifficulty:8
ApproachRate:8.8
SliderMultiplier:1.9
SliderTickRate:1

[Events]
//Background and Video events
0,0,"BG.jpg",0,0
//Break Periods
//Storyboard Layer 0 (Background)
//Storyboard Layer 1 (Fail)
//Storyboard Layer 2 (Pass)
//Storyboard Layer 3 (Foreground)
//Storyboard Sound Samples

[TimingPoints]
4922,448.765893792072,4,1,0,10,1,0
5258,-100,4,1,0,20,0,0
5595,-100,4,1,0,30,0,0
5931,-100,4,1,0,40,0,0
6268,-100,4,1,0,50,0,0
6717,-100,4,1,0,60,0,0
19282,-100,4,1,0,15,0,0
19731,-100,4,1,0,30,0,0
20180,-100,4,1,0,45,0,0
20628,-100,4,1,0,60,0,0
21077,-100,4,1,0,60,0,1
21189,-100,4,1,0,60,0,0
35438,-100,4,1,0,60,0,1
35550,-100,4,1,0,60,0,0
48003,-100,4,1,0,15,0,0
48452,-100,4,1,0,30,0,0
48901,-100,4,1,0,45,0,0
49349,-100,4,1,0,60,0,0
49798,-100,4,1,0,60,0,1
49910,-100,4,1,0,60,0,0

[Colours]
Combo1 : 255,128,0
Combo2 : 0,183,0
Combo3 : 0,109,242
Combo4 : 255,0,0

[HitObjects]
88,72,4922,6,0,P|256:260|424:72,1,570,0|8,0:0|0:0,0:0:0:0:
256,44,6717,5,4,0:0:0:0:
400,136,7165,2,0,L|396:184,1,47.5,2|0,0:0|0:0,0:0:0:0:
312,236,7390,1,0,0:0:0:0:
312,236,7502,2,0,L|304:188,1,47.5,2|0,0:0|0:0,0:0:0:0:
244,116,7726,2,0,P|192:94|144:108,1,95,2|0,0:0|0:0,0:0:0:0:
96,176,8063,2,8,P|49:181|8:160,1,95,10|10,0:0|0:0,0:0:0:0:
220,352,8512,6,0,P|268:336|312:348,1,95
472,252,8960,2,0,L|464:298,1,47.5,2|0,0:0|0:0,0:0:0:0:
380,246,9184,1,0,0:0:0:0:
380,246,9297,2,0,L|376:198,1,47.5,2|0,0:0|0:0,0:0:0:0:
436,124,9521,2,8,B|392:92|341:109,1,95,2|0,0:0|0:0,0:0:0:0:
276,176,9858,2,8,B|251:218|197:223,1,95,10|10,0:0|0:0,0:0:0:0:
128,76,10307,5,0,0:0:0:0:
204,144,10531,1,0,0:0:0:0:
313,110,10756,2,0,P|345:150|345:198,1,95,2|0,0:0|0:0,0:0:0:0:
340,216,11092,2,0,L|372:252,1,47.5,2|0,0:0|0:0,0:0:0:0:
384,280,11317,1,2,0:0:0:0:
452,172,11541,2,0,L|420:136,1,47.5,0|10,0:0|0:0,0:0:0:0:
328,40,11877,1,10,0:0:0:0:
200,108,12102,6,0,P|216:168|204:196,1,95
112,364,12551,2,0,L|64:352,1,47.5,2|0,0:0|0:0,0:0:0:0:
4,280,12775,1,0,0:0:0:0:
4,280,12887,2,0,L|136:264,1,95,2|2,0:0|0:0,0:0:0:0:
280,324,13336,1,0,0:0:0:0:
280,280,13448,2,0,L|252:180,1,95,10|10,0:0|0:0,0:0:0:0:
216,60,13897,5,8,0:0:0:0:
252,36,14009,1,0,0:0:0:0:
292,24,14122,1,0,0:0:0:0:
336,24,14234,1,0,0:0:0:0:
376,36,14346,2,0,P|416:52|452:92,1,95,8|0,0:0|0:0,0:0:0:0:
428,124,14682,2,0,P|416:168|432:216,1,95,8|8,0:0|0:0,0:0:0:0:
492,292,15131,2,0,B|468:348,1,47.5,8|0,0:0|0:0,0:0:0:0:
332,360,15468,1,8,0:0:0:0:
240,256,15692,6,0,L|332:216,1,95,2|0,0:0|0:0,0:0:0:0:
380,36,16141,1,0,0:0:0:0:
200,92,16365,2,2,B|204:188|100:152|100:252,1,190,0|2,0:0|0:0,0:0:0:0:
96,284,16926,1,0,0:0:0:0:
116,320,17038,1,2,0:0:0:0:
220,292,17263,1,0,0:0:0:0:
308,340,17487,5,2,0:0:0:0:
348,324,17599,1,0,0:0:0:0:
368,288,17711,1,0,0:0:0:0:
384,248,17824,1,0,0:0:0:0:
424,236,17936,1,10,0:0:0:0:
460,156,18160,2,2,B|419:126,1,47.5,0|10,0:0|0:0,0:0:0:0:
352,76,18497,1,10,0:0:0:0:
200,192,18721,2,2,B|152:204,1,47.5,10|10,0:0|0:0,0:0:0:0:
76,168,19058,1,10,0:0:0:0:
256,192,19282,12,0,20853,0:0:0:0:
432,196,21077,5,4,0:0:0:0:
412,112,21302,1,0,0:0:0:0:
336,72,21526,1,0,0:0:0:0:
272,128,21750,1,0,0:0:0:0:
232,116,21863,1,8,0:0:0:0:
304,232,22087,1,8,0:0:0:0:
208,288,22311,1,0,0:0:0:0:
172,264,22423,1,8,0:0:0:0:
44,300,22648,1,8,0:0:0:0:
96,180,22872,6,0,P|83:129|97:88,1,95
208,24,23321,1,0,0:0:0:0:
332,68,23545,1,0,0:0:0:0:
356,104,23658,1,8,0:0:0:0:
324,236,23882,1,8,0:0:0:0:
448,196,24106,1,0,0:0:0:0:
472,232,24219,1,8,0:0:0:0:
412,348,24443,1,8,0:0:0:0:
284,376,24667,6,0,P|208:324|120:348,1,190,0|0,0:0|0:0,0:0:0:0:
44,276,25340,2,0,B|12:240,1,47.5,0|8,0:0|0:0,0:0:0:0:
40,120,25677,1,10,0:0:0:0:
168,144,25901,2,8,B|200:180,1,47.5
212,344,26238,1,2,0:0:0:0:
128,260,26462,6,0,B|108:208|64:200|64:200|4:184|0:136,1,190
64,40,27135,2,0,B|108:20,1,47.5,0|8,0:0|0:0,0:0:0:0:
260,96,27472,1,10,0:0:0:0:
180,164,27696,2,0,B|157:206,1,47.5,8|0,0:0|0:0,0:0:0:0:
232,296,28033,1,2,0:0:0:0:
356,284,28257,6,0,P|384:245|432:241,1,95,4|0,0:0|0:0,0:0:0:0:
472,240,28594,1,0,0:0:0:0:
500,208,28706,2,0,L|456:124,1,95,8|0,0:0|0:0,0:0:0:0:
416,140,29043,2,0,B|371:162|325:140,1,95,8|8,0:0|0:0,0:0:0:0:
192,124,29491,2,0,L|144:144,1,47.5,0|8,0:0|0:0,0:0:0:0:
128,272,29828,1,8,0:0:0:0:
256,304,30052,5,4,0:0:0:0:
296,292,30165,1,0,0:0:0:0:
320,256,30277,1,0,0:0:0:0:
320,212,30389,1,0,0:0:0:0:
288,184,30501,1,0,0:0:0:0:
180,108,30726,2,0,B|232:240|232:240|180:268|196:316,1,190,0|0,0:0|0:0,0:0:0:0:
144,360,31399,1,8,0:0:0:0:
68,288,31623,1,0,0:0:0:0:
140,216,31848,5,0,0:0:0:0:
176,196,31960,1,0,0:0:0:0:
212,216,32072,1,0,0:0:0:0:
252,196,32184,1,0,0:0:0:0:
292,216,32296,1,8,0:0:0:0:
388,268,32521,2,0,B|432:248,1,47.5
472,92,32857,1,8,0:0:0:0:
408,164,33082,2,0,B|364:184,1,47.5,0|0,0:0|0:0,0:0:0:0:
248,120,33418,1,8,0:0:0:0:
256,192,33643,12,4,35213,2:0:0:0:
256,340,35438,5,4,0:0:0:0:
112,248,35886,2,0,L|116:200,1,47.5,2|0,0:0|0:0,0:0:0:0:
200,148,36111,1,0,0:0:0:0:
200,148,36223,2,0,L|208:196,1,47.5,2|0,0:0|0:0,0:0:0:0:
268,268,36447,2,0,P|320:290|368:276,1,95,2|0,0:0|0:0,0:0:0:0:
416,208,36784,2,8,P|463:203|504:224,1,95,10|10,0:0|0:0,0:0:0:0:
292,32,37233,6,0,P|244:48|200:36,1,95
40,132,37681,2,0,L|48:86,1,47.5,2|0,0:0|0:0,0:0:0:0:
132,138,37905,1,0,0:0:0:0:
132,138,38018,2,0,L|136:186,1,47.5,2|0,0:0|0:0,0:0:0:0:
76,260,38242,2,8,B|120:292|171:275,1,95,2|0,0:0|0:0,0:0:0:0:
236,208,38579,2,8,B|261:166|315:161,1,95,10|10,0:0|0:0,0:0:0:0:
384,308,39028,5,0,0:0:0:0:
308,240,39252,1,0,0:0:0:0:
199,274,39477,2,0,P|167:234|167:186,1,95,2|0,0:0|0:0,0:0:0:0:
172,168,39813,2,0,L|140:132,1,47.5,2|0,0:0|0:0,0:0:0:0:
128,104,40038,1,2,0:0:0:0:
60,212,40262,2,0,L|92:248,1,47.5,0|10,0:0|0:0,0:0:0:0:
184,344,40598,1,10,0:0:0:0:
312,276,40823,6,0,P|296:216|308:188,1,95
400,20,41272,2,0,L|448:32,1,47.5,2|0,0:0|0:0,0:0:0:0:
508,104,41496,1,0,0:0:0:0:
508,104,41608,2,0,L|376:120,1,95,2|2,0:0|0:0,0:0:0:0:
232,60,42057,1,0,0:0:0:0:
232,104,42169,2,0,L|260:204,1,95,10|10,0:0|0:0,0:0:0:0:
296,324,42618,5,8,0:0:0:0:
260,348,42730,1,0,0:0:0:0:
220,360,42843,1,0,0:0:0:0:
176,360,42955,1,0,0:0:0:0:
136,348,43067,2,0,P|96:332|60:292,1,95,8|0,0:0|0:0,0:0:0:0:
84,260,43403,2,0,P|96:216|80:168,1,95,8|8,0:0|0:0,0:0:0:0:
12,88,43852,2,0,B|36:32,1,47.5,8|0,0:0|0:0,0:0:0:0:
172,20,44189,1,8,0:0:0:0:
272,128,44413,6,0,L|180:168,1,95,2|0,0:0|0:0,0:0:0:0:
132,348,44862,1,0,0:0:0:0:
312,292,45086,2,2,B|308:196|412:232|412:132,1,190,0|2,0:0|0:0,0:0:0:0:
416,100,45647,1,0,0:0:0:0:
396,64,45759,1,2,0:0:0:0:
296,96,45984,1,0,0:0:0:0:
204,44,46208,5,2,0:0:0:0:
164,60,46320,1,0,0:0:0:0:
144,96,46432,1,0,0:0:0:0:
128,136,46545,1,0,0:0:0:0:
88,148,46657,1,10,0:0:0:0:
52,228,46881,2,2,B|93:258,1,47.5,0|10,0:0|0:0,0:0:0:0:
160,308,47218,1,10,0:0:0:0:
312,192,47442,2,2,B|360:180,1,47.5,10|10,0:0|0:0,0:0:0:0:
460,228,47779,1,10,0:0:0:0:
256,192,48003,12,4,49798,0:0:0:0:
