osu file format v14

[General]
AudioFilename: TNG's Bittan Bittan.mp3
AudioLeadIn: 0
PreviewTime: 21021
Countdown: 1
SampleSet: Normal
StackLeniency: 0.7
Mode: 0
LetterboxInBreaks: 0
WidescreenStoryboard: 0

[Editor]
DistanceSpacing: 0.8
BeatDivisor: 4
GridSize: 4
TimelineZoom: 4.199998

[Metadata]
Title:TNG's Bittan Bittan
TitleUnicode:TNG's Bittan Bittan
Artist:TheNutritiousGuy
ArtistUnicode:TheNutritiousGuy
Creator:Stefan
Version:Lv. 2
Source:Super Mario RPG: Legend of the Seven Stars
Tags:smrpg fight against monsters parody nintendo tng
BeatmapID:192505
BeatmapSetID:40087

[Difficulty]
HPDrainRate:4
CircleSize:3.7
OverallDifficulty:5
ApproachRate:4
SliderMultiplier:1.3
SliderTickRate:1

[Events]
//Background and Video events
0,0,"BG.jpg",0,0
//Break Periods
//Storyboard Layer 0 (Background)
//Storyboard Layer 1 (Fail)
//Storyboard Layer 2 (Pass)
//Storyboard Layer 3 (Foreground)
//Storyboard Sound Samples

[TimingPoints]
4922,448.765893792072,4,1,0,10,1,0
5258,-100,4,1,0,20,0,0
5595,-100,4,1,0,30,0,0
5931,-100,4,1,0,40,0,0
6268,-100,4,1,0,50,0,0
6717,-100,4,1,0,60,0,0
19282,-100,4,1,0,15,0,0
19731,-100,4,1,0,30,0,0
20180,-100,4,1,0,45,0,0
20628,-100,4,1,0,60,0,0
21077,-100,4,1,0,60,0,1
21189,-100,4,1,0,60,0,0
35438,-100,4,1,0,60,0,1
35550,-100,4,1,0,60,0,0
48003,-100,4,1,0,15,0,0
48452,-100,4,1,0,30,0,0
48901,-100,4,1,0,45,0,0
49349,-100,4,1,0,60,0,0
49798,-100,4,1,0,60,0,1
49910,-100,4,1,0,60,0,0

[Colours]
Combo1 : 255,128,0
Combo2 : 0,183,0
Combo3 : 0,109,242
Combo4 : 255,0,0

[HitObjects]
72,104,4922,6,0,B|160:40|256:104|256:104|352:40|440:104,1,390,0|8,0:0|0:0,0:0:0:0:
472,200,6717,5,4,0:0:0:0:
408,280,7165,1,2,0:0:0:0:
320,232,7614,2,0,B|256:232|200:280,1,130,0|10,0:0|0:0,0:0:0:0:
156,308,8287,1,10,0:0:0:0:
112,336,8512,5,0,0:0:0:0:
24,280,8960,1,2,0:0:0:0:
48,176,9409,2,0,B|83:113|143:91,1,130,0|10,0:0|0:0,0:0:0:0:
188,68,10082,1,10,0:0:0:0:
240,56,10307,5,0,0:0:0:0:
336,92,10755,2,0,B|318:117|323:174|374:205|374:205|419:236|425:293|410:320,1,260,2|10,0:0|0:0,0:0:0:0:
372,352,11877,1,10,0:0:0:0:
320,356,12102,5,0,0:0:0:0:
224,320,12551,2,0,P|100:308|52:192,1,260,2|10,0:0|0:0,0:0:0:0:
56,144,13672,1,2,0:0:0:0:
88,96,13897,6,0,B|200:54|228:129|348:86,1,260,8|0,0:0|0:0,0:0:0:0:
400,176,15243,1,8,0:0:0:0:
344,264,15692,2,2,B|231:305|203:230|88:272,1,260,0|2,0:0|0:0,0:0:0:0:
72,168,17038,1,2,0:0:0:0:
152,104,17487,6,0,B|164:40,2,65,2|0|10,0:0|0:0|0:0,0:0:0:0:
244,148,18384,1,0,0:0:0:0:
328,88,18833,1,10,0:0:0:0:
256,192,19282,12,4,21077,0:0:0:0:
184,72,21975,5,0,0:0:0:0:
112,152,22423,1,8,0:0:0:0:
112,256,22872,1,0,0:0:0:0:
192,320,23321,1,0,0:0:0:0:
296,336,23770,2,0,B|360:352|432:328,1,130,0|8,0:0|0:0,0:0:0:0:
472,240,24667,6,2,B|493:175|477:111,1,130,0|2,0:0|0:0,0:0:0:0:
376,128,25565,1,0,0:0:0:0:
340,164,25789,1,0,0:0:0:0:
300,196,26013,1,10,0:0:0:0:
204,240,26462,6,2,B|182:175|198:111,1,130,0|2,0:0|0:0,0:0:0:0:
292,68,27360,1,0,0:0:0:0:
336,96,27584,1,0,0:0:0:0:
376,128,27809,1,10,0:0:0:0:
416,224,28257,6,0,B|352:264|336:320|336:320|272:296|272:296|208:320,1,260,4|0,0:0|0:0,0:0:0:0:
112,288,29604,1,8,0:0:0:0:
64,192,30052,2,0,B|128:152|144:96|144:96|208:120|208:120|272:96,1,260,4|0,0:0|0:0,0:0:0:0:
368,136,31399,1,8,0:0:0:0:
408,232,31847,6,0,B|472:224,2,65,0|0|8,0:0|0:0|0:0,0:0:0:0:
352,320,32745,2,8,B|296:360|224:352,1,130,0|8,0:0|0:0,0:0:0:0:
256,192,33643,12,4,35438,0:0:0:0:
128,84,36335,6,0,P|104:148|126:201,1,130,0|10,0:0|0:0,0:0:0:0:
164,240,37008,1,10,0:0:0:0:
204,272,37233,5,0,0:0:0:0:
308,272,37681,1,2,0:0:0:0:
385,201,38130,2,0,P|408:142|384:84,1,130,0|10,0:0|0:0,0:0:0:0:
340,52,38803,1,10,0:0:0:0:
292,36,39028,5,0,0:0:0:0:
216,104,39476,2,0,B|160:140|92:104|92:104|80:168|116:168|92:232,1,260,2|10,0:0|0:0,0:0:0:0:
72,280,40598,1,10,0:0:0:0:
48,324,40823,5,0,0:0:0:0:
144,360,41272,2,0,P|200:332|256:360,1,130,2|0,0:0|0:0,0:0:0:0:
332,288,42169,1,10,0:0:0:0:
372,256,42393,1,10,0:0:0:0:
408,220,42618,6,0,B|472:156,2,65,8|0|8,0:0|0:0|0:0,0:0:0:0:
332,148,43515,1,0,0:0:0:0:
256,76,43964,1,8,0:0:0:0:
180,144,44413,2,2,P|88:192|184:228,1,260,0|2,0:0|0:0,0:0:0:0:
276,184,45759,1,2,0:0:0:0:
260,80,46208,6,0,B|293:68|327:91,2,65,2|0|10,0:0|0:0|0:0,0:0:0:0:
184,152,47105,1,0,0:0:0:0:
200,256,47554,1,10,0:0:0:0:
256,192,48003,12,4,49798,0:0:0:0:
