osu file format v14

[General]
AudioFilename: Skrillex Circulation.mp3
AudioLeadIn: 0
PreviewTime: 56235
Countdown: 0
SampleSet: Soft
StackLeniency: 0.7
Mode: 0
LetterboxInBreaks: 1
WidescreenStoryboard: 0

[Editor]
Bookmarks: 8250,24250,40250,56250,70250,72250
DistanceSpacing: 1
BeatDivisor: 8
GridSize: 8
TimelineZoom: 1.6

[Metadata]
Title:Skrillex Circulation
TitleUnicode:Skrillex Circulation
Artist:TheLaxOne
ArtistUnicode:TheLaxOne
Creator:grumd
Version:Rekt!
Source:化物語
Tags:bakemonogatari arphimigon skystar dubstep bangarang renai
BeatmapID:547598
BeatmapSetID:232505

[Difficulty]
HPDrainRate:5
CircleSize:4
OverallDifficulty:8.5
ApproachRate:9.8
SliderMultiplier:1.8
SliderTickRate:2

[Events]
//Background and Video events
0,0,"nadeko.jpg",0,0
//Break Periods
//Storyboard Layer 0 (Background)
//Storyboard Layer 1 (Fail)
//Storyboard Layer 2 (Pass)
//Storyboard Layer 3 (Foreground)
//Storyboard Sound Samples

[TimingPoints]
235,500,4,2,0,40,1,0
7235,-90.9090909090909,4,2,0,40,0,0
8235,-80,4,2,0,50,0,0
24235,-76.9230769230769,4,2,0,50,0,0
40235,-100,4,2,0,50,0,0
44235,-76.9230769230769,4,2,0,50,0,0
48235,-100,4,2,0,50,0,0
52235,-76.9230769230769,4,2,0,50,0,0
55985,-74.0740740740741,4,2,0,50,0,0
56235,-71.4285714285714,4,2,0,50,0,1
71735,-71.4285714285714,4,2,0,50,0,0

[Colours]
Combo1 : 160,147,236
Combo2 : 250,103,103
Combo3 : 165,238,98
Combo4 : 117,191,232

[HitObjects]
115,163,235,6,0,L|107:119,1,45,4|0,0:3|0:0,0:0:0:0:
178,205,485,2,0,L|285:214,1,90,2|0,0:0|0:0,0:0:0:0:
335,180,860,2,0,P|383:172|431:140,1,90,2|0,0:0|0:0,0:0:0:0:
448,82,1235,2,0,P|438:60|423:42,1,45,4|0,0:3|0:0,0:0:0:0:
355,9,1485,1,0,0:0:0:0:
299,63,1610,2,0,L|314:171,1,90,2|0,0:0|0:0,0:0:0:0:
227,198,1985,2,0,L|236:139,1,45,0|0,0:0|0:0,0:0:0:0:
160,243,2235,5,4,0:3:0:0:
160,243,2360,1,0,0:0:0:0:
160,243,2485,2,0,P|111:222|62:222,1,90,2|0,0:0|0:0,0:0:0:0:
212,299,2860,2,0,P|263:292|302:263,1,90,2|0,0:0|0:0,0:0:0:0:
348,217,3235,2,0,L|355:165,2,45,4|0|0,0:3|0:0|0:0,0:0:0:0:
411,264,3610,2,0,L|429:367,1,90,2|0,0:0|0:0,0:0:0:0:
465,205,3985,2,0,L|476:158,1,45,0|0,0:0|0:0,0:0:0:0:
437,95,4235,5,4,0:3:0:0:
437,95,4360,1,2,0:0:0:0:
361,110,4485,1,0,0:0:0:0:
361,110,4610,1,2,0:0:0:0:
298,62,4735,2,0,L|244:51,1,45
247,129,4985,2,0,L|190:127,1,45,0|0,0:0|0:0,0:0:0:0:
135,163,5235,5,4,0:3:0:0:
135,163,5360,1,2,0:0:0:0:
161,237,5485,1,0,0:0:0:0:
161,237,5610,1,2,0:0:0:0:
232,213,5735,2,0,L|280:218,1,45,0|0,0:0|0:0,0:0:0:0:
239,289,5985,2,0,L|282:304,1,45,0|0,0:0|0:0,0:0:0:0:
346,345,6235,5,4,0:3:0:0:
404,294,6360,1,2,0:0:0:0:
478,310,6485,1,0,0:0:0:0:
512,241,6610,2,0,P|506:197|480:154,1,90,2|0,0:0|0:0,0:0:0:0:
409,148,6985,2,0,P|386:159|358:163,1,45,0|2,0:0|0:0,0:0:0:0:
249,54,7235,6,0,P|291:74|347:70,1,99.0000030212403,4|0,0:0|0:0,0:0:0:0:
139,82,7610,2,0,B|144:137,1,49.5000015106202,0|8,0:0|0:0,0:0:0:0:
85,201,7860,1,0,0:0:0:0:
148,261,7985,2,0,P|173:251|197:248,1,49.5000015106202
308,251,8235,6,0,L|324:191,1,56.25,4|0,1:0|0:0,0:0:0:0:
299,83,8485,1,2,0:1:0:0:
430,168,8610,1,0,0:0:0:0:
480,96,8735,2,0,P|477:64|466:37,1,56.25,8|0,0:1|0:0,0:0:0:0:
354,140,8985,2,0,P|350:166|354:198,1,56.25,2|0,0:1|0:0,0:0:0:0:
418,298,9235,2,0,P|368:279|287:282,1,112.5,4|0,1:3|0:0,0:0:0:0:
217,328,9610,1,0,0:0:0:0:
299,83,9735,2,0,P|334:65|395:66,1,84.375,4|0,0:0|0:0,0:0:0:0:
248,140,9985,2,0,P|218:138|194:128,1,56.25,2|0,0:0|0:0,0:0:0:0:
53,181,10235,5,4,1:0:0:0:
146,216,10360,1,0,0:0:0:0:
11,261,10485,1,2,0:1:0:0:
176,305,10610,2,0,B|231:291|231:291|290:297,1,112.5,0|0,0:0|0:0,0:0:0:0:
356,238,10985,2,0,L|346:175,1,56.25,2|0,0:1|0:0,0:0:0:0:
458,34,11235,2,0,L|446:158,1,112.5,2|0,1:2|0:0,0:0:0:0:
482,231,11610,1,0,0:0:0:0:
363,94,11735,2,0,P|334:87|296:87,1,56.25,4|0,0:0|0:0,0:0:0:0:
209,177,11985,2,0,P|175:185|144:184,1,56.25,2|0,0:0|0:0,0:0:0:0:
92,107,12235,6,0,L|86:47,2,56.25,4|0|0,1:3|0:0|0:0,0:0:0:0:
49,222,12610,1,2,0:1:0:0:
116,277,12735,2,0,L|109:334,1,56.25,8|0,0:1|0:0,0:0:0:0:
196,279,12985,2,0,P|164:251|142:179,1,112.5,2|4,0:0|1:3,0:0:0:0:
196,110,13360,1,0,0:0:0:0:
285,154,13485,2,0,P|317:153|346:144,1,56.25,2|0,0:0|0:0,0:0:0:0:
459,18,13735,2,0,P|443:58|448:111,1,84.375,4|0,0:2|0:1,0:0:0:0:
500,157,13985,2,0,P|506:186|506:219,1,56.25,2|0,0:1|0:0,0:0:0:0:
442,303,14235,5,2,1:0:0:0:
328,239,14360,1,2,0:1:0:0:
382,365,14485,1,0,0:0:0:0:
487,186,14610,2,0,P|439:158|382:158,1,112.5,2|0,0:1|0:0,0:0:0:0:
247,246,14985,2,0,P|219:244|189:233,1,56.25,2|0,0:0|0:0,0:0:0:0:
132,164,15235,1,2,1:2:0:0:
70,312,15360,1,0,0:0:0:0:
247,246,15485,2,0,P|304:253|354:295,1,112.5,2|0,1:0|1:0,1:0:0:0:
198,317,15860,1,0,0:0:0:0:
266,107,15985,2,0,L|275:171,1,56.25,2|0,0:0|0:0,0:0:0:0:
335,221,16235,5,4,1:0:0:0:
494,175,16360,1,0,0:0:0:0:
465,92,16485,1,2,0:1:0:0:
416,248,16610,1,0,0:0:0:0:
335,221,16735,2,0,P|326:193|323:153,1,56.25,8|0,0:1|0:0,0:0:0:0:
198,317,16985,2,0,P|195:350|182:382,1,56.25,2|0,0:1|0:0,0:0:0:0:
150,246,17235,1,4,1:3:0:0:
105,113,17360,1,0,0:0:0:0:
43,301,17485,2,0,L|103:313,1,56.25
247,156,17735,2,0,L|161:168,1,84.375,4|0,0:0|0:0,0:0:0:0:
301,209,17985,1,2,0:0:0:0:
357,92,18110,1,0,0:0:0:0:
394,266,18235,6,0,L|406:329,2,56.25,4|0|2,1:0|0:0|0:1,0:0:0:0:
492,112,18610,2,0,L|478:229,1,112.5,2|0,0:0|0:0,0:0:0:0:
396,94,18985,2,0,P|387:63|370:34,1,56.25,2|0,0:1|0:0,0:0:0:0:
332,165,19235,1,2,1:2:0:0:
252,121,19360,1,0,0:0:0:0:
188,216,19485,2,0,P|157:226|127:230,1,56.25
17,65,19735,2,0,P|54:97|121:108,1,112.5,4|2,0:0|0:0,0:0:0:0:
188,67,20110,1,0,0:0:0:0:
252,121,20235,6,0,P|249:154|240:183,1,56.25,4|0,1:3|0:0,0:0:0:0:
366,294,20485,2,0,P|358:266|355:237,1,56.25,0|2,0:0|0:1,0:0:0:0:
416,177,20735,1,8,0:1:0:0:
67,339,20985,1,2,0:0:0:0:
37,258,21110,1,0,0:0:0:0:
104,200,21235,2,0,P|136:208|166:208,1,56.25,4|0,1:3|0:0,0:0:0:0:
253,161,21485,1,0,0:0:0:0:
308,297,21610,1,0,0:0:0:0:
386,128,21735,2,0,P|429:128|483:154,1,84.375,4|0,0:2|0:0,0:0:0:0:
339,193,21985,2,0,P|308:200|272:198,1,56.25,2|0,0:1|0:0,0:0:0:0:
192,60,22235,5,2,1:0:0:0:
294,20,22360,1,0,0:0:0:0:
223,141,22485,1,0,0:0:0:0:
360,238,22610,2,0,L|471:224,1,112.5,2|0,0:1|0:0,0:0:0:0:
383,95,22985,2,0,L|321:88,1,56.25,2|0,0:0|0:0,0:0:0:0:
459,48,23235,1,2,1:2:0:0:
418,175,23360,1,0,0:0:0:0:
251,60,23485,2,0,P|245:91|245:119,1,56.25,2|0,1:0|0:0,0:0:0:0:
330,226,23735,2,0,P|336:263|335:291,1,56.25,0|0,1:0|0:0,0:0:0:0:
264,331,23985,1,2,0:0:0:0:
194,275,24110,1,0,0:0:0:0:
34,337,24235,6,0,P|25:312|22:280,1,58.4999973220826,4|0,1:0|0:0,0:0:0:0:
123,71,24485,2,0,P|118:104|106:133,1,58.4999973220826,2|0,0:0|0:0,0:0:0:0:
23,180,24735,1,2,0:1:0:0:
226,136,24860,1,0,0:0:0:0:
115,233,24985,2,0,L|107:296,1,58.4999973220826,2|0,0:1|0:0,0:0:0:0:
365,357,25235,2,0,L|356:293,1,58.4999973220826,2|0,0:1|0:0,0:0:0:0:
400,214,25485,1,4,0:3:0:0:
223,289,25610,1,4,0:3:0:0:
341,145,25735,2,0,B|339:114|339:114|348:82,1,58.4999973220826,4|0,0:1|0:0,0:0:0:0:
482,196,25985,2,0,B|484:227|484:227|475:259,1,58.4999973220826,2|0,0:0|0:0,0:0:0:0:
240,229,26235,5,4,1:3:0:0:
172,113,26360,1,2,0:0:0:0:
128,284,26485,1,2,0:0:0:0:
240,229,26610,1,2,0:0:0:0:
38,188,26735,1,2,0:0:0:0:
265,137,26860,1,2,0:0:0:0:
71,61,26985,2,0,B|9:55,1,58.4999973220826,2|0,0:1|0:0,0:0:0:0:
108,255,27235,2,0,L|168:247,1,58.4999973220826,4|0,0:3|0:0,0:0:0:0:
237,305,27485,1,2,0:0:0:0:
337,216,27610,1,0,0:0:0:0:
399,281,27735,2,0,P|409:309|413:343,1,58.4999973220826,8|0,0:1|0:0,0:0:0:0:
460,205,27985,2,0,P|459:158|480:112,1,87.749995983124,0|0,0:0|0:0,0:0:0:0:
431,62,28235,6,0,L|368:77,1,58.4999973220826,4|0,1:0|0:0,0:0:0:0:
244,35,28485,2,0,L|184:48,1,58.4999973220826,2|0,0:0|0:0,0:0:0:0:
0,154,28735,1,2,0:1:0:0:
148,118,28860,1,0,0:0:0:0:
226,243,28985,1,2,0:1:0:0:
93,206,29110,1,0,0:0:0:0:
200,331,29235,2,0,P|171:360|145:373,1,58.4999973220826,2|0,0:1|0:0,0:0:0:0:
329,238,29485,2,0,P|362:233|395:237,1,58.4999973220826,4|4,0:3|0:3,0:0:0:0:
458,293,29735,1,4,0:1:0:0:
391,120,29860,1,0,0:0:0:0:
329,238,29985,2,0,L|320:301,1,58.4999973220826,2|0,0:0|0:0,0:0:0:0:
221,346,30235,5,4,1:3:0:0:
176,137,30360,1,2,0:0:0:0:
329,238,30485,1,2,0:0:0:0:
498,163,30610,1,2,0:0:0:0:
287,104,30735,1,2,0:0:0:0:
408,267,30860,1,2,0:0:0:0:
440,85,30985,2,0,P|455:57|480:34,1,58.4999973220826,2|0,0:1|0:0,0:0:0:0:
318,168,31235,2,0,P|255:168|224:138,1,87.749995983124,4|0,0:3|0:0,0:0:0:0:
199,89,31485,2,0,L|206:150,1,58.4999973220826,2|0,0:0|0:0,0:0:0:0:
64,256,31735,2,0,L|71:192,1,58.4999973220826,8|0,0:1|0:0,0:0:0:0:
123,322,31985,1,0,0:0:0:0:
201,277,32110,1,0,0:0:0:0:
368,314,32235,6,0,P|400:313|428:304,1,58.4999973220826,4|0,1:0|0:0,0:0:0:0:
228,183,32485,2,0,P|199:172|168:170,1,58.4999973220826,2|0,0:0|0:0,0:0:0:0:
299,234,32735,1,2,0:1:0:0:
476,177,32860,1,0,0:0:0:0:
444,28,32985,2,0,P|441:60|431:90,1,58.4999973220826,2|0,0:1|0:0,0:0:0:0:
220,74,33235,2,0,P|232:106|234:136,1,58.4999973220826,2|0,0:1|0:0,0:0:0:0:
180,202,33485,1,4,0:3:0:0:
94,32,33610,1,4,0:3:0:0:
26,183,33735,2,0,L|32:247,1,58.4999973220826,4|0,0:1|0:0,0:0:0:0:
257,274,33985,2,0,L|245:340,1,58.4999973220826,2|0,0:0|0:0,0:0:0:0:
335,223,34235,5,4,1:3:0:0:
149,130,34360,1,2,0:0:0:0:
381,78,34485,1,2,0:0:0:0:
418,280,34610,1,2,0:0:0:0:
286,147,34735,1,2,0:0:0:0:
464,105,34860,1,2,0:0:0:0:
338,308,34985,1,2,0:1:0:0:
296,53,35110,1,0,0:0:0:0:
201,193,35235,2,0,L|205:256,1,58.4999973220826,4|0,0:3|0:0,0:0:0:0:
136,316,35485,1,2,0:0:0:0:
73,243,35610,1,0,0:0:0:0:
21,323,35735,2,0,L|27:390,1,58.4999973220826,8|0,0:1|0:0,0:0:0:0:
73,243,35985,2,0,L|84:149,1,87.749995983124,0|0,0:0|0:0,0:0:0:0:
55,90,36235,6,0,P|78:109|106:119,1,58.4999973220826,4|0,1:0|0:0,0:0:0:0:
243,66,36485,2,0,P|271:53|306:49,1,58.4999973220826,2|0,0:0|0:0,0:0:0:0:
466,166,36735,2,0,B|477:195|477:195|481:223,1,58.4999973220826,2|0,0:1|0:0,0:0:0:0:
412,61,36985,2,0,B|418:31|418:31|431:7,1,58.4999973220826,2|0,0:1|0:0,0:0:0:0:
332,134,37235,1,2,0:1:0:0:
243,66,37360,1,0,0:0:0:0:
188,242,37485,1,4,0:3:0:0:
332,134,37610,1,4,0:3:0:0:
112,79,37735,2,0,L|48:91,1,58.4999973220826,4|0,0:1|0:0,0:0:0:0:
284,230,37985,2,0,L|342:240,1,58.4999973220826,2|0,0:0|0:0,0:0:0:0:
413,178,38235,5,4,1:3:0:0:
343,343,38360,1,2,0:0:0:0:
248,150,38485,1,2,0:0:0:0:
456,261,38610,1,2,0:0:0:0:
418,92,38735,5,4,0:3:0:0:
343,343,38860,1,4,0:3:0:0:
184,263,38985,1,4,0:3:0:0:
413,178,39110,1,0,0:0:0:0:
222,339,39235,6,0,P|193:347|164:346,1,58.4999973220826,4|0,0:3|0:0,0:0:0:0:
0,139,39485,2,0,P|40:123|93:123,1,87.749995983124,2|0,0:0|0:0,0:0:0:0:
139,172,39735,2,0,P|166:181|200:181,1,58.4999973220826,8|0,0:1|0:0,0:0:0:0:
237,45,39985,2,0,P|264:34|304:31,1,58.4999973220826
377,93,40235,6,0,L|365:194,1,90,4|2,1:3|0:0,0:0:0:0:
486,164,40735,2,0,L|501:263,1,90,4|2,0:3|0:0,0:0:0:0:
422,329,41235,2,0,P|371:322|334:301,1,90,2|4,0:1|0:3,0:0:0:0:
316,280,41610,1,4,0:3:0:0:
302,250,41735,1,8,0:3:0:0:
313,142,41985,1,2,0:0:0:0:
226,77,42235,6,0,L|121:93,1,90,4|2,0:3|0:0,0:0:0:0:
91,188,42735,1,2,0:1:0:0:
174,256,42985,2,0,L|160:309,2,45,4|4|8,0:3|0:3|0:3,0:0:0:0:
268,203,43485,1,2,0:0:0:0:
375,191,43735,1,4,0:3:0:0:
311,103,43985,1,2,0:0:0:0:
406,43,44235,6,0,P|440:46|466:55,1,58.4999973220826,4|2,1:3|0:0,0:0:0:0:
338,109,44485,1,0,0:0:0:0:
183,50,44610,1,2,0:0:0:0:
268,203,44735,1,10,0:2:0:0:
316,22,44860,1,0,0:0:0:0:
196,144,44985,2,0,L|134:133,1,58.4999973220826,2|0,0:0|0:0,0:0:0:0:
427,212,45235,6,0,P|435:243|437:275,1,58.4999973220826,4|2,1:3|0:0,0:0:0:0:
374,344,45485,1,0,0:0:0:0:
323,185,45610,1,2,0:0:0:0:
229,263,45735,1,10,0:2:0:0:
427,212,45860,1,0,0:0:0:0:
285,353,45985,2,0,L|225:345,1,58.4999973220826,2|0,0:0|0:0,0:0:0:0:
63,167,46235,6,0,P|70:196|70:227,1,58.4999973220826,4|2,1:3|0:0,0:0:0:0:
33,300,46485,1,0,0:0:0:0:
157,178,46610,1,2,0:0:0:0:
204,377,46735,1,10,0:2:0:0:
136,261,46860,1,0,0:0:0:0:
306,224,46985,1,2,0:0:0:0:
119,112,47110,1,0,0:0:0:0:
228,29,47235,6,0,L|286:44,1,58.4999973220826,4|2,1:3|0:1,0:0:0:0:
383,17,47485,1,2,0:1:0:0:
306,224,47610,1,2,0:1:0:0:
383,17,47735,2,0,P|366:85|452:141,1,175.499991966248,4|0,0:0|0:0,0:0:0:0:
440,67,48235,6,0,P|473:73|515:121,1,90,4|2,1:3|0:0,0:0:0:0:
443,215,48735,2,0,P|410:209|368:161,1,90,4|2,0:3|0:0,0:0:0:0:
327,71,49235,1,2,0:1:0:0:
226,140,49485,2,0,L|179:133,1,45,4|4,0:3|0:3,0:0:0:0:
152,151,49735,1,8,0:3:0:0:
180,251,49985,1,2,0:0:0:0:
97,315,50235,5,4,0:3:0:0:
64,211,50485,1,2,0:0:0:0:
152,151,50735,2,0,P|198:140|247:141,1,90,2|4,0:1|0:3,0:0:0:0:
271,145,51110,1,4,0:3:0:0:
300,155,51235,1,8,0:3:0:0:
333,257,51485,1,2,0:0:0:0:
435,223,51735,1,4,0:3:0:0:
470,121,51985,1,2,0:0:0:0:
392,43,52235,6,0,P|358:51|328:53,1,58.4999973220826,4|2,1:3|0:0,0:0:0:0:
245,30,52485,1,0,0:0:0:0:
292,188,52610,1,2,0:0:0:0:
392,43,52735,1,10,0:2:0:0:
201,110,52860,1,0,0:0:0:0:
376,152,52985,2,0,P|386:181|389:214,1,58.4999973220826,2|0,0:0|0:0,0:0:0:0:
217,331,53235,6,0,L|229:271,1,58.4999973220826,4|2,1:3|0:0,0:0:0:0:
186,196,53485,1,0,0:0:0:0:
316,312,53610,1,2,0:0:0:0:
376,152,53735,1,10,0:2:0:0:
242,261,53860,1,0,0:0:0:0:
412,309,53985,2,0,P|445:307|472:299,1,58.4999973220826,2|0,0:0|0:0,0:0:0:0:
284,91,54235,6,0,L|273:150,1,58.4999973220826,4|2,1:3|0:0,0:0:0:0:
186,196,54485,1,0,0:0:0:0:
316,312,54610,1,2,0:0:0:0:
284,91,54735,1,10,0:2:0:0:
370,173,54860,1,0,0:0:0:0:
186,196,54985,2,0,P|175:165|174:135,1,58.4999973220826,2|0,0:0|0:0,0:0:0:0:
88,273,55235,2,0,P|83:303|70:331,1,58.4999973220826,4|0,1:3|0:0,0:0:0:0:
28,50,55485,6,0,P|33:98|66:141,1,87.749995983124,4|2,0:3|0:0,0:0:0:0:
125,144,55735,2,0,P|151:135|184:133,1,58.4999973220826,4|0,1:1|0:0,0:0:0:0:
419,229,55985,2,0,P|392:220|356:217,1,60.7500002317429,2|0,0:0|0:0,0:0:0:0:
116,327,56235,6,0,P|147:336|185:336,1,62.9999980773926,4|0,1:1|0:0,0:0:0:0:
263,284,56485,1,0,0:0:0:0:
225,119,56610,1,2,0:1:0:0:
383,221,56735,1,8,0:1:0:0:
180,194,56860,1,2,0:0:0:0:
361,121,56985,2,0,P|370:89|370:51,1,62.9999980773926,2|0,0:1|0:0,0:0:0:0:
446,167,57235,5,4,0:3:0:0:
265,195,57360,1,2,0:1:0:0:
400,302,57485,1,2,0:1:0:0:
317,356,57610,1,0,0:0:0:0:
317,356,57672,1,0,0:0:0:0:
317,356,57735,1,4,0:1:0:0:
225,302,57860,1,2,0:1:0:0:
351,198,57985,2,0,P|344:162|331:136,1,62.9999980773926,2|2,0:1|0:1,0:0:0:0:
245,97,58235,5,4,1:1:0:0:
432,150,58360,1,0,0:0:0:0:
207,230,58485,2,0,L|139:218,1,62.9999980773926,0|2,0:0|0:1,0:0:0:0:
87,152,58735,1,8,0:1:0:0:
160,314,58860,1,0,0:0:0:0:
286,161,58985,2,0,L|351:151,1,62.9999980773926,2|0,0:2|0:0,0:0:0:0:
411,88,59235,5,4,1:3:0:0:
470,259,59360,1,2,0:1:0:0:
286,161,59485,1,2,0:1:0:0:
470,259,59610,1,2,0:1:0:0:
220,335,59735,2,0,P|156:330|106:287,1,125.999996154785,6|0,0:1|0:0,0:0:0:0:
291,244,60110,1,0,0:0:0:0:
447,308,60235,5,6,1:3:0:0:
311,348,60360,1,2,0:0:0:0:
222,209,60485,1,0,0:0:0:0:
139,384,60610,1,2,0:1:0:0:
107,136,60735,1,8,0:1:0:0:
237,303,60860,1,0,0:0:0:0:
66,217,60985,2,0,P|31:218|0:230,1,62.9999980773926,2|0,0:1|0:1,0:1:0:0:
237,303,61235,5,4,0:3:0:0:
291,62,61360,1,2,0:1:0:0:
381,266,61485,1,2,0:1:0:0:
437,126,61610,1,4,0:3:0:0:
437,126,61672,1,4,0:3:0:0:
437,126,61735,1,4,0:1:0:0:
227,168,61860,1,2,0:1:0:0:
381,266,61985,2,0,P|380:301|369:333,1,62.9999980773926,2|2,0:1|0:1,0:0:0:0:
208,85,62235,5,4,0:3:0:0:
135,245,62360,1,0,0:0:0:0:
85,101,62485,2,0,L|23:89,1,62.9999980773926,4|2,0:3|0:0,0:0:0:0:
133,166,62735,5,8,0:1:0:0:
205,326,62860,1,0,0:0:0:0:
256,182,62985,2,0,L|318:170,1,62.9999980773926,0|2,0:0|0:0,0:0:0:0:
216,250,63235,5,4,1:3:0:0:
52,184,63360,1,2,0:0:0:0:
288,96,63485,2,0,P|298:66|302:35,1,62.9999980773926,2|0,0:1|0:0,0:0:0:0:
339,259,63735,2,0,P|346:294|363:327,1,62.9999980773926,2|0,0:1|0:0,0:0:0:0:
172,354,63985,1,0,0:0:0:0:
75,322,64110,1,0,0:0:0:0:
30,230,64235,6,0,P|42:200|45:167,1,62.9999980773926,4|0,1:1|0:0,0:0:0:0:
16,75,64485,1,0,0:0:0:0:
138,239,64610,1,2,0:1:0:0:
154,27,64735,1,8,0:1:0:0:
33,167,64860,1,2,0:0:0:0:
270,138,64985,1,2,0:1:0:0:
94,81,65110,1,0,0:0:0:0:
223,216,65235,6,0,L|215:280,1,62.9999980773926,4|2,0:3|0:1,0:0:0:0:
338,164,65485,1,2,0:1:0:0:
437,187,65610,1,0,0:0:0:0:
437,187,65672,1,0,0:0:0:0:
437,187,65735,1,4,0:1:0:0:
496,114,65860,1,2,0:1:0:0:
464,277,65985,1,2,0:1:0:0:
338,164,66110,1,2,0:1:0:0:
284,353,66235,5,4,1:1:0:0:
223,216,66360,1,0,0:0:0:0:
402,85,66485,2,0,L|468:76,1,62.9999980773926,0|2,0:0|0:1,0:0:0:0:
347,214,66735,2,0,L|283:203,1,62.9999980773926,8|0,0:1|0:0,0:0:0:0:
208,249,66985,1,2,0:2:0:0:
173,87,67110,1,0,0:0:0:0:
51,203,67235,5,4,1:3:0:0:
260,131,67360,1,2,0:1:0:0:
44,67,67485,1,2,0:1:0:0:
114,342,67610,1,2,0:1:0:0:
195,173,67735,2,0,P|254:187|284:244,1,125.999996154785,6|0,0:1|0:0,0:0:0:0:
264,320,68110,1,0,0:0:0:0:
414,263,68235,5,6,1:3:0:0:
264,320,68360,1,2,0:0:0:0:
427,174,68485,2,0,P|421:144|407:113,1,62.9999980773926,0|2,0:0|0:1,0:0:0:0:
329,261,68735,1,8,0:1:0:0:
511,186,68860,1,0,0:0:0:0:
289,144,68985,1,2,0:1:0:0:
414,263,69110,1,0,0:0:0:0:
343,68,69235,5,4,0:3:0:0:
289,144,69360,2,0,P|258:143|226:136,1,62.9999980773926,2|2,0:1|0:1,0:0:0:0:
149,81,69610,1,4,0:3:0:0:
149,81,69672,1,4,0:3:0:0:
149,81,69735,1,4,0:1:0:0:
229,25,69860,1,2,0:1:0:0:
142,221,69985,1,2,0:1:0:0:
56,59,70110,1,2,0:1:0:0:
289,144,70235,6,0,P|321:141|359:129,1,62.9999980773926,4|0,0:3|0:0,0:0:0:0:
428,74,70485,1,4,0:3:0:0:
211,191,70610,1,2,0:0:0:0:
270,257,70735,2,0,L|263:323,1,62.9999980773926,8|0,0:1|0:0,0:0:0:0:
386,182,70985,6,0,L|381:118,1,62.9999980773926,4|4,0:3|0:3,0:0:0:0:
380,103,71172,1,4,0:3:0:0:
379,87,71235,1,4,0:3:0:0:
435,20,71360,1,0,0:0:0:0:
289,144,71485,2,0,P|252:142|220:131,1,62.9999980773926,2|0,0:0|0:0,0:0:0:0:
149,81,71735,1,8,0:1:0:0:
