osu file format v14

[General]
AudioFilename: Skrillex Circulation.mp3
AudioLeadIn: 0
PreviewTime: 56235
Countdown: 0
SampleSet: Soft
StackLeniency: 0.7
Mode: 0
LetterboxInBreaks: 1
WidescreenStoryboard: 0

[Editor]
Bookmarks: 8250,24250,40250,56250,63735,70250,72250
DistanceSpacing: 1
BeatDivisor: 4
GridSize: 4
TimelineZoom: 1

[Metadata]
Title:Skrillex Circulation
TitleUnicode:Skrillex Circulation
Artist:TheLaxOne
ArtistUnicode:TheLaxOne
Creator:grumd
Version:Hard
Source:化物語
Tags:bakemonogatari arphimigon skystar dubstep bangarang renai
BeatmapID:718295
BeatmapSetID:232505

[Difficulty]
HPDrainRate:4
CircleSize:4
OverallDifficulty:6
ApproachRate:7.2
SliderMultiplier:1.3
SliderTickRate:2

[Events]
//Background and Video events
0,0,"nadeko.jpg",0,0
//Break Periods
//Storyboard Layer 0 (Background)
//Storyboard Layer 1 (Fail)
//Storyboard Layer 2 (Pass)
//Storyboard Layer 3 (Foreground)
//Storyboard Sound Samples

[TimingPoints]
235,500,4,2,0,40,1,0
7235,-90.9090909090909,4,2,0,40,0,0
8235,-80,4,2,0,50,0,0
24235,-76.9230769230769,4,2,0,50,0,0
40235,-100,4,2,0,50,0,0
44235,-76.9230769230769,4,2,0,50,0,0
48235,-100,4,2,0,50,0,0
52235,-76.9230769230769,4,2,0,50,0,0
55985,-74.0740740740741,4,2,0,50,0,0
56235,-71.4285714285714,4,2,0,50,0,1
71735,-71.4285714285714,4,2,0,50,0,0

[Colours]
Combo1 : 160,147,236
Combo2 : 250,103,103
Combo3 : 165,238,98
Combo4 : 117,191,232

[HitObjects]
32,224,235,6,0,P|76:188|148:192,1,130,4|0,0:3|0:0,0:0:0:0:
240,304,1235,2,0,L|340:320,2,97.5,4|2|0,0:3|0:0|0:0,0:0:0:0:
184,220,2235,6,0,P|200:152|248:120,1,130,4|0,0:3|0:0,0:0:0:0:
408,168,3235,2,0,L|392:272,2,97.5,4|2|0,0:3|0:0|0:0,0:0:0:0:
256,112,4235,6,0,P|312:160|312:216,1,130,4|2,0:3|0:0,0:0:0:0:
224,260,4985,1,0,0:0:0:0:
160,192,5235,2,0,L|24:208,1,130,4|2,0:3|0:0,0:0:0:0:
4,288,5985,1,0,0:0:0:0:
68,124,6235,6,0,L|197:108,1,130,4|2,0:3|0:0,0:0:0:0:
272,164,6985,1,0,0:0:0:0:
241,251,7235,2,0,P|289:211|367:211,1,143.000004364014,4|8,0:0|0:0,0:0:0:0:
432,285,7985,1,0,0:0:0:0:
476,148,8235,6,0,L|464:68,1,81.25,4|2,1:0|0:1,0:0:0:0:
392,32,8610,2,0,P|348:56|312:64,1,81.25,0|0,0:0|0:0,0:0:0:0:
248,28,8985,2,0,L|200:20,1,40.625,2|0,0:1|0:0,0:0:0:0:
152,76,9235,2,0,L|140:160,1,81.25,4|0,1:3|0:0,0:0:0:0:
304,232,9735,2,0,L|296:144,1,81.25,4|2,0:0|0:0,0:0:0:0:
482,307,10235,6,0,P|447:329|400:336,1,81.25,4|2,1:0|0:1,0:0:0:0:
336,306,10610,2,0,P|305:292|259:291,1,81.25,0|0,0:0|0:0,0:0:0:0:
194,338,10985,2,0,L|184:386,1,40.625,2|0,0:1|0:0,0:0:0:0:
150,271,11235,2,0,L|141:183,1,81.25,2|0,1:2|0:0,0:0:0:0:
139,161,11610,1,0,0:0:0:0:
135,132,11735,1,4,0:0:0:0:
199,49,11985,1,2,0:0:0:0:
288,107,12235,6,0,P|346:97|385:38,2,121.875,4|2|2,1:3|0:1|0:0,0:0:0:0:
200,167,13235,2,0,L|188:257,1,81.25,4|2,1:3|0:0,0:0:0:0:
185,275,13610,1,0,0:0:0:0:
181,303,13735,2,0,P|147:320|104:323,1,81.25,4|2,0:2|0:1,0:0:0:0:
21,239,14235,6,0,P|55:208|58:125,1,121.875,2|2,1:0|0:1,0:0:0:0:
14,80,14735,2,0,P|68:101|103:98,1,81.25,4|2,1:0|0:0,0:0:0:0:
194,44,15235,2,0,P|229:29|277:30,1,81.25,2|2,1:2|1:0,0:0:0:0:
341,142,15735,1,0,1:0:0:0:
417,65,15985,1,2,0:0:0:0:
498,189,16235,6,0,P|489:259|434:305,1,121.875,4|0,1:0|0:0,0:0:0:0:
381,305,16735,2,0,L|336:298,1,40.625,8|0,0:1|0:0,0:0:0:0:
271,328,16985,1,2,0:1:0:0:
209,226,17235,1,4,1:3:0:0:
138,355,17485,2,0,L|92:363,1,40.625,0|0,0:0|0:0,0:0:0:0:
38,319,17735,2,0,P|36:283|11:241,1,81.25,4|0,0:0|0:0,0:0:0:0:
65,130,18235,6,0,L|149:114,1,81.25,4|2,1:0|0:1,0:0:0:0:
175,41,18610,2,0,L|73:30,1,81.25,0|0,0:0|0:0,0:0:0:0:
26,61,18985,1,2,0:1:0:0:
132,161,19235,1,2,1:2:0:0:
269,113,19485,1,0,0:0:0:0:
269,113,19610,1,0,0:0:0:0:
269,113,19735,2,0,P|289:148|291:192,1,81.25,4|2,0:0|0:0,0:0:0:0:
187,313,20235,6,0,P|154:293|99:288,1,81.25,4|0,1:3|0:0,0:0:0:0:
42,313,20610,2,0,P|87:269|92:203,1,121.875,2|2,0:1|0:0,0:0:0:0:
25,91,21235,2,0,L|109:108,1,81.25,4|2,1:3|0:0,0:0:0:0:
132,113,21610,1,0,0:0:0:0:
159,119,21735,1,4,0:2:0:0:
251,47,21985,1,2,0:1:0:0:
321,192,22235,5,2,1:0:0:0:
321,192,22360,2,0,P|356:212|413:215,1,81.25,0|2,0:0|0:1,0:0:0:0:
457,168,22735,2,0,L|445:86,1,81.25,4|2,1:0|0:0,0:0:0:0:
316,24,23235,2,0,L|302:113,1,81.25,2|2,1:2|1:0,0:0:0:0:
172,160,23735,1,0,1:0:0:0:
39,114,23985,1,2,0:0:0:0:
39,114,24110,1,0,0:0:0:0:
39,114,24235,6,0,P|82:186|66:242,1,126.749994197846,4|0,1:0|0:0,0:0:0:0:
20,281,24735,2,0,L|28:328,1,42.2499980659486,2|0,0:1|0:0,0:0:0:0:
123,294,24985,2,0,L|131:341,1,42.2499980659486,2|0,0:1|0:0,0:0:0:0:
226,307,25235,2,0,L|234:354,1,42.2499980659486,2|0,0:1|0:0,0:0:0:0:
282,249,25485,2,0,L|297:147,2,84.4999961318971,4|4|2,0:3|0:1|0:0,0:0:0:0:
398,318,26235,5,4,1:3:0:0:
398,318,26360,1,2,0:0:0:0:
398,318,26485,2,0,P|442:306|476:279,1,84.4999961318971,2|2,0:0|0:0,0:0:0:0:
491,259,26860,1,2,0:0:0:0:
502,231,26985,1,2,0:1:0:0:
386,197,27235,2,0,P|353:167|346:78,1,126.749994197846,4|0,0:3|0:0,0:0:0:0:
396,33,27735,2,0,L|310:49,1,84.4999961318971,8|0,0:1|0:0,0:0:0:0:
185,153,28235,6,0,P|144:123|40:118,1,126.749994197846,4|0,1:0|0:0,0:0:0:0:
16,169,28735,2,0,L|23:213,1,42.2499980659486,2|0,0:1|0:0,0:0:0:0:
108,228,28985,2,0,L|117:277,1,42.2499980659486,2|0,0:1|0:0,0:0:0:0:
200,287,29235,2,0,L|207:331,1,42.2499980659486,2|0,0:1|0:0,0:0:0:0:
268,245,29485,2,0,L|281:155,1,84.4999961318971,4|4,0:3|0:1,0:0:0:0:
408,138,29985,1,0,0:0:0:0:
467,252,30235,6,0,L|515:264,1,42.2499980659486,4|2,1:3|0:0,0:0:0:0:
402,305,30485,2,0,L|350:319,1,42.2499980659486,2|2,0:0|0:0,0:0:0:0:
288,273,30735,1,2,0:0:0:0:
258,269,30860,1,2,0:0:0:0:
228,264,30985,2,0,P|205:233|198:188,1,84.4999961318971,2|4,0:1|0:3,0:0:0:0:
96,96,31485,2,0,P|90:137|65:171,1,84.4999961318971,2|8,0:0|0:1,0:0:0:0:
6,279,31985,1,0,0:0:0:0:
146,358,32235,6,0,P|214:351|270:300,1,126.749994197846,4|0,1:0|0:0,0:0:0:0:
270,240,32735,2,0,L|254:152,1,84.4999961318971,2|2,0:1|0:1,0:0:0:0:
398,99,33235,2,0,L|382:182,1,84.4999961318971,2|4,0:1|0:3,0:0:0:0:
393,209,33610,1,4,0:3:0:0:
403,236,33735,2,0,P|442:256|472:292,1,84.4999961318971,4|2,0:1|0:0,0:0:0:0:
367,350,34235,6,0,L|317:359,3,42.2499980659486,4|2|2|2,1:3|0:0|0:0|0:0,0:0:0:0:
243,306,34735,2,0,L|201:298,3,42.2499980659486,2|2|2|0,0:0|0:0|0:1|0:0,0:0:0:0:
125,358,35235,2,0,P|79:357|13:295,1,126.749994197846,4|0,0:3|0:0,0:0:0:0:
46,237,35735,2,0,L|131:227,1,84.4999961318971,8|0,0:1|0:0,0:0:0:0:
238,119,36235,6,0,P|198:84|115:80,1,126.749994197846,4|0,1:0|0:0,0:0:0:0:
59,111,36735,2,0,P|35:146|29:188,1,84.4999961318971,2|2,0:1|0:1,0:0:0:0:
204,278,37235,2,0,P|197:236|174:201,1,84.4999961318971,2|4,0:1|0:3,0:0:0:0:
148,187,37610,1,4,0:3:0:0:
119,178,37735,1,4,0:1:0:0:
60,312,37985,1,2,0:0:0:0:
203,360,38235,6,0,L|245:354,3,42.2499980659486,4|2|2|2,1:3|0:0|0:0|0:0,0:0:0:0:
299,306,38735,1,4,0:3:0:0:
328,301,38860,1,4,0:3:0:0:
357,296,38985,1,4,0:3:0:0:
386,291,39110,1,4,0:3:0:0:
415,285,39235,2,0,P|437:246|440:200,1,84.4999961318971,4|2,0:3|0:0,0:0:0:0:
372,103,39735,1,8,0:1:0:0:
497,43,39985,1,0,0:0:0:0:
372,103,40235,6,0,L|216:87,1,130,4|4,1:3|0:3,0:0:0:0:
184,142,40985,1,2,0:0:0:0:
243,192,41235,2,0,P|254:250|186:306,1,130,2|8,0:1|0:3,0:0:0:0:
132,310,41985,1,2,0:0:0:0:
70,262,42235,6,0,L|80:193,2,65,4|2|2,0:3|0:0|0:1,0:0:0:0:
57,339,42985,1,4,0:3:0:0:
132,310,43235,2,0,P|195:257|259:252,1,130,8|4,0:3|0:3,0:0:0:0:
312,283,43985,1,2,0:0:0:0:
366,226,44235,6,0,L|505:204,1,126.749994197846,4|2,1:3|0:0,0:0:0:0:
493,130,44735,2,0,L|447:120,1,42.2499980659486,10|0,0:2|0:0,0:0:0:0:
398,64,44985,2,0,L|352:70,1,42.2499980659486,2|0,0:0|0:0,0:0:0:0:
313,134,45235,2,0,P|249:141|202:81,1,126.749994197846,4|2,1:3|0:0,0:0:0:0:
144,145,45735,2,0,L|153:194,1,42.2499980659486,10|0,0:2|0:0,0:0:0:0:
104,291,45985,2,0,L|111:249,1,42.2499980659486,2|0,0:0|0:0,0:0:0:0:
52,203,46235,5,4,1:3:0:0:
168,343,46485,1,0,0:0:0:0:
168,343,46610,2,0,P|212:321|266:323,1,84.4999961318971,2|0,0:0|0:0,0:0:0:0:
313,351,46985,1,0,0:0:0:0:
428,244,47235,2,0,L|421:202,1,42.2499980659486,4|2,1:3|0:1,0:0:0:0:
508,136,47485,2,0,L|500:177,1,42.2499980659486,2|2,0:1|0:1,0:0:0:0:
426,119,47735,2,0,P|365:121|305:66,1,126.749994197846,4|0,0:0|0:0,0:0:0:0:
277,19,48235,6,0,L|209:27,1,65,4|2,1:3|0:0,0:0:0:0:
179,98,48735,1,4,0:3:0:0:
216,167,48985,1,2,0:0:0:0:
162,223,49235,2,0,P|104:220|46:261,1,130,2|8,0:1|0:3,0:0:0:0:
49,337,49985,1,2,0:0:0:0:
122,363,50235,6,0,B|187:350|187:350|252:375,1,130,4|2,0:3|0:1,0:0:0:0:
319,343,50985,1,4,0:3:0:0:
358,275,51235,2,0,L|425:256,2,65,8|2|4,0:3|0:0|0:3,0:0:0:0:
294,231,51985,1,2,0:0:0:0:
219,242,52235,5,4,1:3:0:0:
190,234,52360,2,0,P|161:196|153:154,1,84.4999961318971,2|2,0:0|0:0,0:0:0:0:
199,96,52735,2,0,L|208:50,2,42.2499980659486,10|0|2,0:2|0:0|0:0,0:0:0:0:
355,139,53235,1,4,1:3:0:0:
355,139,53360,2,0,L|457:123,1,84.4999961318971,2|2,0:0|0:0,0:0:0:0:
500,174,53735,2,0,P|492:196|491:220,1,42.2499980659486,10|0,0:2|0:0,0:0:0:0:
426,258,53985,2,0,P|430:282|442:306,1,42.2499980659486,2|0,0:0|0:0,0:0:0:0:
395,363,54235,6,0,P|336:359|293:329,1,84.4999961318971,4|0,1:3|0:0,0:0:0:0:
256,298,54610,2,0,P|214:307|177:338,1,84.4999961318971,2|0,0:0|0:0,0:0:0:0:
107,354,54985,2,0,L|59:344,1,42.2499980659486,2|0,0:0|0:0,0:0:0:0:
26,263,55235,2,0,L|71:254,1,42.2499980659486,4|0,1:3|0:0,0:0:0:0:
123,199,55485,2,0,P|126:158|107:114,1,84.4999961318971,4|4,0:3|1:1,0:0:0:0:
251,37,55985,1,2,0:0:0:0:
273,57,56110,1,0,0:0:0:0:
299,74,56235,6,0,P|341:88|392:82,1,90.9999972229005,4|0,1:1|0:0,0:0:0:0:
489,209,56735,2,0,P|486:232|478:253,1,45.4999986114502,8|2,0:1|0:0,0:0:0:0:
382,254,56985,2,0,P|389:278|390:302,1,45.4999986114502,2|0,0:1|0:0,0:0:0:0:
302,204,57235,1,4,0:3:0:0:
270,199,57360,1,2,0:1:0:0:
238,194,57485,2,0,P|192:218|134:212,1,90.9999972229005,2|4,0:1|0:1,0:0:0:0:
52,160,57985,1,2,0:1:0:0:
7,341,58235,6,0,P|57:301|153:310,1,136.499995834351,4|2,1:1|0:1,0:0:0:0:
181,352,58735,2,0,P|230:346|270:316,1,90.9999972229005,8|2,0:1|0:2,0:0:0:0:
319,159,59235,1,4,1:3:0:0:
464,211,59485,2,0,L|520:202,1,45.4999986114502,2|2,0:1|0:1,0:0:0:0:
408,270,59735,2,0,P|364:241|255:266,1,136.499995834351,6|0,0:1|0:0,0:0:0:0:
221,295,60235,6,0,L|164:288,1,45.4999986114502,6|2,1:3|0:0,0:0:0:0:
63,221,60485,2,0,L|120:228,1,45.4999986114502,0|2,0:0|0:1,0:0:0:0:
185,184,60735,1,8,0:1:0:0:
200,156,60860,1,0,0:0:0:0:
204,124,60985,2,0,P|198:80|164:39,1,90.9999972229005,2|4,0:1|0:3,0:0:0:0:
22,113,61485,2,0,L|9:169,1,45.4999986114502,2|4,0:1|0:3,0:0:0:0:
63,221,61735,2,0,L|78:316,1,90.9999972229005,4|2,0:1|0:1,0:0:0:0:
269,247,62235,6,0,P|319:244|358:266,1,90.9999972229005,4|4,0:3|0:3,0:0:0:0:
375,286,62610,1,2,0:0:0:0:
389,314,62735,1,8,0:1:0:0:
489,196,62985,1,0,0:0:0:0:
495,164,63110,1,2,0:0:0:0:
502,133,63235,2,0,L|490:78,1,45.4999986114502,4|2,1:3|0:0,0:0:0:0:
384,40,63485,2,0,L|396:95,1,45.4999986114502,2|0,0:1|0:0,0:0:0:0:
289,99,63735,2,0,L|301:154,1,45.4999986114502,2|0,0:1|0:0,0:0:0:0:
245,224,63985,1,0,0:0:0:0:
214,234,64110,1,0,0:0:0:0:
182,237,64235,6,0,P|137:228|96:192,1,90.9999972229005,4|0,1:1|0:0,0:0:0:0:
74,66,64735,1,8,0:1:0:0:
217,46,64985,2,0,L|308:60,1,90.9999972229005,2|4,0:1|0:3,0:0:0:0:
429,146,65485,2,0,L|476:138,1,45.4999986114502,2|0,0:1|0:0,0:0:0:0:
383,209,65735,2,0,P|335:206|269:265,1,136.499995834351,4|2,0:1|0:1,0:0:0:0:
257,337,66235,6,0,L|242:238,1,90.9999972229005,4|0,1:1|0:0,0:0:0:0:
88,176,66735,1,8,0:1:0:0:
88,176,66860,1,0,0:0:0:0:
88,176,66985,1,2,0:2:0:0:
208,72,67235,2,0,L|258:68,1,45.4999986114502,4|2,1:3|0:1,0:0:0:0:
288,148,67485,2,0,L|338:144,1,45.4999986114502,2|2,0:1|0:1,0:0:0:0:
393,81,67735,2,0,L|368:232,1,136.499995834351,6|0,0:1|0:0,0:0:0:0:
420,274,68235,6,0,P|426:297|429:321,1,45.4999986114502,6|2,1:3|0:0,0:0:0:0:
366,363,68485,1,0,0:0:0:0:
253,250,68735,2,0,P|211:248|166:226,1,90.9999972229005,8|2,0:1|0:1,0:0:0:0:
133,80,69235,1,4,0:3:0:0:
22,203,69485,2,0,L|30:253,1,45.4999986114502,2|4,0:1|0:3,0:0:0:0:
80,150,69735,2,0,L|97:57,1,90.9999972229005,4|2,0:1|0:1,0:0:0:0:
281,124,70235,6,0,P|327:121|371:98,1,90.9999972229005,4|4,0:3|0:3,0:0:0:0:
494,262,70735,2,0,P|454:241|408:241,1,90.9999972229005,8|4,0:1|0:3,0:0:0:0:
381,254,71110,1,4,0:3:0:0:
356,272,71235,2,0,P|274:295|220:228,1,181.999994445801,4|8,0:3|0:1,0:0:0:0:
