osu file format v5

[General]
AudioFilename: taiyouga moeteiru.mp3
AudioLeadIn: 0
PreviewTime: -1
Countdown: 1
SampleSet: Normal
StackLeniency: 0.7
Mode: 0
EditorBookmarks: 25385

[Metadata]
Title:Taiyou ga Moeteiru
Artist:The yellow monkeys
Creator:eirrol
Version:Normal
Source:
Tags:

[Difficulty]
HPDrainRate:4
CircleSize:5
OverallDifficulty:4
SliderMultiplier:1.9
SliderTickRate:2

[Events]
//Background and Video events
0,0,"bg.png"
//Break Periods
2,56561,70895
2,95098,109919
2,141683,148699
//Storyboard Layer 0 (Background)
//Storyboard Layer 1 (Failing)
//Storyboard Layer 2 (Passing)
//Storyboard Layer 3 (Foreground)
//Storyboard Sound Samples
//Background Colour Transformations
3,100,163,162,255

[TimingPoints]
20,487.80487804878,4,1,0,100

[HitObjects]
56,200,25385,1,2
56,64,25873,1,2
160,184,26361,1,2
256,264,26849,1,0
256,176,27093,1,0
256,88,27337,2,2,B|332:105|338:176|328:240|337:297|448:336,1,332.5
480,288,28556,5,4
408,192,29044,1,0
464,160,29288,5,2
464,56,29776,1,2
352,168,30264,1,2
256,264,30752,1,0
256,176,30996,1,0
256,88,31240,2,2,B|192:104|164:145|184:240|176:320|48:336,1,332.5
32,272,32459,5,4
128,168,32946,1,0
56,136,33190,6,2,B|64:49|132:24|224:24,3,190
256,24,34898,1,0
336,32,35141,2,2,B|428:28|466:72|496:152,2,190
256,96,36361,5,4
256,216,36849,1,0
344,280,37093,6,2,B|251:319|120:264,3,190
104,200,38800,1,0
80,104,39044,2,2,B|181:67|280:66|382:73|488:120,1,380
456,184,40263,5,4
456,312,40751,1,0
152,328,40995,6,2,B|44:291|40:160,2,190
224,224,42459,1,2
224,144,42702,1,2
224,64,42946,2,2,B|311:74|291:202|298:325|440:328,1,332.5
456,264,44166,5,4
392,144,44654,1,0
488,168,44898,6,0,B|456:72|352:32,3,190
328,120,46605,1,2
304,48,46849,2,2,B|217:58|237:186|230:309|88:312,1,332.5
32,272,48068,5,4
128,168,48555,1,0
56,136,48799,6,2,B|64:49|132:24|224:24,3,190
256,24,50507,1,0
336,32,50750,2,2,B|428:28|466:72|496:152,2,190
256,96,51970,5,4
256,216,52458,1,0
344,280,52702,6,2,B|251:319|120:264,3,190
104,200,54409,1,0
80,104,54653,2,2,B|181:67|280:66|382:73|488:120,1,380
456,200,55873,5,4
456,320,56361,1,0
160,72,72215,6,2,B|368:72,2,190
264,152,73434,1,2
232,216,73678,1,2
304,216,73922,1,2
360,296,74166,2,2,B|136:296,2,190
264,216,75385,1,2
232,160,75629,1,2
296,160,75873,1,2
440,224,76117,5,2
440,72,76605,1,2
120,56,77093,2,2,B|50:76|44:183|136:192,1,190
216,200,77824,1,2
296,200,78068,1,2
256,56,78556,1,2
416,56,79044,2,2,B|496:85|504:164|400:216,1,190
256,312,80019,5,0
336,208,80507,1,2
176,208,80995,1,0
216,128,81483,1,0
288,128,81727,1,0
336,72,81971,1,0
472,80,82459,1,0
472,184,82946,1,0
472,264,83190,5,4
344,336,83678,1,0
256,312,83922,5,0
176,208,84410,1,2
336,208,84898,1,0
296,128,85386,1,0
224,128,85630,1,0
176,72,85874,1,0
40,80,86362,1,0
40,192,86849,1,0
40,264,87093,5,4
184,328,87580,1,0
256,304,87824,6,2,B|256:80,3,190
208,56,89532,1,0
296,56,89776,1,0
480,64,90263,1,0
480,168,90751,1,0
480,248,90995,5,4
344,328,91483,1,0
256,304,91727,6,2,B|256:80,3,190
304,56,93435,1,0
216,56,93679,1,0
48,104,94166,1,2
48,264,94654,5,2
176,328,94898,1,4
216,56,111239,5,2
304,56,111483,1,2
312,248,112215,1,2
216,248,112459,1,2
312,160,113190,1,2
216,160,113434,1,2
344,304,114288,1,2
184,304,114654,1,0
128,144,115141,5,2
128,224,115385,1,2
392,232,116117,1,2
392,160,116361,1,2
256,160,117093,1,2
256,224,117337,1,2
168,320,118190,1,2
352,320,118556,1,0
48,176,119044,6,2,B|96:80|232:40,1,190
256,48,119776,1,0
328,56,120019,2,2,B|448:88|480:216,1,190
344,280,120995,6,2,B|247:325|136:272,2,190
296,216,122215,1,0
216,216,122459,1,0
184,64,123434,5,0
256,64,123678,1,0
328,64,123922,1,0
336,208,124410,5,0
336,288,124654,1,0
256,288,124898,5,2
184,304,125141,1,2
120,272,125385,1,2
80,208,125629,1,2
56,136,125873,2,2,B|99:42|248:32,1,190
272,40,126605,5,0
344,40,126849,1,0
376,152,127337,1,0
456,64,127702,2,2,B|456:336,1,237.5
384,328,128556,1,0
312,328,128800,1,0
176,320,129288,1,0
224,216,129654,1,4
240,40,130507,5,0
168,40,130751,1,0
136,152,131239,1,0
56,64,131604,2,2,B|56:336,1,237.5
128,328,132458,1,0
200,328,132702,1,0
336,320,133190,1,0
288,216,133556,1,4
72,304,134410,5,0
72,232,134654,1,0
104,112,135142,1,0
152,64,135385,2,0,B|256:24|354:30|472:72,1,285
432,136,136361,1,0
360,136,136605,1,0
176,128,137093,1,0
232,240,137580,1,4
96,272,138312,5,0
136,328,138556,1,2
56,328,138800,1,2
424,272,139288,5,0
392,336,139532,1,2
464,336,139776,1,2
296,136,140263,5,0
296,64,140507,1,0
216,64,140751,1,0
216,136,140995,1,0
256,288,141483,1,4
56,328,150019,5,2
56,240,150263,1,2
104,136,150751,1,2
144,80,150995,2,2,B|295:21|432:104,1,285
416,160,151971,1,0
344,160,152215,1,0
184,160,152702,1,0
240,248,153068,1,4
120,336,153922,5,0
80,272,154166,1,2
48,336,154410,1,2
416,272,154898,5,0
384,328,155142,1,2
448,328,155386,1,2
216,72,155873,5,2
296,72,156117,1,2
256,200,156605,1,0
256,304,156971,1,4
256,128,157824,5,0
336,128,158068,2,6,B|376:200|336:336,3,190
256,312,159776,1,0
184,312,160019,2,6,B|136:216|184:112,3,190
256,128,161727,1,0
344,80,161971,6,6,B|252:32|128:88,6,190
216,136,165141,1,0
296,136,165385,1,0
336,328,165873,5,0
184,328,166361,1,2
232,256,166727,1,0
296,176,167337,1,0
216,176,167580,1,0
256,112,167824,1,0
192,24,168312,1,2
312,24,168678,1,4
256,192,169532,12,4,175629
