osu file format v5

[General]
AudioFilename: taiyouga moeteiru.mp3
AudioLeadIn: 0
PreviewTime: -1
Countdown: 1
SampleSet: Normal
StackLeniency: 0.7
Mode: 0
EditorBookmarks: 25385

[Metadata]
Title:Taiyou ga Moeteiru
Artist:The yellow monkeys
Creator:eirrol
Version:Easy
Source:
Tags:

[Difficulty]
HPDrainRate:2
CircleSize:5
OverallDifficulty:1
SliderMultiplier:1.9
SliderTickRate:2

[Events]
//Background and Video events
0,0,"bg.png"
//Break Periods
2,55585,70535
2,94731,109559
2,141560,148339
//Storyboard Layer 0 (Background)
//Storyboard Layer 1 (Failing)
//Storyboard Layer 2 (Passing)
//Storyboard Layer 3 (Foreground)
//Storyboard Sound Samples
//Background Colour Transformations
3,100,163,162,255

[TimingPoints]
20,487.80487804878,4,1,0,100

[HitObjects]
184,40,25385,5,0
328,40,25873,1,2
336,192,26361,1,0
184,192,26849,1,4
184,344,27337,1,0
336,344,27824,1,0
416,280,28190,2,2,B|472:200|480:40,1,237.5
328,40,29288,5,0
184,40,29776,1,2
176,192,30264,1,0
328,192,30752,1,4
328,344,31240,1,0
176,344,31727,1,0
96,280,32093,2,2,B|40:200|32:40,1,237.5
184,40,33190,5,0
328,40,33678,1,2
336,192,34166,1,0
184,192,34654,1,4
184,344,35142,1,0
336,344,35629,1,0
416,280,35995,2,2,B|472:200|480:40,1,237.5
328,40,37093,5,0
184,40,37581,1,2
176,192,38069,1,0
328,192,38557,1,0
416,312,39044,2,2,B|56:312,1,332.5
56,192,40995,6,2,B|67:61|133:36|191:16|261:16|356:24|452:63|440:216,1,570
256,128,42946,1,0
256,256,43434,1,0
192,320,43800,2,2,B|281:368|356:315|416:232,1,237.5
472,192,44898,6,2,B|445:61|379:36|321:16|251:16|156:24|60:63|40:216,1,570
256,128,46849,1,0
256,256,47337,1,0
320,320,47703,2,2,B|231:368|156:315|96:232,1,237.5
56,192,48800,6,2,B|67:61|133:36|191:16|261:16|356:24|452:63|440:216,1,570
256,128,50751,1,0
256,256,51239,1,0
192,320,51605,2,2,B|281:368|356:315|416:232,1,237.5
456,192,52702,6,2,B|445:61|379:36|321:16|251:16|156:24|60:63|72:216,1,570
96,304,54532,2,2,B|448:304,1,332.5
96,64,72215,5,2
96,192,72702,1,2
96,328,73190,2,2,B|392:328,1,285
456,328,74166,1,2
456,192,74654,1,2
456,48,75141,2,2,B|168:48,1,285
256,152,76117,5,2
160,256,76605,1,2
56,344,77093,2,2,B|40:248|41:191|83:141|224:152,1,285
256,152,78068,5,2
352,256,78556,1,2
456,344,79044,2,2,B|472:248|471:191|429:141|288:152,1,285
328,40,80019,5,0
184,40,80507,1,2
176,192,80995,1,0
328,192,81483,1,4
328,344,81971,1,0
176,344,82458,1,0
96,280,82824,2,2,B|40:200|32:40,1,237.5
184,40,83922,5,0
328,40,84410,1,2
336,192,84898,1,0
184,192,85386,1,4
184,344,85874,1,0
336,344,86361,1,0
416,280,86727,2,2,B|472:200|480:40,1,237.5
328,40,87824,5,0
184,40,88312,1,2
176,192,88800,1,0
328,192,89288,1,4
328,344,89776,1,0
176,344,90263,1,0
96,280,90629,2,2,B|40:200|32:40,1,237.5
184,40,91727,5,0
328,40,92215,1,2
336,192,92703,1,0
184,192,93191,1,0
96,312,93678,2,2,B|456:312,1,332.5
456,192,111239,6,2,B|445:61|379:36|321:16|251:16|156:24|60:63|72:216,1,570
256,128,113190,1,0
256,256,113678,1,0
320,320,114044,2,2,B|231:368|156:315|96:232,1,237.5
56,192,115141,6,2,B|67:61|133:36|191:16|261:16|356:24|452:63|440:216,1,570
256,128,117092,1,0
256,256,117580,1,0
192,320,117946,2,2,B|281:368|356:315|416:232,1,237.5
40,248,119044,6,6,B|35:141|37:64|98:53|184:40,1,285
232,48,120019,1,2
232,104,120263,1,2
232,160,120507,1,2
472,248,120995,6,6,B|477:141|475:64|414:53|328:40,1,285
280,48,121970,1,2
280,104,122214,1,2
280,160,122458,1,2
184,264,123434,5,0
256,264,123678,1,0
328,264,123922,1,0
296,344,124410,5,0
216,344,124654,1,0
136,344,124898,2,2,B|56:288|56:224|48:144|72:88|144:40,1,332.5
384,32,126605,5,0
456,32,126849,2,2,B|456:368,1,332.5
304,312,128556,1,0
216,312,128800,1,0
256,160,129288,1,2
256,64,129654,1,4
128,32,130507,5,0
56,32,130751,2,2,B|56:368,1,332.5
208,312,132458,1,0
296,312,132702,1,0
256,160,133190,1,2
256,64,133556,1,4
0,232,134410,5,0
16,176,134654,2,2,B|48:75|82:28|195:4|352:8|449:32|492:87|520:216,1,665
496,272,136605,1,0
304,272,137093,1,2
216,272,137458,1,0
96,192,138312,5,0
96,256,138556,1,2
96,320,138800,1,2
416,192,139288,5,0
416,256,139532,1,2
416,320,139776,1,2
320,24,140263,5,0
256,24,140507,2,6,B|256:360,1,332.5
512,232,150019,5,0
496,176,150263,2,2,B|464:75|430:28|317:4|160:8|63:32|20:87|-8:216,1,665
16,272,152214,1,0
208,272,152702,1,2
296,272,153067,1,0
416,192,153921,5,0
416,256,154165,1,2
416,320,154409,1,2
96,192,154897,5,0
96,256,155141,1,2
96,320,155385,1,2
192,24,155872,5,0
256,24,156116,2,6,B|256:360,1,332.5
352,32,157824,5,0
416,32,158068,2,6,B|484:75|508:128|515:232|485:323|416:360,3,380
160,32,161727,5,0
96,32,161971,2,6,B|28:75|4:128|-3:232|27:323|96:360,3,380
256,272,165629,5,0
192,280,165873,2,2,B|134:230|67:131|141:55|216:37|316:31|393:79|371:219|304:304,1,570
256,320,167824,1,0
384,336,168312,1,0
472,336,168678,1,0
256,192,169776,12,4,175629
