osu file format v13

[General]
AudioFilename: Twister.mp3
AudioLeadIn: 0
PreviewTime: 2366
Countdown: 0
SampleSet: None
StackLeniency: 0.7
Mode: 0
LetterboxInBreaks: 0
WidescreenStoryboard: 1

[Editor]
DistanceSpacing: 1
BeatDivisor: 2
GridSize: 4
TimelineZoom: 1

[Metadata]
Title:Twister
TitleUnicode:Twister
Artist:The world end with you
ArtistUnicode:The world end with you
Creator:gtxyjxw
Version:Normal
Source:the world end with you
Tags:Anime NDS games
BeatmapID:599173
BeatmapSetID:262567

[Difficulty]
HPDrainRate:6
CircleSize:4
OverallDifficulty:2
ApproachRate:7
SliderMultiplier:1.4
SliderTickRate:1

[Events]
//Background and Video events
Video,0,"op.flv"
0,0,"suba_wp_03_1280x1024.jpg",0,0
//Break Periods
//Storyboard Layer 0 (Background)
//Storyboard Layer 1 (Fail)
//Storyboard Layer 2 (Pass)
//Storyboard Layer 3 (Foreground)
//Storyboard Sound Samples

[TimingPoints]
2366,499.991666805553,4,1,1,100,1,0

[Colours]
Combo1 : 192,192,192
Combo2 : 255,128,64
Combo3 : 152,49,255
Combo4 : 64,128,128

[HitObjects]
60,152,2366,6,0,P|180:80|184:76,1,140
272,44,3115,1,0,0:0:0:0:
396,116,3615,1,0,0:0:0:0:
448,168,3865,1,0,0:0:0:0:
356,268,4365,6,0,L|304:324,1,70
184,296,4865,2,0,L|248:232,1,70
144,216,5365,2,0,P|62:224|0:200,1,140
76,64,6365,6,0,L|76:140,1,70
196,132,6865,2,0,L|196:56|196:60,1,70
316,64,7365,2,0,L|316:148,1,70
428,132,7865,2,0,L|428:56,1,70
340,100,8365,2,0,B|200:52|200:52|248:192|248:192|172:168|172:168|208:312|208:312,1,490
180,80,10365,6,0,L|112:132,1,70
192,200,10865,2,0,L|264:144,1,70
352,124,11365,1,0,0:0:0:0:
432,208,11615,2,0,L|364:264,1,70
320,300,12115,1,0,0:0:0:0:
244,328,12365,6,2,L|152:276,2,70,0|0|0,0:0|0:0|0:0,0:0:0:0:
124,268,13115,1,0,0:0:0:0:
128,164,13365,2,0,L|208:124,2,70,0|0|0,0:0|0:0|0:0,0:0:0:0:
120,48,14365,6,0,L|216:48,1,70
368,48,14865,2,0,L|292:48,1,70
244,204,15365,1,0,0:0:0:0:
336,188,15615,6,0,L|420:248|420:248,2,70,0|0|0,0:0|0:0|0:0,0:0:0:0:
192,52,16365,1,4,0:0:0:0:
184,356,16865,1,4,0:0:0:0:
496,248,17365,2,0,P|517:150|476:105,1,140
84,120,18365,5,0,0:0:0:0:
152,56,18615,1,0,0:0:0:0:
232,44,18865,2,0,B|308:40|380:56|436:96|464:172|452:248,1,350
380,292,20365,2,0,P|332:344|328:344,1,70
256,288,20865,2,0,P|323:247|330:253,1,70
120,300,22365,5,0,0:0:0:0:
64,240,22615,1,0,0:0:0:0:
88,152,22865,2,0,B|124:85|176:32|240:6|319:23|377:73,1,350
448,112,24365,2,0,P|450:182|447:185,1,70
416,224,24865,2,0,P|435:146|444:146,1,70
124,276,25365,5,8,0:0:0:0:
44,176,25865,1,8,0:0:0:0:
20,48,26365,5,0,0:0:0:0:
124,48,26615,1,0,0:0:0:0:
248,60,26865,6,0,L|308:108,1,70
452,92,27365,2,0,L|388:44,1,70
456,208,27865,2,0,L|512:256,1,70
352,244,28365,2,0,L|296:196,1,70,0|8,0:0|0:0,0:0:0:0:
148,184,28865,2,0,L|216:256,1,70
236,348,29365,1,0,0:0:0:0:
8,232,29865,1,0,0:0:0:0:
8,32,30365,6,0,B|44:168|44:168|168:76|168:76|192:228|192:228|324:128|324:128|416:340|416:340,1,840
508,196,33865,1,0,0:0:0:0:
236,68,34365,5,4,0:0:0:0:
68,136,34865,1,4,0:0:0:0:
216,220,35365,2,0,B|292:272|284:268|396:156,1,210
112,104,38365,5,8,0:0:0:0:
192,100,38615,1,8,0:0:0:0:
232,32,38865,1,8,0:0:0:0:
360,64,39365,2,0,B|428:124|452:180|452:180|452:180|456:200,1,140
344,308,40365,2,0,B|272:332|272:328|272:332|288:252|288:252|208:272|208:272|228:196|228:196|148:212|148:212|168:140|168:140|104:156|104:156,1,490
64,88,42365,6,4,L|124:24,1,70
104,184,43115,2,0,L|160:136,3,70,0|0|0|0,0:0|0:0|0:0|0:0,0:0:0:0:
232,84,44365,6,0,L|288:20,1,70
356,104,44865,2,0,L|460:72,1,70
432,184,45365,2,0,L|520:212,1,70
428,288,45865,2,0,L|352:340,1,70
280,336,46365,6,0,B|184:312|104:280|20:240|-8:168|76:88|148:44,1,420
212,84,48115,1,4,0:0:0:0:
404,192,48615,1,4,0:0:0:0:
156,248,49365,2,0,L|228:320,2,70,0|0|0,0:0|0:0|0:0,0:0:0:0:
156,144,50365,6,0,B|216:84|280:56|364:60|424:80|448:168|384:248,1,420
88,176,52365,5,4,0:0:0:0:
252,176,52865,1,4,0:0:0:0:
420,176,53365,1,4,0:0:0:0:
0,40,54365,6,8,L|56:132|56:132,1,70
160,128,54865,1,8,0:0:0:0:
28,304,55365,2,0,L|184:304,1,140
256,256,56365,6,0,L|188:192,1,70
168,56,56865,2,0,L|236:116,1,70
384,60,57365,2,0,L|440:112,1,70
432,248,57865,2,0,L|352:176,1,70
256,192,58365,5,4,0:0:0:0:
256,192,58615,1,4,0:0:0:0:
220,316,59115,2,0,L|124:316,3,70,0|0|0|0,0:0|0:0|0:0|0:0,0:0:0:0:
68,188,60365,6,0,L|124:128,1,70
200,64,60865,2,0,P|292:52|356:100,1,140
432,48,61615,1,0,0:0:0:0:
436,136,61865,1,0,0:0:0:0:
512,160,62115,1,0,0:0:0:0:
496,248,62365,6,0,B|448:312|448:312|392:244|392:244|312:324|312:324|264:240|264:240|200:224|200:224|208:232,1,420
88,184,64114,5,4,0:0:0:0:
144,80,64614,1,4,0:0:0:0:
280,88,65364,2,0,P|376:115|378:165,1,140
492,200,66364,6,0,B|432:268|340:312|276:312|208:292|220:212,1,350
128,136,68364,5,4,0:0:0:0:
256,72,68864,1,4,0:0:0:0:
380,136,69364,1,4,0:0:0:0:
256,192,70364,12,4,73864,0:0:0:0:
