osu file format v13

[General]
AudioFilename: Twister.mp3
AudioLeadIn: 0
PreviewTime: 2366
Countdown: 0
SampleSet: None
StackLeniency: 0.7
Mode: 0
LetterboxInBreaks: 0
WidescreenStoryboard: 1

[Editor]
DistanceSpacing: 1
BeatDivisor: 16
GridSize: 4
TimelineZoom: 3.799999

[Metadata]
Title:Twister
TitleUnicode:Twister
Artist:The world end with you
ArtistUnicode:The world end with you
Creator:gtxyjxw
Version:J pop
Source:the world end with you
Tags:Anime NDS games
BeatmapID:599171
BeatmapSetID:262567

[Difficulty]
HPDrainRate:7
CircleSize:5
OverallDifficulty:7
ApproachRate:9
SliderMultiplier:1.4
SliderTickRate:1

[Events]
//Background and Video events
Video,0,"op.flv"
0,0,"suba_wp_03_1280x1024.jpg",0,0
//Break Periods
//Storyboard Layer 0 (Background)
//Storyboard Layer 1 (Fail)
//Storyboard Layer 2 (Pass)
//Storyboard Layer 3 (Foreground)
//Storyboard Sound Samples

[TimingPoints]
2366,499.991666805553,4,1,1,75,1,0
2865,-133.333333333333,4,1,1,75,0,0
3365,-100,4,1,1,75,0,0
5272,-58.8235294117647,4,1,1,75,0,0
6115,-100,4,1,1,75,0,0
9365,-66.6666666666667,4,1,1,75,0,0
10178,-100,4,1,1,75,0,0
15365,-133.333333333333,4,1,1,75,0,0
16209,-100,4,1,1,75,0,0
17865,-66.6666666666667,4,1,1,75,0,0
18115,-100,4,1,1,75,0,0
18365,-100,4,1,1,75,0,1
20865,-133.333333333333,4,1,1,75,0,1
21865,-100,4,1,1,75,0,1
25365,-66.6666666666667,4,1,1,75,0,1
26115,-100,4,1,1,75,0,1
31178,-166.666666666667,4,1,1,75,0,1
32271,-100,4,1,1,75,0,1
32490,-62.5,4,1,1,75,0,1
32802,-100,4,1,1,75,0,1
36365,-100,4,1,1,75,0,0
43115,-133.333333333333,4,1,1,75,0,0
43427,-100,4,1,1,75,0,0
45865,-66.6666666666667,4,1,1,75,0,0
46302,-100,4,1,1,75,0,0
47052,-133.333333333333,4,1,1,75,0,0
47802,-100,4,1,1,75,0,0
49365,-52.6315789473684,4,1,1,75,0,0
49865,-100,4,1,1,75,0,0
60865,-66.6666666666667,4,1,1,75,0,0
61365,-100,4,1,1,75,0,0
62802,-133.333333333333,4,1,1,75,0,0
63114,-100,4,1,1,75,0,0
63239,-66.6666666666667,4,1,1,75,0,0
63489,-100,4,1,1,75,0,0
65364,-66.6666666666667,4,1,1,75,0,0
65677,-100,4,1,1,75,0,0
67364,-50,4,1,1,75,0,0
67864,-100,4,1,1,75,0,0
68364,-100,4,1,1,75,0,1
73864,-100,4,1,1,75,0,0

[Colours]
Combo1 : 247,91,162
Combo2 : 238,180,36
Combo3 : 138,124,201
Combo4 : 103,124,145
Combo5 : 190,188,163

[HitObjects]
0,348,2366,5,0,0:0:0:0:
60,228,2615,1,0,0:0:0:0:
16,128,2865,1,0,0:0:0:0:
112,112,3147,1,0,0:0:0:0:
144,136,3240,1,0,0:0:0:0:
160,164,3334,1,0,0:0:0:0:
160,208,3428,1,0,0:0:0:0:
272,256,3615,1,0,0:0:0:0:
276,128,3865,1,0,0:0:0:0:
392,148,4115,1,0,0:0:0:0:
392,148,4240,1,0,0:0:0:0:
372,176,4365,6,0,B|340:212|376:236|416:264,1,105
464,332,4865,2,0,P|466:288|495:250,1,87.5
456,152,5303,1,0,0:0:0:0:
384,112,5397,1,0,0:0:0:0:
416,176,5490,1,0,0:0:0:0:
336,128,5584,1,0,0:0:0:0:
380,192,5678,1,0,0:0:0:0:
236,140,5865,1,0,0:0:0:0:
352,284,6053,1,0,0:0:0:0:
428,136,6365,5,4,0:0:0:0:
428,136,6615,1,0,0:0:0:0:
168,256,6865,1,4,0:0:0:0:
168,256,7115,1,0,0:0:0:0:
376,304,7365,1,4,0:0:0:0:
376,304,7615,1,0,0:0:0:0:
312,56,7865,1,4,0:0:0:0:
312,56,8115,1,0,0:0:0:0:
212,236,8365,6,0,L|216:288,3,35,0|0|0|0,0:0|0:0|0:0|0:0,0:0:0:0:
320,176,8865,2,0,L|320:132,3,35,0|0|0|0,0:0|0:0|0:0|0:0,0:0:0:0:
348,264,9365,1,0,0:0:0:0:
296,116,9490,1,0,0:0:0:0:
336,288,9615,1,0,0:0:0:0:
280,144,9740,1,0,0:0:0:0:
324,320,9865,1,0,0:0:0:0:
264,172,9990,1,0,0:0:0:0:
312,352,10115,1,4,0:0:0:0:
368,224,10365,6,0,L|368:127,1,87.5
208,108,10865,1,0,0:0:0:0:
208,260,11115,2,0,L|207:315,4,35,0|0|0|0|0,0:0|0:0|0:0|0:0|0:0,0:0:0:0:
68,348,11865,1,0,0:0:0:0:
0,216,12115,1,0,0:0:0:0:
64,64,12365,5,4,0:0:0:0:
64,64,12615,1,0,0:0:0:0:
344,96,12865,1,4,0:0:0:0:
344,96,13115,1,0,0:0:0:0:
36,264,13365,1,4,0:0:0:0:
36,264,13615,1,0,0:0:0:0:
292,288,13865,1,4,0:0:0:0:
292,288,14115,1,0,0:0:0:0:
0,356,14365,6,0,L|0:308,3,35,0|0|0|0,0:0|0:0|0:0|0:0,0:0:0:0:
132,160,14865,2,0,L|132:208,3,35,0|0|0|0,0:0|0:0|0:0|0:0,0:0:0:0:
212,224,15365,2,0,B|270:259|323:239|338:235|359:218|365:192,1,177.187506759167
220,64,16365,5,4,0:0:0:0:
176,168,16490,1,0,0:0:0:0:
124,288,16615,1,0,0:0:0:0:
60,120,16865,1,4,0:0:0:0:
176,168,16990,1,0,0:0:0:0:
304,216,17115,1,0,0:0:0:0:
312,348,17365,1,0,0:0:0:0:
400,296,17553,2,0,L|428:276,1,35
460,156,17834,2,0,B|420:204|420:204|396:196,1,78.7500030040742
440,56,18365,5,0,0:0:0:0:
440,56,18615,1,0,0:0:0:0:
256,128,18865,1,0,0:0:0:0:
184,76,19053,2,0,L|168:64,3,17.5,0|0|0|0,0:0|0:0|0:0|0:0,0:0:0:0:
256,128,19365,1,0,0:0:0:0:
328,76,19553,2,0,L|344:64,3,17.5,0|0|0|0,0:0|0:0|0:0|0:0,0:0:0:0:
256,128,19865,1,0,0:0:0:0:
184,76,20053,2,0,L|168:64,3,17.5,0|0|0|0,0:0|0:0|0:0|0:0,0:0:0:0:
256,128,20365,1,0,0:0:0:0:
184,176,20553,2,0,L|168:188,3,17.5,0|0|0|0,0:0|0:0|0:0|0:0,0:3:0:0:
88,200,20865,2,0,L|144:200,1,52.5000020027161
216,200,21240,1,0,0:0:0:0:
360,200,21490,1,0,0:0:0:0:
424,200,21615,1,0,0:0:0:0:
424,200,21865,1,0,0:0:0:0:
300,200,22115,1,0,0:0:0:0:
440,328,22365,5,0,0:0:0:0:
440,328,22615,1,0,0:0:0:0:
256,256,22865,1,0,0:0:0:0:
184,308,23053,2,0,L|168:320,3,17.5,0|0|0|0,0:0|0:0|0:0|0:0,0:0:0:0:
256,256,23365,1,0,0:0:0:0:
328,308,23553,2,0,L|344:320,3,17.5,0|0|0|0,0:0|0:0|0:0|0:0,0:0:0:0:
256,256,23865,1,0,0:0:0:0:
184,308,24053,2,0,L|168:320,3,17.5,0|0|0|0,0:0|0:0|0:0|0:0,0:0:0:0:
256,256,24365,1,0,0:0:0:0:
204,192,24553,2,0,L|189:178,3,17.5,0|0|0|0,0:0|0:0|0:0|0:0,0:0:0:0:
132,192,24865,2,0,L|180:192,4,35,0|0|0|0|0,0:0|0:0|0:0|0:0|0:0,0:0:0:0:
276,192,25490,1,0,0:0:0:0:
424,184,25615,1,0,0:0:0:0:
424,184,25865,1,0,0:0:0:0:
300,184,26115,1,0,0:0:0:0:
440,308,26365,6,0,B|408:332|408:332|360:272,1,105
292,248,26803,2,0,B|260:296|260:296|208:264,1,105
132,316,27303,2,0,B|76:336|76:336|44:284,1,105
120,220,27803,2,0,B|72:172|72:172|96:128,1,105
32,64,28303,2,0,B|72:12|72:12|116:12,1,105
164,124,28803,2,0,B|192:80|192:80|252:80|252:80,1,105
368,60,29303,2,0,B|384:96|384:96|420:84,1,70
512,216,29803,2,0,B|476:228|476:228|492:260,1,70
432,196,30365,5,4,0:0:0:0:
432,196,30490,1,4,0:0:0:0:
96,192,30865,1,4,0:0:0:0:
96,192,30990,1,4,0:0:0:0:
156,112,31178,2,0,B|176:108|176:112|196:100,1,41.9999987182618,0|0,0:0|0:0,0:0:0:0:
228,156,31553,2,0,L|212:168,5,20.9999993591309,0|0|0|0|0|0,0:0|0:0|0:0|0:0|0:0|0:0,0:0:0:0:
132,292,32365,5,4,0:0:0:0:
200,228,32490,2,0,P|227:196|324:200,1,140
348,208,32865,1,4,0:0:0:0:
436,300,33115,1,0,0:0:0:0:
400,264,33240,1,0,0:0:0:0:
412,204,33365,1,0,0:0:0:0:
432,156,33490,1,0,0:0:0:0:
472,132,33615,1,0,0:0:0:0:
384,104,33865,1,4,0:0:0:0:
384,104,33990,1,4,0:0:0:0:
64,64,34365,5,4,0:0:0:0:
272,136,34615,1,0,0:0:0:0:
196,16,34865,1,4,0:0:0:0:
104,212,35115,1,0,0:0:0:0:
276,320,35365,1,0,0:0:0:0:
276,320,35615,1,0,0:0:0:0:
404,248,35802,2,0,P|496:212|512:156,1,157.5
4,0,38365,5,8,0:0:0:0:
68,156,38615,1,8,0:0:0:0:
184,60,38865,2,0,L|224:76,2,35,0|0|0,0:0|0:0|0:0,0:0:0:0:
364,156,39365,1,8,0:0:0:0:
364,28,39615,1,8,0:0:0:0:
504,152,39865,1,0,0:0:0:0:
436,88,39990,1,0,0:0:0:0:
500,24,40115,1,0,0:0:0:0:
456,216,40365,5,4,0:0:0:0:
400,284,40552,1,0,0:0:0:0:
284,332,40865,5,4,0:0:0:0:
284,332,41115,1,0,0:0:0:0:
220,156,41365,1,4,0:0:0:0:
220,156,41615,1,0,0:0:0:0:
56,300,41865,1,4,0:0:0:0:
56,300,42115,1,0,0:0:0:0:
64,60,42365,5,4,0:0:0:0:
64,60,42615,1,4,0:0:0:0:
160,56,42865,1,8,0:0:0:0:
224,72,43115,2,0,B|250:100|260:139|259:121,1,65.6250025033952
256,180,43615,1,0,0:0:0:0:
256,180,43740,1,0,0:0:0:0:
264,136,43865,2,0,P|323:103|366:109,1,105
488,224,44365,5,0,0:0:0:0:
408,224,44490,1,0,0:0:0:0:
380,152,44615,1,0,0:0:0:0:
440,80,44865,2,0,P|416:56|380:52,1,70
240,56,45365,1,0,0:0:0:0:
108,72,45615,1,0,0:0:0:0:
64,184,45865,1,0,0:0:0:0:
116,184,45927,1,0,0:0:0:0:
92,232,45990,1,0,0:0:0:0:
152,232,46052,1,0,0:0:0:0:
136,276,46115,1,0,0:0:0:0:
200,276,46177,1,0,0:0:0:0:
264,160,46552,6,0,L|296:250,1,87.5
360,348,47084,1,0,0:0:0:0:
432,312,47240,2,0,B|471:268|471:268|440:204,1,124.687504756451
344,240,48083,1,4,0:0:0:0:
132,296,48573,1,4,0:0:0:0:
144,84,48896,1,0,0:0:0:0:
296,192,49365,5,0,0:0:0:0:
368,192,49490,1,0,0:0:0:0:
368,116,49615,1,0,0:0:0:0:
292,116,49740,1,0,0:0:0:0:
292,116,49865,1,0,0:0:0:0:
96,212,50365,6,0,P|136:204|164:208,1,70
164,124,50865,2,0,L|192:148,5,35,0|0|0|0|0|0,0:0|0:0|0:0|0:0|0:0|0:0,0:0:0:0:
248,248,51865,1,0,0:0:0:0:
308,180,52115,1,0,0:0:0:0:
64,336,52365,5,4,0:0:0:0:
264,40,52865,1,4,0:0:0:0:
464,336,53365,1,4,0:0:0:0:
0,24,54365,5,8,0:0:0:0:
0,240,54615,1,8,0:0:0:0:
204,256,54865,1,8,0:0:0:0:
204,24,55365,1,8,0:0:0:0:
400,24,55615,1,8,0:0:0:0:
408,232,55865,1,8,0:0:0:0:
16,228,56365,5,0,0:0:0:0:
28,180,56490,1,0,0:0:0:0:
48,152,56615,1,0,0:0:0:0:
128,96,56865,1,0,0:0:0:0:
168,112,56990,1,0,0:0:0:0:
196,136,57115,1,0,0:0:0:0:
248,228,57365,1,0,0:0:0:0:
256,260,57490,1,0,0:0:0:0:
300,280,57615,1,0,0:0:0:0:
368,192,57865,1,0,0:0:0:0:
392,160,57990,1,0,0:0:0:0:
420,132,58115,1,0,0:0:0:0:
268,196,58365,5,4,0:0:0:0:
268,196,58615,1,4,0:0:0:0:
92,220,58865,1,0,0:0:0:0:
120,132,59115,2,0,L|188:88,2,70,0|0|0,0:0|0:0|0:0,0:0:0:0:
256,60,59865,1,0,0:0:0:0:
448,72,60365,6,0,L|448:108,3,35,0|0|0|0,0:0|0:0|0:0|0:0,0:0:0:0:
512,224,60865,1,0,0:0:0:0:
452,168,60990,1,0,0:0:0:0:
468,256,61115,1,0,0:0:0:0:
392,200,61240,1,0,0:0:0:0:
424,284,61365,1,0,0:0:0:0:
244,220,61615,1,0,0:0:0:0:
112,240,61865,2,0,L|112:200,3,35,0|0|0|0,0:0|0:0|0:0|0:0,0:0:0:0:
264,52,62583,5,0,0:0:0:0:
176,28,62802,2,0,P|134:32|108:48,1,65.6250025033952
60,76,63239,2,0,P|32:96|12:164,1,105.000004005432
20,228,63614,2,0,P|44:264|72:272,1,70
256,192,64083,5,4,0:0:0:0:
256,192,64646,1,4,0:0:0:0:
256,44,64896,1,0,0:0:0:0:
112,328,65364,2,8,B|175:292|175:292|240:314,1,131.25000500679
324,272,65864,1,0,0:0:0:0:
80,248,66364,6,0,L|80:208,3,35,0|0|0|0,0:0|0:0|0:0|0:0,0:0:0:0:
196,72,66864,2,0,L|192:192,1,105
396,188,67364,2,0,B|472:160|472:160|442:102|442:102|522:79|522:79|500:16,1,280,0|0,0:0|0:0,2:0:0:0:
260,196,68114,1,0,0:0:0:0:
0,192,68364,5,4,0:0:0:0:
264,192,68864,1,4,0:0:0:0:
512,192,69364,1,4,0:0:0:0:
256,192,70364,12,4,73864,0:0:0:0:
