osu file format v13

[General]
AudioFilename: Twister.mp3
AudioLeadIn: 0
PreviewTime: 2366
Countdown: 0
SampleSet: None
StackLeniency: 0.7
Mode: 0
LetterboxInBreaks: 0
WidescreenStoryboard: 1

[Editor]
DistanceSpacing: 1
BeatDivisor: 16
GridSize: 4
TimelineZoom: 3.799999

[Metadata]
Title:Twister
TitleUnicode:Twister
Artist:The world end with you
ArtistUnicode:The world end with you
Creator:gtxyjxw
Version:Insane
Source:the world end with you
Tags:Anime NDS games
BeatmapID:599169
BeatmapSetID:262567

[Difficulty]
HPDrainRate:7
CircleSize:5
OverallDifficulty:6
ApproachRate:8
SliderMultiplier:1.4
SliderTickRate:1

[Events]
//Background and Video events
Video,0,"op.flv"
0,0,"suba_wp_03_1280x1024.jpg",0,0
//Break Periods
//Storyboard Layer 0 (Background)
//Storyboard Layer 1 (Fail)
//Storyboard Layer 2 (Pass)
//Storyboard Layer 3 (Foreground)
//Storyboard Sound Samples

[TimingPoints]
2366,499.991666805553,4,1,1,100,1,0
2865,-133.333333333333,4,1,1,75,0,0
3365,-100,4,1,1,75,0,0
5272,-58.8235294117647,4,1,1,75,0,0
6115,-100,4,1,1,75,0,0
9365,-66.6666666666667,4,1,1,75,0,0
10178,-100,4,1,1,75,0,0
15365,-133.333333333333,4,1,1,75,0,0
16209,-100,4,1,1,75,0,0
17865,-66.6666666666667,4,1,1,75,0,0
18115,-100,4,1,1,75,0,0
18365,-100,4,1,1,75,0,1
20865,-133.333333333333,4,1,1,75,0,1
21865,-100,4,1,1,75,0,1
25365,-66.6666666666667,4,1,1,75,0,1
26115,-100,4,1,1,75,0,1
31178,-166.666666666667,4,1,1,75,0,1
32271,-100,4,1,1,75,0,1
32490,-62.5,4,1,1,75,0,1
32802,-100,4,1,1,75,0,1
36365,-100,4,1,1,75,0,0
43115,-133.333333333333,4,1,1,75,0,0
43427,-100,4,1,1,75,0,0
45865,-66.6666666666667,4,1,1,75,0,0
46302,-100,4,1,1,75,0,0
47052,-133.333333333333,4,1,1,75,0,0
47802,-100,4,1,1,75,0,0
49365,-52.6315789473684,4,1,1,75,0,0
49865,-100,4,1,1,75,0,0
60865,-66.6666666666667,4,1,1,75,0,0
61365,-100,4,1,1,75,0,0
62802,-133.333333333333,4,1,1,75,0,0
63114,-100,4,1,1,75,0,0
63239,-66.6666666666667,4,1,1,75,0,0
63489,-100,4,1,1,75,0,0
65364,-66.6666666666667,4,1,1,75,0,0
65677,-100,4,1,1,75,0,0
67364,-52.6315789473684,4,1,1,75,0,0
67864,-100,4,1,1,75,0,0
68364,-100,4,1,1,75,0,1
73864,-100,4,1,1,75,0,0

[Colours]
Combo1 : 247,91,162
Combo2 : 238,180,36
Combo3 : 138,124,201
Combo4 : 103,124,145
Combo5 : 190,188,163

[HitObjects]
0,40,2366,5,0,0:0:0:0:
60,160,2615,1,0,0:0:0:0:
56,256,2865,1,0,0:0:0:0:
144,280,3084,1,0,0:0:0:0:
144,280,3178,1,0,0:0:0:0:
164,248,3303,1,0,0:0:0:0:
272,256,3615,1,0,0:0:0:0:
276,128,3865,1,0,0:0:0:0:
392,148,4115,1,0,0:0:0:0:
392,148,4240,1,0,0:0:0:0:
372,176,4365,6,0,B|340:212|376:236|416:264,1,105
472,328,4865,1,0,0:0:0:0:
460,64,5209,2,0,L|416:60,1,43.75
324,80,5490,2,0,L|396:120,1,74.3750014185906
448,204,5772,2,0,L|392:176,1,59.5000011348725
288,252,6053,1,0,0:0:0:0:
84,136,6365,5,4,0:0:0:0:
84,136,6615,1,0,0:0:0:0:
344,256,6865,1,4,0:0:0:0:
344,256,7115,1,0,0:0:0:0:
136,304,7365,1,4,0:0:0:0:
136,304,7615,1,0,0:0:0:0:
200,56,7865,1,4,0:0:0:0:
200,56,8115,1,0,0:0:0:0:
212,236,8365,6,0,L|216:288,3,35,0|0|0|0,0:0|0:0|0:0|0:0,0:0:0:0:
320,176,8865,2,0,L|320:132,3,35,0|0|0|0,0:0|0:0|0:0|0:0,0:0:0:0:
496,28,9365,2,0,L|496:80,1,52.5000020027161
388,100,9615,2,0,L|388:160,1,52.5000020027161
280,164,9865,2,0,L|280:224,1,52.5000020027161
168,284,10178,1,0,0:0:0:0:
376,160,10365,5,0,0:0:0:0:
380,284,10553,1,0,0:0:0:0:
200,288,10865,1,0,0:0:0:0:
208,124,11115,2,0,L|207:69,4,35,0|0|0|0|0,0:0|0:0|0:0|0:0|0:0,0:0:0:0:
68,36,11865,1,0,0:0:0:0:
0,168,12115,1,0,0:0:0:0:
64,320,12365,5,4,0:0:0:0:
64,320,12615,1,0,0:0:0:0:
344,288,12865,1,4,0:0:0:0:
344,288,13115,1,0,0:0:0:0:
36,120,13365,1,4,0:0:0:0:
36,120,13615,1,0,0:0:0:0:
292,96,13865,1,4,0:0:0:0:
292,96,14115,1,0,0:0:0:0:
512,356,14365,6,0,L|512:308,3,35,0|0|0|0,0:0|0:0|0:0|0:0,0:0:0:0:
380,160,14865,2,0,L|380:208,3,35,0|0|0|0,0:0|0:0|0:0|0:0,0:0:0:0:
300,224,15365,2,0,B|242:259|189:239|174:235|153:218|147:192,1,177.187506759167
220,64,16365,5,4,0:0:0:0:
124,288,16615,1,0,0:0:0:0:
60,120,16865,1,4,0:0:0:0:
304,216,17115,1,0,0:0:0:0:
368,328,17365,2,0,L|480:280,1,105
456,184,17865,2,0,L|408:208,1,52.5000020027161
440,56,18365,5,0,0:0:0:0:
440,56,18615,1,0,0:0:0:0:
344,92,18865,1,0,0:0:0:0:
248,56,19115,2,0,L|212:40,2,35,0|0|0,0:0|0:0|0:0,0:0:0:0:
128,60,19615,2,0,L|100:84,2,35,0|0|0,0:0|0:0|0:0,0:0:0:0:
88,136,20115,2,0,L|34:190,1,70
132,116,20615,2,0,L|184:176,1,78.75
224,228,21115,1,0,0:0:0:0:
236,244,21240,2,0,L|288:240,1,52.5000020027161
320,240,21615,1,0,0:0:0:0:
320,240,21740,1,0,0:0:0:0:
372,216,21865,2,0,P|380:172|372:152,1,61.25
440,328,22365,5,0,0:0:0:0:
440,328,22615,1,0,0:0:0:0:
344,292,22865,1,0,0:0:0:0:
248,328,23115,2,0,L|212:344,2,35,0|0|0,0:0|0:0|0:0,0:0:0:0:
192,320,23584,2,0,L|156:324,1,35
96,320,23865,2,0,L|108:280,2,35,0|0|0,0:0|0:0|0:0,0:0:0:0:
172,248,24365,2,0,L|156:224,3,26.25,0|0|0|0,0:0|0:0|0:0|0:0,0:0:0:0:
124,160,24865,2,0,L|100:128,2,35,0|0|0,0:0|0:0|0:0,0:0:0:0:
236,176,25365,1,0,0:0:0:0:
332,152,25615,1,0,0:0:0:0:
444,176,25865,2,0,L|456:236|456:236,2,52.5000020027161,0|0|0,0:0|0:0|0:0,0:0:0:0:
440,76,26365,6,0,B|408:52|408:52|360:112,1,105
284,84,26803,2,0,B|252:132|252:132|200:100,1,105
132,68,27303,2,0,B|76:48|76:48|44:100,1,105
100,180,27803,2,0,B|148:228|148:228|124:272,1,105
32,320,28303,2,0,B|72:372|72:372|116:372,1,105
272,332,28803,2,0,B|244:288|244:288|184:288|184:288,1,105
368,324,29303,2,0,B|384:288|384:288|420:300,1,70
512,128,29803,2,0,B|476:116|476:116|492:84,1,70
140,192,30365,5,4,0:0:0:0:
140,192,30490,1,4,0:0:0:0:
416,192,30865,1,4,0:0:0:0:
416,192,30990,1,4,0:0:0:0:
360,120,31178,2,0,B|339:124|339:120|319:132,1,41.9999987182618,0|0,0:0|0:0,0:0:0:0:
272,152,31553,2,0,L|256:164,5,20.9999993591309,0|0|0|0|0|0,0:0|0:0|0:0|0:0|0:0|0:0,0:0:0:0:
132,292,32365,5,4,0:0:0:0:
200,228,32490,2,0,P|227:196|324:200,1,140
348,208,32865,1,4,0:0:0:0:
436,300,33115,1,0,0:0:0:0:
400,264,33240,1,0,0:0:0:0:
412,204,33365,1,0,0:0:0:0:
432,156,33490,1,0,0:0:0:0:
472,132,33615,1,0,0:0:0:0:
384,104,33865,1,4,0:0:0:0:
384,104,33990,1,4,0:0:0:0:
448,64,34365,5,4,0:0:0:0:
240,136,34615,1,0,0:0:0:0:
316,16,34865,1,4,0:0:0:0:
408,212,35115,1,0,0:0:0:0:
344,324,35365,1,0,0:0:0:0:
176,336,35615,1,0,0:0:0:0:
108,248,35802,2,0,P|16:212|0:156,1,157.5
0,212,38365,5,8,0:0:0:0:
64,368,38615,1,8,0:0:0:0:
184,324,38865,2,0,L|224:308,2,35,0|0|0,0:0|0:0|0:0,0:0:0:0:
264,184,39365,1,8,0:0:0:0:
348,320,39615,1,8,0:0:0:0:
508,240,39865,1,0,0:0:0:0:
452,292,39990,1,0,0:0:0:0:
492,360,40115,1,0,0:0:0:0:
456,216,40365,5,4,0:0:0:0:
400,284,40552,1,0,0:0:0:0:
284,332,40865,5,4,0:0:0:0:
284,332,41115,1,0,0:0:0:0:
52,272,41365,1,4,0:0:0:0:
52,272,41615,1,0,0:0:0:0:
216,128,41865,1,4,0:0:0:0:
216,128,42115,1,0,0:0:0:0:
64,60,42365,5,4,0:0:0:0:
64,60,42615,1,4,0:0:0:0:
160,56,42865,1,8,0:0:0:0:
224,72,43115,2,0,B|250:100|260:139|259:121,1,65.6250025033952
256,204,43615,1,0,0:0:0:0:
256,204,43740,1,0,0:0:0:0:
264,248,43865,2,0,P|323:281|366:275,1,105
488,224,44365,5,0,0:0:0:0:
408,224,44490,1,0,0:0:0:0:
380,152,44615,1,0,0:0:0:0:
440,80,44865,2,0,P|416:56|380:52,1,70
240,56,45365,1,0,0:0:0:0:
108,72,45615,1,0,0:0:0:0:
64,184,45865,1,0,0:0:0:0:
68,252,45990,1,0,0:0:0:0:
112,300,46115,1,0,0:0:0:0:
172,320,46240,1,0,0:0:0:0:
264,160,46584,6,0,L|296:250,1,87.5
360,348,47084,1,0,0:0:0:0:
432,312,47240,2,0,B|471:268|471:268|440:204,1,124.687504756451
344,144,48083,1,4,0:0:0:0:
132,88,48573,1,4,0:0:0:0:
144,300,48896,1,0,0:0:0:0:
432,56,49365,5,0,0:0:0:0:
480,104,49490,1,0,0:0:0:0:
448,152,49615,1,0,0:0:0:0:
492,200,49740,1,0,0:0:0:0:
492,200,49865,1,0,0:0:0:0:
96,212,50365,6,0,P|136:204|164:208,1,70
164,124,50865,2,0,L|192:148,5,35,0|0|0|0|0|0,0:0|0:0|0:0|0:0|0:0|0:0,0:0:0:0:
248,248,51865,1,0,0:0:0:0:
308,180,52115,1,0,0:0:0:0:
20,196,52365,5,4,0:0:0:0:
256,188,52865,1,4,0:0:0:0:
508,192,53365,1,4,0:0:0:0:
0,24,54365,5,8,0:0:0:0:
172,124,54615,1,8,0:0:0:0:
0,240,54865,1,8,0:0:0:0:
264,200,55365,1,8,0:0:0:0:
136,368,55615,1,8,0:0:0:0:
368,360,55865,1,8,0:0:0:0:
504,128,56365,5,0,0:0:0:0:
504,128,56490,1,0,0:0:0:0:
504,128,56615,1,0,0:0:0:0:
384,288,56865,1,0,0:0:0:0:
384,288,56990,1,0,0:0:0:0:
384,288,57115,1,0,0:0:0:0:
256,124,57365,1,0,0:0:0:0:
256,124,57490,1,0,0:0:0:0:
256,124,57615,1,0,0:0:0:0:
160,284,57865,1,0,0:0:0:0:
160,284,57990,1,0,0:0:0:0:
160,284,58115,1,0,0:0:0:0:
268,196,58365,5,4,0:0:0:0:
268,196,58615,1,4,0:0:0:0:
92,220,58865,1,0,0:0:0:0:
120,132,59115,2,0,L|188:88,2,70,0|0|0,0:0|0:0|0:0,0:0:0:0:
256,60,59865,1,0,0:0:0:0:
448,72,60365,6,0,L|448:108,3,35,0|0|0|0,0:0|0:0|0:0|0:0,0:0:0:0:
368,236,60865,2,0,L|324:276,4,52.5000020027161,0|0|0|0|0,0:0|0:0|0:0|0:0|0:0,0:0:0:0:
244,220,61615,1,0,0:0:0:0:
112,240,61865,2,0,L|112:200,3,35,0|0|0|0,0:0|0:0|0:0|0:0,0:0:0:0:
248,332,62583,5,0,0:0:0:0:
336,356,62802,2,0,P|378:352|404:336,1,65.6250025033952
452,308,63239,2,0,P|480:288|500:220,1,105.000004005432
492,156,63614,2,0,P|468:120|440:112,1,70
256,192,64083,5,4,0:0:0:0:
256,192,64646,1,4,0:0:0:0:
256,44,64896,1,0,0:0:0:0:
124,296,65364,2,8,B|187:332|187:332|252:310,1,131.25000500679
324,272,65864,1,0,0:0:0:0:
80,248,66364,6,0,L|80:208,3,35,0|0|0|0,0:0|0:0|0:0|0:0,0:0:0:0:
196,72,66864,2,0,L|192:192,1,105
512,304,67364,2,0,B|448:255|448:255|415:311|415:311|353:255|353:255|309:304,1,265.999992897034,0|0,0:0|0:0,2:0:0:0:
196,72,68114,1,0,0:0:0:0:
28,248,68364,5,4,0:0:0:0:
436,376,68864,1,4,0:0:0:0:
340,8,69364,1,4,0:0:0:0:
256,192,70364,12,4,73864,0:0:0:0:
