osu file format v13

[General]
AudioFilename: Twister.mp3
AudioLeadIn: 0
PreviewTime: 2366
Countdown: 0
SampleSet: None
StackLeniency: 0.7
Mode: 0
LetterboxInBreaks: 0
WidescreenStoryboard: 1

[Editor]
DistanceSpacing: 1
BeatDivisor: 16
GridSize: 4
TimelineZoom: 3.799999

[Metadata]
Title:Twister
TitleUnicode:Twister
Artist:The world end with you
ArtistUnicode:The world end with you
Creator:gtxyjxw
Version:Hard
Source:the world end with you
Tags:Anime NDS games
BeatmapID:599167
BeatmapSetID:262567

[Difficulty]
HPDrainRate:6
CircleSize:4
OverallDifficulty:4
ApproachRate:8
SliderMultiplier:1.4
SliderTickRate:1

[Events]
//Background and Video events
Video,0,"op.flv"
0,0,"suba_wp_03_1280x1024.jpg",0,0
//Break Periods
//Storyboard Layer 0 (Background)
//Storyboard Layer 1 (Fail)
//Storyboard Layer 2 (Pass)
//Storyboard Layer 3 (Foreground)
//Storyboard Sound Samples

[TimingPoints]
2366,499.991666805553,4,1,1,50,1,0
2865,-133.333333333333,4,1,1,50,0,0
3365,-100,4,1,1,50,0,0
5272,-58.8235294117647,4,1,1,50,0,0
6115,-100,4,1,1,50,0,0
9365,-66.6666666666667,4,1,1,50,0,0
10178,-100,4,1,1,50,0,0
15365,-133.333333333333,4,1,1,50,0,0
16209,-100,4,1,1,50,0,0
17865,-66.6666666666667,4,1,1,50,0,0
18115,-100,4,1,1,50,0,0
18365,-100,4,1,1,50,0,1
20865,-133.333333333333,4,1,1,50,0,1
21865,-100,4,1,1,50,0,1
25365,-66.6666666666667,4,1,1,50,0,1
26115,-100,4,1,1,50,0,1
31178,-166.666666666667,4,1,1,50,0,1
32271,-100,4,1,1,50,0,1
32490,-62.5,4,1,1,50,0,1
32802,-100,4,1,1,50,0,1
36365,-100,4,1,1,50,0,0
43115,-133.333333333333,4,1,1,50,0,0
43427,-100,4,1,1,50,0,0
45865,-66.6666666666667,4,1,1,50,0,0
46302,-100,4,1,1,50,0,0
47052,-133.333333333333,4,1,1,50,0,0
47802,-100,4,1,1,50,0,0
49365,-52.6315789473684,4,1,1,50,0,0
49865,-100,4,1,1,50,0,0
60865,-66.6666666666667,4,1,1,50,0,0
61365,-100,4,1,1,50,0,0
62802,-133.333333333333,4,1,1,50,0,0
63114,-100,4,1,1,50,0,0
63239,-66.6666666666667,4,1,1,50,0,0
63489,-100,4,1,1,50,0,0
65364,-66.6666666666667,4,1,1,50,0,0
65677,-100,4,1,1,50,0,0
67364,-52.6315789473684,4,1,1,50,0,0
67864,-100,4,1,1,50,0,0
68364,-100,4,1,1,50,0,1
73864,-100,4,1,1,50,0,0

[Colours]
Combo1 : 247,91,162
Combo2 : 238,180,36
Combo3 : 138,124,201
Combo4 : 103,124,145
Combo5 : 190,188,163

[HitObjects]
0,40,2366,5,0,0:0:0:0:
60,160,2615,1,0,0:0:0:0:
132,88,2865,2,0,P|200:64|236:80,1,105.000004005432
376,32,3615,1,0,0:0:0:0:
276,128,3865,1,0,0:0:0:0:
392,148,4115,1,0,0:0:0:0:
392,148,4240,1,0,0:0:0:0:
372,176,4365,6,0,B|340:212|376:236|416:264,1,105
480,212,4865,2,0,P|504:248|504:296,1,87.5
464,336,5272,2,0,B|340:268|340:268|344:356|344:356|232:304|232:304|220:360|220:360|220:360|220:360,1,401.625007660389,0|0,0:0|0:0,0:0:0:0:
76,152,6365,6,0,L|8:100,1,70
312,224,6865,2,0,L|372:272,1,70
168,312,7365,2,0,L|96:260,1,70
132,52,7865,2,0,L|200:104,1,70
212,236,8365,6,0,L|216:288,3,35,0|0|0|0,0:0|0:0|0:0|0:0,0:0:0:0:
320,176,8865,2,0,L|320:132,3,35,0|0|0|0,0:0|0:0|0:0|0:0,0:0:0:0:
472,40,9365,2,0,B|564:116|564:116|504:164|504:164|544:240|544:240|512:292,1,341.250013017655,0|0,0:0|0:0,0:0:0:0:
368,224,10365,6,0,L|368:127,1,87.5
208,108,10865,1,0,0:0:0:0:
208,260,11115,2,0,L|207:315,4,35,0|0|0|0|0,0:0|0:0|0:0|0:0|0:0,0:0:0:0:
68,348,11865,1,0,0:0:0:0:
0,216,12115,1,0,0:0:0:0:
24,84,12365,6,0,L|96:28,1,70
344,96,12865,2,0,L|272:148,1,70
24,240,13365,2,0,L|96:180,1,70
312,268,13865,2,0,L|236:324,1,70
512,356,14365,6,0,L|512:308,3,35,0|0|0|0,0:0|0:0|0:0|0:0,0:0:0:0:
380,160,14865,2,0,L|380:208,3,35,0|0|0|0,0:0|0:0|0:0|0:0,0:0:0:0:
300,224,15365,2,0,B|242:259|189:239|174:235|153:218|147:192,1,177.187506759167
220,64,16365,5,4,0:0:0:0:
124,288,16615,1,0,0:0:0:0:
60,120,16865,1,4,0:0:0:0:
304,216,17115,1,0,0:0:0:0:
368,328,17365,2,0,L|480:280,1,105
484,160,17865,2,0,L|384:200,1,105.000004005432
440,56,18365,5,0,0:0:0:0:
440,56,18615,1,0,0:0:0:0:
332,76,18865,2,0,B|296:60|276:60|264:68,1,70
248,80,19178,1,0,0:0:0:0:
256,168,19365,2,0,B|220:180|204:176|180:160,1,70
172,148,19678,1,0,0:0:0:0:
168,68,19865,2,0,B|140:48|116:48|100:64,1,70
83,68,20178,1,0,0:0:0:0:
36,148,20365,2,0,B|20:180|20:200|48:220,1,70
58,232,20678,1,0,0:0:0:0:
112,248,20865,2,0,B|172:272|228:268|264:264|288:256|312:232,1,210.000008010865
448,320,22365,5,0,0:0:0:0:
448,320,22615,1,0,0:0:0:0:
352,300,22865,2,0,B|324:316|304:320|280:312,1,70
276,304,23178,1,0,0:0:0:0:
268,224,23365,2,0,B|232:192|208:208|192:216,1,70
180,212,23678,1,0,0:0:0:0:
92,200,23865,2,0,B|52:196|40:176|36:148,1,70
48,144,24178,1,0,0:0:0:0:
100,72,24365,2,0,B|140:56|156:64|168:96,1,70
180,96,24678,1,0,0:0:0:0:
264,84,24865,6,0,L|360:84,1,87.5
456,40,25365,2,0,B|528:84|528:84|448:156|448:156|508:212|508:212|472:248|472:248,1,315.000012016297
440,308,26365,6,0,B|408:332|408:332|360:272,1,105
292,248,26803,2,0,B|260:296|260:296|208:264,1,105
132,316,27303,2,0,B|76:336|76:336|44:284,1,105
120,220,27803,2,0,B|72:172|72:172|96:128,1,105
32,64,28303,2,0,B|72:12|72:12|116:12,1,105
164,124,28803,2,0,B|192:80|192:80|252:80|252:80,1,105
376,16,29303,2,0,B|444:-3|444:-3|456:52|515:51|515:51|509:133,1,245
432,196,30365,5,4,0:0:0:0:
432,196,30490,1,4,0:0:0:0:
96,192,30865,1,4,0:0:0:0:
96,192,30990,1,4,0:0:0:0:
160,140,31178,2,0,B|240:128|232:196|260:224|192:260|192:260,1,183.749994392395
132,292,32365,5,4,0:0:0:0:
200,228,32490,2,0,P|227:196|324:200,1,140
348,208,32865,1,4,0:0:0:0:
432,224,33115,2,0,B|485:231|516:194|468:136,1,140
384,104,33865,1,4,0:0:0:0:
384,104,33990,1,4,0:0:0:0:
64,64,34365,5,4,0:0:0:0:
272,136,34615,1,0,0:0:0:0:
196,16,34865,1,4,0:0:0:0:
104,212,35115,1,0,0:0:0:0:
276,320,35365,1,0,0:0:0:0:
276,320,35615,1,0,0:0:0:0:
404,248,35802,2,0,P|496:212|512:156,1,157.5
0,172,38365,5,8,0:0:0:0:
64,16,38615,1,8,0:0:0:0:
184,60,38865,2,0,L|224:76,2,35,0|0|0,0:0|0:0|0:0,0:0:0:0:
264,200,39365,1,8,0:0:0:0:
348,64,39615,1,8,0:0:0:0:
512,136,39865,2,8,P|480:91|464:55,1,87.5
456,216,40365,5,0,0:0:0:0:
400,284,40552,1,0,0:0:0:0:
296,288,40865,2,0,L|240:224,1,70
108,248,41365,2,0,L|160:308,1,70
128,184,41865,2,0,L|184:134,1,70
64,60,42365,5,4,0:0:0:0:
64,60,42615,1,4,0:0:0:0:
160,56,42865,1,8,0:0:0:0:
224,72,43115,2,0,B|250:100|260:139|259:121,1,65.6250025033952
256,204,43615,1,0,0:0:0:0:
256,204,43740,1,0,0:0:0:0:
264,248,43865,2,0,P|323:281|366:275,1,105
416,228,44365,6,0,B|392:204|368:156|376:132,1,105
440,80,44865,2,0,P|416:56|380:52,1,70
240,56,45365,1,0,0:0:0:0:
40,36,45615,1,0,0:0:0:0:
64,208,45865,2,0,B|120:240|120:240|72:276|72:276|144:316|144:316,1,183.750007009506
264,160,46552,6,0,L|296:250,1,87.5
360,348,47084,1,0,0:0:0:0:
432,312,47240,2,0,B|471:268|471:268|440:204,1,124.687504756451
344,144,48083,1,4,0:0:0:0:
132,88,48573,1,4,0:0:0:0:
144,300,48896,1,0,0:0:0:0:
436,360,49365,6,0,B|488:252|488:252|420:240|420:240|468:144|468:144,1,265.999992897034
96,212,50365,2,0,P|136:204|164:208,1,70
176,112,50865,2,0,P|232:142|241:154,3,70,0|0|0|0,0:0|0:0|0:0|0:0,0:0:0:0:
248,248,51865,1,0,0:0:0:0:
376,124,52115,1,0,0:0:0:0:
88,312,52365,5,4,0:0:0:0:
260,60,52865,1,4,0:0:0:0:
436,312,53365,1,4,0:0:0:0:
512,24,54365,5,8,0:0:0:0:
340,124,54615,1,8,0:0:0:0:
512,240,54865,1,8,0:0:0:0:
248,200,55365,1,8,0:0:0:0:
376,368,55615,1,8,0:0:0:0:
144,360,55865,1,8,0:0:0:0:
12,276,56365,6,0,L|12:216,2,52.5,0|0|0,0:0|0:0|0:0,0:0:0:0:
116,92,56865,2,0,L|116:148,2,52.5,0|0|0,0:0|0:0|0:0,0:0:0:0:
240,232,57365,2,0,L|240:168,2,52.5,0|0|0,0:0|0:0|0:0,0:0:0:0:
356,24,57865,2,0,L|356:84,2,52.5,0|0|0,0:0|0:0|0:0,0:0:0:0:
268,196,58365,5,4,0:0:0:0:
268,196,58615,1,4,0:0:0:0:
92,220,58865,1,0,0:0:0:0:
120,132,59115,2,0,L|188:88,2,70,0|0|0,0:0|0:0|0:0,0:0:0:0:
256,60,59865,1,0,0:0:0:0:
440,60,60365,6,0,L|440:104|440:112,2,52.5,0|0|0,0:0|0:0|0:0,0:0:0:0:
480,224,60865,2,0,B|480:316|480:316|360:316,1,210.000008010865
244,220,61615,1,0,0:0:0:0:
112,240,61865,2,0,L|112:200,3,35,0|0|0|0,0:0|0:0|0:0|0:0,0:0:0:0:
248,52,62583,5,0,0:0:0:0:
336,28,62802,2,0,P|378:32|404:48,1,65.6250025033952
452,76,63239,2,0,P|480:96|500:164,1,105.000004005432
492,228,63614,2,0,P|468:264|440:272,1,70
256,192,64083,5,4,0:0:0:0:
256,192,64646,1,4,0:0:0:0:
256,340,64896,1,0,0:0:0:0:
124,88,65364,2,8,B|187:52|187:52|252:74,1,131.25000500679
324,112,65864,1,0,0:0:0:0:
80,288,66364,6,0,L|80:168,1,105
196,72,66864,2,0,L|192:192,1,105
396,196,67364,2,0,B|472:224|472:224|442:282|442:282|522:305|522:305|504:368,1,265.999992897034,0|0,0:0|0:0,2:0:0:0:
260,196,68114,1,0,0:0:0:0:
76,144,68364,5,4,0:0:0:0:
376,32,68864,1,4,0:0:0:0:
336,348,69364,1,4,0:0:0:0:
256,192,70364,12,4,73864,0:0:0:0:
