osu file format v13

[General]
AudioFilename: Twister.mp3
AudioLeadIn: 0
PreviewTime: 2366
Countdown: 0
SampleSet: None
StackLeniency: 0.7
Mode: 0
LetterboxInBreaks: 0
WidescreenStoryboard: 1

[Editor]
DistanceSpacing: 1
BeatDivisor: 2
GridSize: 4
TimelineZoom: 1

[Metadata]
Title:Twister
TitleUnicode:Twister
Artist:The world end with you
ArtistUnicode:The world end with you
Creator:gtxyjxw
Version:Easy
Source:the world end with you
Tags:Anime NDS games
BeatmapID:599165
BeatmapSetID:262567

[Difficulty]
HPDrainRate:3
CircleSize:3
OverallDifficulty:1
ApproachRate:3
SliderMultiplier:1.4
SliderTickRate:1

[Events]
//Background and Video events
Video,0,"op.flv"
0,0,"suba_wp_03_1280x1024.jpg",0,0
//Break Periods
//Storyboard Layer 0 (Background)
//Storyboard Layer 1 (Fail)
//Storyboard Layer 2 (Pass)
//Storyboard Layer 3 (Foreground)
//Storyboard Sound Samples

[TimingPoints]
2366,499.991666805553,4,1,1,100,1,0
8365,-133.333333333333,4,1,1,100,0,0
10115,-100,4,1,1,100,0,0
18865,-133.333333333333,4,1,1,100,0,0
19865,-100,4,1,1,100,0,0
39365,-133.333333333333,4,1,1,100,0,0
39865,-100,4,1,1,100,0,0
40365,-133.333333333333,4,1,1,100,0,0
42115,-100,4,1,1,100,0,0
46365,-133.333333333333,4,1,1,100,0,0
47865,-100,4,1,1,100,0,0
50365,-133.333333333333,4,1,1,100,0,0
51865,-100,4,1,1,100,0,0
60865,-133.333333333333,4,1,1,100,0,0
61365,-100,4,1,1,100,0,0
66364,-133.333333333333,4,1,1,100,0,0
67614,-100,4,1,1,100,0,0

[Colours]
Combo1 : 192,192,192
Combo2 : 255,128,64
Combo3 : 152,49,255
Combo4 : 64,128,128

[HitObjects]
56,192,2366,6,0,B|168:76|168:76|236:80,1,210
396,116,3615,1,0,0:0:0:0:
448,168,3865,1,0,0:0:0:0:
356,268,4365,6,0,L|304:324,1,70
184,296,4865,2,0,L|248:232,1,70
144,216,5365,2,0,P|62:224|0:200,1,140
72,160,6365,5,0,0:0:0:0:
200,44,6865,1,0,0:0:0:0:
316,168,7365,1,0,0:0:0:0:
448,44,7865,1,0,0:0:0:0:
460,136,8365,2,0,B|520:232|520:232|420:256|420:256|440:324|440:324|332:316,1,367.500014019013
168,296,10365,5,0,0:0:0:0:
168,112,10865,1,0,0:0:0:0:
368,116,11365,1,0,0:0:0:0:
368,300,11865,1,0,0:0:0:0:
264,332,12365,2,0,B|136:244|136:244|268:196|268:196|184:92|184:92,1,420
120,68,14365,5,0,0:0:0:0:
372,64,14865,1,0,0:0:0:0:
244,204,15365,1,0,0:0:0:0:
244,204,15865,5,0,0:0:0:0:
192,52,16365,1,4,0:0:0:0:
184,356,16865,1,4,0:0:0:0:
496,248,17365,2,0,P|517:150|476:105,1,140
84,120,18365,5,0,0:0:0:0:
152,56,18615,1,0,0:0:0:0:
247,58,18865,2,0,P|370:95|397:177,1,210.000008010865
376,292,20365,1,0,0:0:0:0:
232,184,20865,1,0,0:0:0:0:
120,300,22365,5,0,0:0:0:0:
64,240,22615,1,0,0:0:0:0:
88,152,22865,2,0,B|124:85|176:32|240:6|319:23|377:73,1,350
456,120,24365,1,0,0:0:0:0:
360,248,24865,1,0,0:0:0:0:
124,276,25365,5,8,0:0:0:0:
44,176,25865,1,8,0:0:0:0:
64,72,26365,6,0,L|152:72,1,70
208,76,26865,5,0,0:0:0:0:
412,88,27365,1,0,0:0:0:0:
488,292,27865,1,0,0:0:0:0:
320,228,28365,1,0,0:0:0:0:
148,208,28865,1,0,0:0:0:0:
236,348,29365,1,0,0:0:0:0:
8,232,29865,1,0,0:0:0:0:
8,32,30365,6,0,B|44:168|44:168|168:76|168:76|192:228|192:228|324:128|324:128|416:340|416:340,1,840
508,196,33865,1,0,0:0:0:0:
236,68,34365,5,4,0:0:0:0:
68,136,34865,1,4,0:0:0:0:
216,280,35365,1,0,0:0:0:0:
380,216,35865,1,0,0:0:0:0:
112,104,38365,5,8,0:0:0:0:
232,32,38865,1,8,0:0:0:0:
356,80,39365,2,0,B|424:140|448:196|448:196|448:196|448:200,1,105.000004005432
344,308,40365,2,0,B|272:332|272:328|272:332|288:252|288:252|208:272|208:272|228:196|228:196|148:212|148:212|148:204|148:204|152:192|152:192,1,367.500014019013
64,88,42365,6,4,L|124:24,1,70
64,296,43115,1,0,0:0:0:0:
196,88,43865,1,0,0:0:0:0:
312,44,44365,5,0,0:0:0:0:
444,80,44865,1,0,0:0:0:0:
488,216,45365,1,0,0:0:0:0:
416,324,45865,1,0,0:0:0:0:
280,336,46365,6,0,B|184:312|104:280|20:240|56:200|64:184|112:156,1,315.000012016297
256,52,48115,1,4,0:0:0:0:
392,128,48615,1,4,0:0:0:0:
228,304,49365,1,0,0:0:0:0:
140,244,49865,1,0,0:0:0:0:
156,144,50365,6,0,B|216:84|280:56|364:60|424:80|448:168|408:176,1,315.000012016297
88,176,52365,5,4,0:0:0:0:
252,176,52865,1,4,0:0:0:0:
420,176,53365,1,4,0:0:0:0:
40,56,54365,5,0,0:0:0:0:
160,128,54865,1,8,0:0:0:0:
64,260,55365,1,0,0:0:0:0:
208,324,55865,1,0,0:0:0:0:
284,220,56365,5,0,0:0:0:0:
236,96,56865,1,0,0:0:0:0:
384,84,57365,1,0,0:0:0:0:
424,216,57865,1,0,0:0:0:0:
256,192,58365,5,4,0:0:0:0:
256,192,58615,1,4,0:0:0:0:
220,316,59115,2,0,L|124:316,3,70,0|0|0|0,0:0|0:0|0:0|0:0,0:0:0:0:
84,176,60365,5,0,0:0:0:0:
184,104,60865,2,0,P|224:56|280:64,1,105.000004005432
336,52,61615,1,0,0:0:0:0:
500,144,62115,1,0,0:0:0:0:
496,248,62365,6,0,B|448:312|448:312|392:244|392:244|312:324|312:324|264:240|264:240|200:224|200:224|208:232,1,420
88,184,64114,5,4,0:0:0:0:
144,80,64614,1,4,0:0:0:0:
280,88,65364,2,0,P|376:115|378:165,1,140
492,200,66364,6,0,B|432:268|340:312|276:312|208:292|224:276,1,262.500010013581
128,136,68364,5,4,0:0:0:0:
256,72,68864,1,4,0:0:0:0:
380,136,69364,1,4,0:0:0:0:
256,192,70364,12,4,73864,0:0:0:0:
