osu file format v5

[General]
AudioFilename: the simpsons theme(2).mp3
AudioLeadIn: 0
PreviewTime: -1
Countdown: 1
SampleSet: Normal
StackLeniency: 0.7
Mode: 0
LetterboxInBreaks: 1
EditorDistanceSpacing: 0.800000011920929

[Metadata]
Title:The simpsons
Artist:The simpsons Green Day
Creator:LiuKaX
Version:Green Day dificulty
Source:
Tags:

[Difficulty]
HPDrainRate:5
CircleSize:5
OverallDifficulty:5
SliderMultiplier:2.6
SliderTickRate:3

[Events]
//Background and Video events
//Break Periods
//Storyboard Layer 0 (Background)
//Storyboard Layer 1 (Failing)
//Storyboard Layer 2 (Passing)
//Storyboard Layer 3 (Foreground)
//Storyboard Sound Samples
//Background Colour Transformations
3,100,0,0,0

[TimingPoints]
10,300,4,1,0,100,1,0

[HitObjects]
454,59,1810,1,0
401,150,2710,1,0
259,233,3610,1,0
436,64,5410,5,0
418,269,6610,1,0
75,281,8110,1,0
176,189,8710,1,0
398,143,9010,1,0
465,39,11110,5,0
400,104,11710,1,0
336,182,12010,1,0
336,182,12310,1,0
336,182,12610,1,0
206,224,12910,1,0
206,166,13510,1,0
274,174,13810,1,0
395,156,14410,1,0
95,99,16810,5,0
218,111,17410,1,0
219,170,17710,1,0
219,170,18010,1,0
334,181,18610,1,0
264,208,19210,1,0
203,211,19510,1,0
252,145,20110,1,0
316,107,22510,5,0
301,196,23110,1,0
231,202,23410,1,0
224,155,23710,1,0
224,155,24010,1,0
308,140,24610,5,0
224,155,24910,1,0
209,189,25210,1,0
238,205,25510,1,0
257,39,28210,5,0
252,161,28810,1,0
252,271,29110,1,0
247,198,29410,1,0
252,161,29710,1,0
261,67,30010,1,0
51,195,31210,1,0
286,206,31510,1,0
484,207,31810,1,0
481,39,33910,5,0
47,337,34510,1,0
439,355,35710,1,0
207,106,36610,1,0
176,124,39610,5,8
313,127,40210,1,8
306,223,40510,1,8
202,224,40810,1,8
202,224,41110,1,8
221,139,41710,1,8
309,147,42010,1,8
352,194,42310,1,8
352,194,42610,1,8
249,243,42910,1,8
200,196,45310,1,2
237,133,45910,5,2
309,143,46210,1,2
316,222,46510,1,2
316,222,46810,1,2
163,229,47110,1,2
156,154,47710,1,2
156,154,48010,1,2
200,149,48310,1,2
205,206,51010,5,6
207,131,51610,1,6
301,132,52210,1,6
302,215,52810,1,6
166,114,54010,5,6
312,243,54610,1,6
232,184,57310,1,0
248,144,60310,1,8
208,152,61810,1,8
256,192,62410,12,8,67510
280,168,68110,5,8
208,208,68710,1,8
144,248,69010,1,8
144,248,69310,1,8
144,248,69610,1,8
248,248,70210,1,8
312,200,70510,1,8
312,200,70810,1,8
312,200,71110,1,8
240,144,71410,1,8
240,40,73810,5,8
248,160,74410,1,8
240,272,74710,1,8
232,304,75310,1,8
384,288,75910,1,8
400,232,76210,1,8
408,192,76810,1,8
272,184,77110,1,8
48,168,78310,1,8
128,176,78610,1,8
240,184,78910,1,8
424,72,79510,1,8
416,192,79810,1,8
408,232,80110,1,8
408,232,80410,1,8
408,232,80710,1,8
