osu file format v12

[General]
AudioFilename: boy sings jonny test theam song.mp3
AudioLeadIn: 0
PreviewTime: -1
Countdown: 1
SampleSet: None
StackLeniency: 0.7
Mode: 0
LetterboxInBreaks: 1
WidescreenStoryboard: 1

[Editor]
DistanceSpacing: 0.8
BeatDivisor: 1
GridSize: 32

[Metadata]
Title:ings jonny test theam song
TitleUnicode:ings jonny test theam song
Artist:The kid
ArtistUnicode:The kid
Creator:Hollowkoopa
Version:Easy
Source:dudes
Tags:
BeatmapID:298633
BeatmapSetID:115063

[Difficulty]
HPDrainRate:1
CircleSize:3
OverallDifficulty:3
ApproachRate:5
SliderMultiplier:1.4
SliderTickRate:1

[Events]
//Background and Video events
Video,0,"boy sings jonny test theam song.avi"
//Break Periods
//Storyboard Layer 0 (Background)
//Storyboard Layer 1 (Fail)
//Storyboard Layer 2 (Pass)
//Storyboard Layer 3 (Foreground)
//Storyboard Sound Samples
//Background Colour Transformations
3,100,163,162,255

[TimingPoints]
-63.1499575390456,183.027271063388,4,1,0,100,1,0

[Colours]
Combo1 : 255,192,0
Combo2 : 0,202,0
Combo3 : 18,124,255
Combo4 : 64,0,64

[HitObjects]
96,128,4329,1,0,0:0:0:0:
96,160,4695,1,0,0:0:0:0:
96,192,5244,1,0,0:0:0:0:
96,224,5610,1,0,0:0:0:0:
96,256,5976,1,0,0:0:0:0:
96,288,6342,1,0,0:0:0:0:
160,128,6708,2,0,P|256:256|256:224,1,560
256,128,7623,5,0,0:0:0:0:
320,96,7807,1,0,0:0:0:0:
352,128,7990,1,0,0:0:0:0:
384,160,8173,1,0,0:0:0:0:
384,192,8356,1,0,0:0:0:0:
352,224,8539,1,0,0:0:0:0:
160,32,8905,5,0,0:0:0:0:
160,96,9088,1,0,0:0:0:0:
192,160,9271,1,0,0:0:0:0:
192,128,9454,1,0,0:0:0:0:
224,128,9637,1,0,0:0:0:0:
256,128,9820,1,0,0:0:0:0:
288,128,10003,1,0,0:0:0:0:
160,192,10552,5,0,0:0:0:0:
192,160,10735,1,0,0:0:0:0:
224,128,10918,1,0,0:0:0:0:
256,128,11101,1,0,0:0:0:0:
288,128,11284,1,0,0:0:0:0:
320,160,11467,1,0,0:0:0:0:
288,192,11650,1,0,0:0:0:0:
128,256,12199,5,0,0:0:0:0:
160,288,12382,1,0,0:0:0:0:
192,320,12565,1,0,0:0:0:0:
224,320,12748,1,0,0:0:0:0:
256,320,12931,1,0,0:0:0:0:
288,288,13114,1,0,0:0:0:0:
160,96,13480,5,0,0:0:0:0:
192,96,13663,1,0,0:0:0:0:
224,96,13846,1,0,0:0:0:0:
256,192,14396,12,0,16409,0:0:0:0:
288,192,17324,5,0,0:0:0:0:
320,224,17507,1,0,0:0:0:0:
288,256,17690,1,0,0:0:0:0:
256,256,17873,1,0,0:0:0:0:
224,224,18056,1,0,0:0:0:0:
192,192,18239,1,0,0:0:0:0:
192,160,18422,1,0,0:0:0:0:
224,128,18605,1,0,0:0:0:0:
64,96,19337,5,0,0:0:0:0:
32,96,19520,1,0,0:0:0:0:
32,128,19703,1,0,0:0:0:0:
32,160,19886,1,0,0:0:0:0:
32,192,20069,1,0,0:0:0:0:
32,224,20252,1,0,0:0:0:0:
32,256,20435,1,0,0:0:0:0:
64,256,20618,1,0,0:0:0:0:
96,256,20801,1,0,0:0:0:0:
128,256,20984,1,0,0:0:0:0:
160,256,21168,1,0,0:0:0:0:
192,256,21351,1,0,0:0:0:0:
192,224,21534,1,0,0:0:0:0:
192,192,21717,1,0,0:0:0:0:
192,160,21900,1,0,0:0:0:0:
160,192,23547,5,0,0:0:0:0:
192,224,23730,1,0,0:0:0:0:
224,256,23913,1,0,0:0:0:0:
256,288,24096,1,0,0:0:0:0:
288,320,24279,1,0,0:0:0:0:
320,352,24462,1,0,0:0:0:0:
352,352,24645,1,0,0:0:0:0:
384,320,24828,1,0,0:0:0:0:
384,288,25011,1,0,0:0:0:0:
352,256,25194,1,0,0:0:0:0:
320,224,25377,1,0,0:0:0:0:
288,192,25560,1,0,0:0:0:0:
256,160,25743,1,0,0:0:0:0:
224,128,25926,1,0,0:0:0:0:
192,96,26109,1,0,0:0:0:0:
160,64,26292,1,0,0:0:0:0:
160,160,27024,5,0,0:0:0:0:
192,192,27390,1,0,0:0:0:0:
224,192,27756,1,0,0:0:0:0:
256,192,28489,1,0,0:0:0:0:
288,192,28855,1,0,0:0:0:0:
320,192,29404,1,0,0:0:0:0:
160,256,29953,6,0,L|384:256,1,140
160,192,30868,2,0,B|288:192|288:192|256:192,1,140
128,96,31783,2,0,L|448:96,1,280
256,192,33247,12,0,34345,0:0:0:0:
128,128,34712,1,0,0:0:0:0:
128,96,35078,1,0,0:0:0:0:
128,64,35627,1,0,0:0:0:0:
320,192,35993,5,0,0:0:0:0:
320,256,36176,1,0,0:0:0:0:
320,320,36359,1,0,0:0:0:0:
256,320,36542,1,0,0:0:0:0:
128,96,37640,1,0,0:0:0:0:
160,96,37823,1,0,0:0:0:0:
192,96,38006,1,0,0:0:0:0:
224,96,38189,1,0,0:0:0:0:
256,96,38372,1,0,0:0:0:0:
192,96,39287,5,0,0:0:0:0:
160,96,39653,1,0,0:0:0:0:
128,96,40202,1,0,0:0:0:0:
96,128,40934,1,0,0:0:0:0:
128,160,41667,1,0,0:0:0:0:
320,128,42399,5,0,0:0:0:0:
352,128,42765,1,0,0:0:0:0:
384,128,43314,1,0,0:0:0:0:
416,128,44229,1,0,0:0:0:0:
128,128,45876,5,0,0:0:0:0:
128,160,46425,1,0,0:0:0:0:
128,192,47157,1,0,0:0:0:0:
128,224,47706,1,0,0:0:0:0:
128,256,48073,1,0,0:0:0:0:
160,288,48439,1,0,0:0:0:0:
192,288,49171,1,0,0:0:0:0:
224,256,50086,1,0,0:0:0:0:
224,224,51184,1,0,0:0:0:0:
224,192,51733,1,0,0:0:0:0:
256,192,52831,12,0,56858,0:0:0:0:
