osu file format v5

[General]
AudioFilename: The iDOLM@STER - Go My Way!!.mp3
AudioLeadIn: 0
PreviewTime: -1
Countdown: 1
SampleSet: Normal
StackLeniency: 0.7
Mode: 0
LetterboxInBreaks: 1
EditorBookmarks: 13166,21331,56078
EditorDistanceSpacing: 1.20000004768372

[Metadata]
Title:Go My Way!!
Artist:The iDOLM@STER
Creator:al2e10
Version:Normal
Source:
Tags:

[Difficulty]
HPDrainRate:3
CircleSize:4
OverallDifficulty:3
SliderMultiplier:1.2
SliderTickRate:2

[Events]
//Background and Video events
Video,0,"gmw 30 700.avi"
0,0,"Kawapaper_idolmaster_0000079_1280x768.jpg"
//Break Periods
2,24603,33796
//Storyboard Layer 0 (Background)
//Storyboard Layer 1 (Fail)
//Storyboard Layer 2 (Pass)
//Storyboard Layer 3 (Foreground)
//Storyboard Sound Samples
//Background Colour Transformations
3,100,0,0,0

[TimingPoints]
13737,333.333333333333,4,1,0,100,1,0
35235,-100,4,2,0,79,0,0
45408,-100,4,2,0,79,0,0
65737,-100,4,2,1,100,0,0
66570,-100,4,1,0,64,0,0
79570,-100,4,1,0,0,0,0
79820,-100,4,1,0,66,0,0

[Colours]
Combo1 : 255,255,128
Combo2 : 255,128,255
Combo3 : 128,255,255
Combo4 : 255,255,255

[HitObjects]
256,192,11487,1,4
432,224,13403,6,0,B|384:160|448:112,1,120
152,88,14737,2,0,B|104:40|24:88,1,120
136,296,15903,2,0,B|88:248|24:280,1,120
176,96,17070,5,0
176,192,17403,1,0
272,192,17737,1,4
416,192,18237,1,2
48,352,19070,6,0,B|128:336|128:256,1,120
240,272,19737,1,0
336,192,20070,1,0
224,144,20403,1,4
48,112,20903,1,4
256,192,21403,12,4,24403
256,64,35236,6,0,B|368:80|400:192,2,180,0|2|0
128,64,36570,5,0
128,176,36903,2,0,B|128:256,1,60
240,192,37403,2,0,B|240:272,1,60,0|2
376,288,37903,6,0,B|440:240,3,60
424,104,38737,2,0,B|504:104,1,60
432,152,39070,2,0,B|352:152,4,60,2|0|2|0|2
432,296,40070,1,4
384,224,40570,6,0,B|384:32,1,180,0|2
256,48,41403,2,0,B|256:112,1,60
144,48,41903,2,0,B|144:128,3,60,0|2|0|2
80,208,42737,5,0
192,208,43070,2,0,B|272:240|288:304,2,120,2|0|2
80,64,44237,1,2
192,64,44570,2,4,B|240:64|240:112,3,60,0|8|0|8
256,192,45403,12,0,46737
64,192,47237,6,0,B|48:64|176:128,2,180,0|2|0
192,64,48570,2,0,B|240:64|256:96,3,60,0|2|0|2
336,176,49403,1,0
336,176,49570,1,0
384,208,49737,2,2,B|336:288|256:336|112:304|80:192,1,360
280,112,51237,6,0,B|368:88|344:0,1,120,0|2
280,32,51736,1,0
152,96,52070,2,0,B|152:144|208:136,1,60
184,280,52570,2,0,B|104:280,3,60
64,144,53403,1,0
176,144,53737,5,4
272,80,54070,1,0
368,144,54403,1,4
368,144,54570,1,0
480,144,54903,1,0
384,224,55237,5,4
320,224,55403,1,0
256,224,55570,1,4
192,224,55737,1,4
192,48,56736,5,0
64,48,57070,1,8
96,160,57403,2,0,B|128:240|208:144,1,120,0|2
192,48,58070,1,8
304,48,58403,2,0,B|352:112|352:176,2,120,0|2|8
208,120,59403,1,0
312,224,59737,2,0,B|256:280|344:320,1,120,0|8
408,336,60237,2,0,B|472:280|368:240,1,120,0|2
488,152,60903,5,0
368,72,61237,1,2
312,200,61570,1,0
136,328,62070,5,0
72,200,62403,2,0,B|40:120|88:72,1,120,0|2
128,64,62903,1,4
224,128,63237,2,0,B|256:144|272:96,1,60
360,64,63737,6,0,B|424:128|376:192,2,120,0|2|0
240,216,65070,2,0,B|208:264|240:296,3,60,0|2|0|2
416,336,66570,5,0
288,336,66903,2,0,B|240:336|240:304,1,60,0|8
128,336,67403,2,0,B|160:320|176:288,2,60,4|0|12
48,240,68070,1,0
48,176,68237,2,0,B|144:128|128:16,1,180,0|12
256,32,69070,6,0,B|224:112|304:144,2,120,4|0|4
288,272,70403,2,0,B|192:192|112:192,1,180,0|4
192,288,71237,1,2
368,224,71737,6,0,B|400:160|368:80,1,120,0|2
240,64,72403,2,8,B|288:128|208:128|272:192,1,120
112,192,73070,2,0,B|48:144|16:224,1,120,0|2
88,280,73737,2,0,B|216:280,3,120,12|8|4|0
256,192,75070,12,0,76737
256,48,77070,6,0,B|192:80|176:144,1,120,0|2
224,152,77570,2,0,B|288:184|288:264,1,120,0|2
256,192,78070,12,0,79570
208,128,79903,5,0
256,128,80070,1,0
288,96,80236,2,0,B|368:160|304:272,1,180,0|2
144,80,81236,5,0
96,112,81403,1,0
48,80,81570,2,0,B|0:192|80:256,1,180,0|2
208,128,82570,5,2
208,192,82736,1,0
208,256,82903,1,2
384,256,83403,6,0,B|432:192|384:128,2,120,0|4|0
256,256,84403,2,4,B|256:192,3,60,0|8|4|8
16,256,85570,6,0,B|16:176,1,60,0|4
112,256,86070,1,4
224,256,86403,2,0,B|256:192|224:128,1,120,0|6
352,144,87070,1,0
352,144,87236,1,0
352,256,87570,1,6
176,320,88070,6,0,B|128:256|176:208,2,120,0|8|0
288,320,89070,2,4,B|336:256|304:208,1,120,8|0
384,288,89736,2,0,B|432:256|416:224,1,60,8|0
384,128,90236,1,6
256,112,90570,6,0,B|256:192,2,60
80,112,91403,1,6
80,288,91903,6,0,B|80:368,2,60
256,304,92736,1,6
432,272,93236,6,0,B|432:208,2,60
256,240,94070,1,0
160,160,94403,2,0,B|96:144|80:64,1,120,0|2
192,112,95070,2,0,B|272:112,1,60
368,112,95570,1,4
192,272,96236,6,0,B|192:352,1,60
304,272,96736,1,2
400,208,97070,2,0,B|448:144|400:80,1,120
336,192,97736,2,0,B|304:144|336:128,1,60
264,208,98236,1,2
160,256,98736,6,0,B|128:192|176:144,2,120,0|4|0
64,192,99736,1,4
64,304,100070,1,4
256,192,100403,12,0,103070
