osu file format v6

[General]
AudioFilename: 01. Ash Like Snow.MP3
AudioLeadIn: 0
PreviewTime: -1
Countdown: 1
SampleSet: Soft
StackLeniency: 0.7
Mode: 1
LetterboxInBreaks: 1

[Editor]
DistanceSpacing: 0.800000011920929
BeatDivisor: 4
GridSize: 16

[Metadata]
Title:Ash Like Snow
Artist:The brilliant green
Creator:climbb65588
Version:Taiko Oni
Source:
Tags:

[Difficulty]
HPDrainRate:5
CircleSize:5
OverallDifficulty:4
SliderMultiplier:1.4
SliderTickRate:1

[Events]
//Background and Video events
0,0,"BackGround.png"
//Break Periods
//Storyboard Layer 0 (Background)
//Storyboard Layer 1 (Fail)
//Storyboard Layer 2 (Pass)
//Storyboard Layer 3 (Foreground)
//Storyboard Sound Samples
//Background Colour Transformations
3,100,163,162,255

[TimingPoints]
3307,361.01083032491,4,2,0,100,1,0
49155,-100,4,2,0,100,0,1
72621,-100,4,2,0,100,0,0

[HitObjects]
224,240,3306,1,0
272,272,3668,1,8
224,240,3848,1,0
224,240,4029,1,8
224,240,4390,1,0
224,240,4570,1,8
224,240,4751,1,0
224,240,4931,1,8
224,240,5112,1,0
240,256,5473,1,8
224,240,5653,1,8
224,288,5743,1,8
224,240,5834,1,0
224,304,6014,1,8
224,240,6195,1,0
224,240,6375,1,8
224,240,6556,1,0
224,240,6917,1,8
304,320,7278,1,0
256,288,7458,1,8
256,288,7639,1,0
256,288,7819,1,8
256,288,7909,1,8
256,288,8000,1,8
256,288,8180,1,8
256,288,8361,1,0
256,288,8541,1,8
256,288,8722,1,0
256,336,9083,1,4
256,336,9444,1,4
256,336,9805,1,12
256,336,10166,1,0
256,336,10346,1,8
256,336,10527,1,0
256,336,10707,1,8
256,336,10888,1,0
256,336,11249,1,8
256,336,11429,1,8
256,336,11519,1,8
256,336,11610,1,0
256,336,11790,1,8
256,336,11971,1,0
256,336,12151,1,8
256,336,12332,1,0
256,208,12693,1,8
256,336,13054,1,0
256,288,13234,1,8
240,288,13325,1,8
224,304,13415,1,8
224,304,13595,1,8
224,304,13776,1,0
224,256,13956,1,8
224,304,14137,1,8
224,256,14317,1,8
224,304,14498,1,8
224,272,14588,1,8
224,304,14678,1,0
224,304,14769,1,0
240,320,14859,1,8
256,256,15039,1,0
256,256,15220,1,8
256,256,15400,1,0
256,256,15491,1,0
256,256,15581,1,8
256,256,15761,1,0
256,256,15942,1,8
256,256,16122,1,0
256,256,16303,1,8
256,256,16483,1,8
256,256,16664,1,8
256,256,16844,1,0
256,256,16935,1,0
256,256,17025,1,8
256,256,17205,1,0
256,256,17386,1,8
256,256,17566,1,0
256,256,17747,1,8
288,320,17927,1,0
288,288,18018,1,0
272,272,18108,1,8
288,288,18198,1,8
288,288,18288,1,0
288,288,18469,1,8
288,288,18649,1,8
320,304,18740,1,8
288,288,18830,1,8
288,288,19010,1,8
288,288,19191,1,0
272,272,19371,1,8
256,336,19552,1,4
288,240,19913,1,12
256,336,20274,1,8
256,304,20455,1,8
256,240,20545,1,8
304,224,20635,1,8
256,304,20816,1,8
256,304,20996,1,0
256,272,21177,1,8
256,272,21357,1,0
256,304,21538,1,0
256,304,21628,1,0
256,304,21718,1,8
256,304,21899,1,0
256,304,22079,1,8
256,304,22260,1,0
256,304,22440,1,8
256,304,22621,1,8
256,304,22801,1,12
256,304,23162,1,4
256,304,23523,1,12
256,304,23704,1,0
256,304,23794,1,8
256,304,23884,1,8
256,304,24065,1,8
288,336,24245,1,0
208,272,24606,1,8
288,336,24967,1,0
256,304,25148,1,8
256,304,25238,1,8
208,288,25328,1,8
256,304,25509,1,8
272,320,25689,1,0
256,304,25870,1,0
256,304,25960,1,0
256,304,26050,1,8
256,304,26140,1,8
256,304,26231,1,0
256,304,26411,1,12
256,304,26592,1,0
256,304,26772,1,0
256,304,26953,1,0
256,304,27133,1,8
256,304,27314,1,8
192,304,27494,1,0
192,304,27675,1,0
192,304,27855,2,0,B|480:304,1,280
432,272,28758,1,0
368,288,28938,1,8
336,288,29029,1,8
320,272,29119,1,0
288,320,29299,1,8
288,320,29480,1,0
288,320,29660,1,12
288,320,30021,1,4
288,320,30382,1,8
288,320,30563,1,0
288,320,30743,1,8
288,320,30924,1,0
256,272,31104,1,8
256,272,31285,1,8
256,272,31375,1,8
256,272,31465,1,0
256,272,31646,1,0
256,272,31826,1,8
256,272,32007,1,8
272,320,32187,1,8
256,288,32278,1,8
256,288,32368,1,0
256,288,32458,1,0
256,288,32548,1,8
256,288,32729,1,0
256,288,32909,1,8
256,288,33090,1,8
256,288,33270,1,8
256,288,33631,1,8
256,288,33812,1,0
256,288,33992,1,0
256,288,34173,1,0
256,288,34263,1,0
256,288,34353,1,8
192,304,34534,1,0
256,288,34714,1,8
208,304,34895,1,8
256,288,35075,1,8
160,320,35436,1,0
256,288,35797,1,8
192,384,36158,1,0
240,304,36519,1,8
224,320,36700,1,0
224,320,36790,1,0
256,288,36881,1,0
256,288,37061,1,0
256,288,37242,1,8
256,288,37332,1,8
240,304,37422,1,8
240,304,37512,1,8
240,304,37603,1,8
240,304,37693,1,8
208,272,37783,1,8
176,224,37964,1,4
240,320,38325,1,8
128,320,38686,1,8
192,320,38866,1,0
240,320,39047,1,8
192,320,39227,1,8
224,320,39317,1,8
224,320,39408,1,8
224,320,39588,1,0
224,320,39769,1,0
224,320,39949,1,8
224,320,40130,1,0
176,352,40310,1,8
208,336,40400,1,8
208,336,40491,1,0
192,320,40671,1,8
192,320,40852,1,0
192,320,41032,1,8
192,320,41122,1,8
176,352,41213,1,0
208,336,41303,1,0
208,336,41393,1,8
192,320,41574,1,0
192,320,41754,1,8
192,320,41935,1,0
160,272,42115,2,0,B|96:192|352:208|256:288,1,210
192,240,42837,1,0
192,240,43018,1,0
80,176,43198,1,8
144,224,43288,1,8
112,192,43379,1,0
144,224,43559,1,8
176,240,43740,1,0
224,272,43921,1,0
224,272,44101,1,8
176,240,44281,1,0
176,240,44462,1,0
176,240,44552,1,0
176,240,44642,1,8
176,240,44823,1,0
176,240,45003,1,12
176,240,45364,1,8
176,240,45455,1,8
176,272,45545,1,0
192,288,45635,1,0
176,240,45725,1,0
176,272,45906,1,0
176,272,46086,1,8
208,336,46267,1,0
192,304,46447,1,8
176,272,46538,1,8
192,288,46628,1,0
192,304,46808,1,0
192,304,46989,1,8
192,304,47169,1,8
192,304,47350,1,0
192,304,47530,1,0
192,304,47621,1,0
192,304,47711,1,8
256,208,48072,12,0,48794
208,240,49155,5,8
176,256,49245,1,8
144,240,49335,1,8
176,256,49426,1,8
176,256,49516,1,8
144,240,49696,1,0
144,240,49877,1,8
160,208,49967,1,8
144,240,50057,1,0
144,240,50238,1,8
160,208,50418,1,0
160,208,50599,1,8
160,208,50779,1,0
160,208,50960,1,8
160,208,51321,1,8
160,208,51501,1,0
160,208,51592,1,0
160,208,51682,1,8
160,208,51862,1,0
160,208,52043,1,8
160,208,52223,1,0
144,272,52404,1,8
160,224,52584,1,8
144,256,52675,1,8
144,272,52765,1,0
160,192,52945,1,8
192,240,53126,1,12
208,352,53487,1,12
192,256,53848,1,0
192,256,54029,1,8
192,256,54119,1,8
192,256,54209,1,8
192,256,54390,1,8
192,256,54570,1,0
192,256,54751,1,8
208,272,54841,1,8
192,256,54931,1,0
208,288,55021,1,0
208,288,55112,1,8
208,272,55292,1,12
208,272,55653,1,4
208,272,56014,1,8
208,272,56195,1,8
208,272,56285,1,8
208,272,56375,1,0
208,272,56556,1,8
208,272,56736,1,0
208,272,56917,1,0
208,304,57007,1,0
208,272,57098,1,8
208,304,57278,1,0
224,256,57458,2,0,B|144:176|400:192|448:208,1,280
384,224,58361,1,8
352,240,58451,1,8
336,240,58541,1,0
272,272,58722,1,0
240,320,58902,1,8
272,272,59083,1,8
288,224,59263,1,8
256,304,59353,1,8
256,272,59444,1,0
256,304,59534,1,0
256,320,59624,1,8
256,304,59805,1,0
256,304,59985,1,0
256,304,60346,1,8
240,240,60527,1,0
240,272,60617,1,0
256,304,60707,1,0
240,272,60888,1,0
240,272,61068,1,8
240,272,61249,1,0
240,272,61339,1,0
240,272,61430,1,8
240,272,61610,1,8
224,320,61790,1,8
224,320,61971,1,0
224,320,62151,1,8
240,272,62332,1,8
240,272,62422,1,8
240,272,62512,1,8
240,272,62693,1,8
240,272,62873,1,0
240,272,63234,1,8
240,272,63415,1,0
240,272,63505,1,0
304,368,63595,1,8
240,272,63776,1,0
240,320,63956,1,8
240,320,64137,1,0
240,320,64227,1,0
240,320,64317,1,8
240,320,64498,1,0
240,320,64678,1,8
240,336,64859,1,0
240,336,65039,1,8
240,336,65220,1,8
240,320,65310,1,8
240,320,65400,1,0
224,288,65491,1,0
224,288,65581,1,8
240,320,65761,1,8
240,320,65942,1,0
240,320,66122,1,8
240,320,66213,1,8
240,320,66303,1,8
240,320,66393,1,8
240,320,66483,1,8
240,336,66574,1,8
240,320,66664,1,8
240,320,66844,1,4
240,320,67025,1,8
240,320,67205,1,0
240,336,67386,1,0
240,336,67476,1,0
208,288,67566,1,8
224,336,67747,1,0
224,352,67927,1,8
224,352,68108,1,0
224,352,68198,1,0
224,352,68288,1,8
224,352,68469,1,0
224,352,68649,1,8
224,352,68830,1,0
224,352,69010,1,8
224,352,69191,1,8
224,352,69371,1,8
224,352,69552,1,0
224,352,69732,1,8
272,336,69913,1,8
288,320,70003,1,8
272,336,70094,1,8
272,336,70274,1,8
272,336,70455,1,0
272,336,70545,1,0
272,336,70635,1,8
272,336,70725,1,8
272,336,70816,1,0
272,336,70996,1,0
272,336,71177,1,8
272,336,71357,1,8
272,336,71538,1,8
256,288,71718,1,0
272,336,71899,1,8
272,336,71989,1,8
272,336,72079,1,8
272,336,72169,1,8
272,336,72260,1,8
272,336,72440,1,0
272,336,72621,1,0
272,336,72802,1,8
272,336,72982,1,0
272,336,73162,1,0
272,304,73252,1,0
288,256,73343,1,8
272,304,73704,1,0
272,304,73884,1,8
272,304,74065,1,0
272,304,74245,1,8
272,304,74425,1,0
160,272,74787,1,8
128,224,74967,1,8
128,224,75057,1,8
128,224,75148,1,0
128,224,75328,1,8
128,224,75509,1,0
128,224,75689,1,8
128,224,75869,1,0
192,320,76231,1,8
112,240,76592,1,0
144,272,76772,1,8
176,304,76862,1,8
144,256,76953,1,0
160,288,77133,1,8
176,304,77314,1,0
176,304,77495,1,8
176,304,77675,1,8
176,304,77856,1,0
176,304,77945,1,0
176,304,78036,1,0
176,304,78127,1,0
176,304,78216,1,0
176,304,78307,1,0
208,304,78397,1,8
208,304,78577,1,0
208,304,78758,1,8
208,304,78938,1,0
208,304,79029,1,0
208,304,79119,1,8
208,304,79299,1,0
176,304,79480,1,12
176,304,79841,1,12
176,304,80202,1,8
176,304,80563,1,0
208,304,80743,1,8
208,304,80834,1,8
176,304,80924,1,0
208,304,81104,1,8
176,304,81285,1,0
176,304,81465,1,0
176,304,81556,1,0
176,304,81646,1,0
176,304,81826,1,0
176,304,82007,1,8
208,304,82187,1,0
208,304,82368,1,0
208,304,82548,1,8
208,304,82639,1,8
208,304,82729,1,0
208,304,82909,1,0
208,304,83090,1,8
208,304,83270,1,0
208,304,83451,1,0
208,304,83631,1,8
208,304,83722,1,8
208,304,83812,1,0
208,304,83902,1,0
208,304,83992,1,0
208,304,84083,1,0
208,304,84173,1,0
