osu file format v13

[General]
AudioFilename: Video Games - The Young Professionals (Lana Del Rey Cover).mp3
AudioLeadIn: 0
PreviewTime: 56172
Countdown: 0
SampleSet: None
StackLeniency: 0.7
Mode: 0
LetterboxInBreaks: 0
WidescreenStoryboard: 1

[Editor]
DistanceSpacing: 1.2
BeatDivisor: 4
GridSize: 4
TimelineZoom: 1

[Metadata]
Title:Videogames
TitleUnicode:Videogames
Artist:The Young Professionals
ArtistUnicode:The Young Professionals
Creator:-Dave Strider-
Version:Final Boss!
Source:
Tags:
BeatmapID:462424
BeatmapSetID:194774

[Difficulty]
HPDrainRate:6
CircleSize:4
OverallDifficulty:5
ApproachRate:7
SliderMultiplier:1.4
SliderTickRate:1

[Events]
//Background and Video events
0,0,"tumblr_m2v3n79MrG1qbliizo1_500.png",0,0
//Break Periods
2,46507,49420
2,87692,90182
2,119266,122180
2,185150,192288
//Storyboard Layer 0 (Background)
//Storyboard Layer 1 (Fail)
//Storyboard Layer 2 (Pass)
//Storyboard Layer 3 (Foreground)
//Storyboard Sound Samples
//Background Colour Transformations
3,100,163,162,255

[TimingPoints]
6706.22516418597,422.416220782878,4,2,0,100,1,0
57184,422.416220782878,4,2,0,100,1,1
87914,422.416220782878,4,2,0,100,1,0
130024,422.416220782878,4,2,0,100,1,1
160240,422.416220782878,4,2,0,100,1,0
194160,422.416220782878,4,2,0,100,1,1
224362,422.416220782878,4,2,0,100,1,0

[Colours]
Combo1 : 255,128,0
Combo2 : 0,0,255
Combo3 : 255,0,0
Combo4 : 0,255,0

[HitObjects]
88,104,18217,6,0,P|136:112|168:104,2,70,0|0|0,0:0|0:0|0:0,0:0:0:0:
240,104,18850,2,0,P|292:88|332:104,1,70
376,136,19273,1,0,0:0:0:0:
384,224,19484,1,0,0:0:0:0:
320,276,19695,2,0,P|276:292|228:288,1,70
176,260,20117,5,0,0:0:0:0:
176,260,20223,1,0,0:0:0:0:
176,260,20329,2,0,P|140:216|136:192,1,70
184,144,20751,2,0,P|220:104|220:88,1,70
296,64,21173,2,0,P|336:88|360:80,1,70
416,140,21596,1,0,0:0:0:0:
408,224,21807,5,0,0:0:0:0:
408,224,21913,1,0,0:0:0:0:
408,224,22018,2,0,P|368:252|324:248,2,70,0|0|0,0:0|0:0|0:0,0:0:0:0:
336,152,22652,1,0,0:0:0:0:
336,152,22863,1,0,0:0:0:0:
256,164,23074,2,0,P|204:188|176:188,1,70
176,264,23497,5,0,0:0:0:0:
176,264,23602,1,0,0:0:0:0:
176,264,23708,2,0,P|220:276|252:280,1,70
328,284,24130,1,0,0:0:0:0:
328,284,24342,2,0,P|364:244|368:224,2,70,0|0|0,0:0|0:0|0:0,0:0:0:0:
116,88,25186,5,0,0:0:0:0:
116,88,25292,1,0,0:0:0:0:
116,88,25398,2,0,L|116:168,1,70
172,208,25820,1,0,0:0:0:0:
236,244,26031,2,0,P|264:264|324:264,2,70,0|0|0,0:0|0:0|0:0,0:0:0:0:
248,172,26665,6,0,P|280:144|280:120,1,35
316,96,26982,2,0,P|344:72|356:72,1,35
420,124,27299,2,0,P|428:168|408:200,1,70
376,268,27721,1,0,0:0:0:0:
376,268,27932,1,0,0:0:0:0:
292,272,28143,5,0,0:0:0:0:
292,272,28249,1,0,0:0:0:0:
292,272,28355,2,0,P|216:248|208:236,1,70
168,204,28777,2,0,P|168:168|176:128,1,70
236,92,29199,2,0,P|272:104|308:96,2,70,0|0|0,0:0|0:0|0:0,0:0:0:0:
144,92,29833,5,0,0:0:0:0:
144,92,29939,1,0,0:0:0:0:
144,92,30044,2,0,P|96:136|68:136,1,70,0|0,0:0|0:0,0:0:0:0:
108,208,30467,2,0,P|144:232|176:236,1,70,0|0,0:0|0:0,0:0:0:0:
268,240,30889,5,0,0:0:0:0:
268,240,31100,2,0,P|288:200|288:160,1,70,0|0,0:0|0:0,0:0:0:0:
296,96,31523,1,0,0:0:0:0:
376,140,31734,2,0,P|384:184|376:208,3,70,0|0|0|0,0:0|0:0|0:0|0:0,0:0:0:0:
344,276,32579,1,0,0:0:0:0:
268,240,32790,6,0,P|248:200|228:172,1,70
164,168,33212,2,0,P|132:184|92:176,1,70
76,256,33635,1,0,0:0:0:0:
76,256,33740,1,0,0:0:0:0:
76,256,33846,2,0,P|120:280|148:280,1,70
216,280,34268,5,0,0:0:0:0:
292,260,34480,2,0,P|352:244|368:252,3,70,0|0|0|0,0:0|0:0|0:0|0:0,0:0:0:0:
424,200,35324,2,0,B|416:160|396:128|384:116,1,70
328,108,35747,2,0,P|276:124|248:116,1,70
168,140,36169,1,0,0:0:0:0:
168,140,36380,2,0,L|172:232,1,70
256,256,36803,6,0,P|308:264|336:248,1,70
384,200,37225,1,0,0:0:0:0:
384,200,37331,1,0,0:0:0:0:
384,200,37437,2,0,L|348:124,1,70
284,104,37859,1,0,0:0:0:0:
208,144,38070,1,0,0:0:0:0:
144,192,38281,1,0,0:0:0:0:
296,260,38704,6,0,L|356:196,1,70
376,144,39126,2,0,P|380:96|352:72,2,70,0|0|0,0:0|0:0|0:0,0:0:0:0:
292,68,39760,2,0,P|248:80|224:80,1,70
152,120,40182,1,0,0:0:0:0:
120,196,40393,2,0,P|164:224|200:224,1,70
260,252,40816,2,0,P|260:300|248:332,1,70,0|0,0:0|0:0,0:0:0:0:
332,296,41238,5,0,0:0:0:0:
332,296,41344,1,0,0:0:0:0:
332,296,41449,2,0,P|380:256|384:248,1,70
376,176,41872,2,0,P|320:176|296:168,1,70
224,156,42294,1,0,0:0:0:0:
140,168,42505,6,0,P|88:156|80:136,1,70
112,252,42928,2,0,P|48:268|40:280,1,70
104,332,43350,1,0,0:0:0:0:
192,328,43562,2,0,P|216:324|260:304,1,70
400,112,44829,6,0,P|392:160|376:172,2,70,0|0|0,0:0|0:0|0:0,0:0:0:0:
296,96,45462,2,0,P|272:140|280:172,1,70
328,216,45885,2,0,P|336:272|332:292,1,70
240,292,46307,1,0,0:0:0:0:
112,120,50320,6,0,P|152:136|196:136,1,70
256,160,50743,1,0,0:0:0:0:
328,200,50954,1,0,0:0:0:0:
388,260,51165,2,0,P|336:296|308:296,1,70
244,288,51587,1,0,0:0:0:0:
176,248,51799,2,0,P|156:216|136:188,1,70
208,136,52221,5,0,0:0:0:0:
208,136,52327,1,0,0:0:0:0:
208,136,52432,2,0,P|284:120|296:108,1,70
356,112,52855,1,0,0:0:0:0:
392,184,53066,1,0,0:0:0:0:
412,264,53277,2,0,P|376:288|340:296,2,70,8|8|8,0:0|0:0|0:0,0:0:0:0:
256,192,54016,12,0,55812,0:0:0:0:
164,104,56234,5,0,0:0:0:0:
276,104,56445,1,0,0:0:0:0:
384,104,56656,1,0,0:0:0:0:
400,184,56868,1,0,0:0:0:0:
400,184,56973,1,0,0:0:0:0:
400,184,57079,2,0,B|384:224|364:260|352:260,1,70
300,292,57500,6,0,P|260:272|228:276,1,70
160,256,57923,2,0,P|132:232|124:200,1,70,0|0,0:0|0:0,0:0:0:0:
172,132,58345,2,0,P|228:104|240:96,2,70,0|0|0,0:0|0:0|0:0,0:0:0:0:
216,196,58979,2,0,P|268:212|296:208,1,70
344,160,59401,2,0,L|396:232,1,70
408,300,59824,5,0,0:0:0:0:
408,300,59929,1,0,0:0:0:0:
408,300,60035,2,0,L|324:292,1,70
256,276,60457,1,0,0:0:0:0:
256,276,60668,2,0,L|196:240,1,70
164,168,61091,5,0,0:0:0:0:
220,104,61302,1,0,0:0:0:0:
300,92,61513,1,0,0:0:0:0:
372,140,61724,2,0,P|380:176|408:200,1,70
424,268,62147,2,0,P|388:304|344:312,1,70
328,248,62569,2,0,P|304:196|272:180,1,70
212,156,62992,5,0,0:0:0:0:
212,156,63097,1,0,0:0:0:0:
212,156,63203,2,0,P|152:168|124:152,2,70,0|0|0,0:0|0:0|0:0,0:0:0:0:
280,116,63837,1,0,0:0:0:0:
364,136,64048,2,0,P|380:184|368:216,1,70
336,264,64470,2,8,L|260:284,1,70,8|8,0:0|0:0,0:0:0:0:
204,228,64893,6,0,P|204:192|196:144,1,70
128,136,65315,2,0,L|72:204,1,70
96,272,65737,2,0,P|136:300|160:300,2,70,0|0|0,0:0|0:0|0:0,0:0:0:0:
236,280,66371,1,0,0:0:0:0:
236,280,66477,1,0,0:0:0:0:
236,280,66582,2,0,L|304:240,1,70
316,164,67005,5,0,0:0:0:0:
236,128,67216,1,0,0:0:0:0:
256,192,67427,12,0,68589,0:0:0:0:
152,108,68906,5,0,0:0:0:0:
152,108,69011,1,0,0:0:0:0:
152,108,69117,2,0,B|180:132|208:124|196:156,1,70
236,216,69539,1,0,0:0:0:0:
308,248,69750,1,0,0:0:0:0:
396,260,69962,6,0,P|416:220|424:176,1,70
352,168,70384,2,0,P|284:140|280:124,2,70,0|0|0,0:0|0:0|0:0,0:0:0:0:
148,84,71440,6,0,L|112:152,2,70,0|0|0,0:0|0:0|0:0,0:0:0:0:
228,112,72074,1,0,0:0:0:0:
288,180,72285,1,0,0:0:0:0:
348,232,72496,1,0,0:0:0:0:
348,232,72602,1,0,0:0:0:0:
348,232,72707,1,0,0:0:0:0:
276,264,72919,6,0,P|216:248|184:232,1,70
152,200,73341,1,0,0:0:0:0:
152,200,73447,1,0,0:0:0:0:
152,200,73552,1,0,0:0:0:0:
196,128,73763,2,0,P|236:108|284:100,2,70,0|0|0,0:0|0:0|0:0,0:0:0:0:
232,196,74397,5,0,0:0:0:0:
280,260,74608,2,0,P|336:276|356:272,1,70
392,196,75031,1,0,0:0:0:0:
344,136,75242,1,0,0:0:0:0:
296,76,75453,1,0,0:0:0:0:
216,104,75664,5,0,0:0:0:0:
216,104,75770,1,0,0:0:0:0:
216,104,75875,1,0,0:0:0:0:
188,180,76087,2,0,P|176:224|152:240,1,70
232,296,76509,2,0,P|308:308|312:308,3,70,0|0|0|0,0:0|0:0|0:0|0:0,0:0:0:0:
388,288,77354,1,0,0:0:0:0:
368,208,77565,5,0,0:0:0:0:
368,208,77671,1,0,0:0:0:0:
368,208,77776,2,0,B|348:160|344:144|332:128|320:124,1,70
260,136,78199,1,0,0:0:0:0:
168,164,78410,6,0,P|124:208|108:208,1,70
220,220,78832,2,0,P|220:264|244:288,1,70
320,296,79255,1,0,0:0:0:0:
400,296,79466,1,0,0:0:0:0:
420,216,79677,2,0,P|384:180|368:156,1,70
288,128,80100,5,0,0:0:0:0:
288,128,80311,2,0,L|216:128,1,70
148,164,80733,1,0,0:0:0:0:
148,164,80839,1,0,0:0:0:0:
148,164,80944,2,0,P|184:224|200:228,3,70,0|0|0|0,0:0|0:0|0:0|0:0,0:0:0:0:
244,264,81789,1,0,0:0:0:0:
328,268,82000,5,0,0:0:0:0:
400,224,82212,2,0,P|376:172|360:144,1,70,0|0,0:0|0:0,0:0:0:0:
292,132,82634,1,0,0:0:0:0:
216,132,82845,1,0,0:0:0:0:
148,184,83056,5,0,0:0:0:0:
148,184,83162,1,0,0:0:0:0:
148,184,83268,2,0,P|160:232|184:248,1,70
252,268,83690,1,0,0:0:0:0:
336,268,83901,1,0,0:0:0:0:
256,192,84218,12,0,85590,0:0:0:0:
120,104,86225,5,0,0:0:0:0:
192,160,86436,1,0,0:0:0:0:
260,220,86647,1,0,0:0:0:0:
352,252,86858,2,0,P|392:240|396:208,2,70,0|0|0,0:0|0:0|0:0,0:0:0:0:
320,180,87492,1,0,0:0:0:0:
136,116,91082,5,0,0:0:0:0:
136,116,91187,1,0,0:0:0:0:
136,116,91293,1,0,0:0:0:0:
192,168,91504,2,0,P|248:192|276:192,1,70
336,212,91926,2,0,P|368:248|360:280,1,70
288,272,92349,6,0,L|208:252,1,70
144,216,92771,1,0,0:0:0:0:
144,216,92877,1,0,0:0:0:0:
144,216,92982,2,0,L|136:144,1,70
208,108,93405,1,0,0:0:0:0:
292,108,93616,5,0,0:0:0:0:
292,108,93722,1,0,0:0:0:0:
292,108,93827,2,0,P|312:148|336:156,2,70,0|0|0,0:0|0:0|0:0,0:0:0:0:
408,128,94461,2,0,P|416:172|396:216,1,70
352,244,94883,6,0,B|288:260|280:260|260:276|260:280,2,70,0|0|0,0:0|0:0|0:0,0:0:0:0:
404,188,95517,2,0,L|340:148,1,70,0|0,0:0|0:0,0:0:0:0:
264,136,95939,1,0,0:0:0:0:
264,136,96045,1,0,0:0:0:0:
264,136,96151,2,0,P|224:160|196:164,1,70
132,204,96573,1,0,0:0:0:0:
180,256,96784,6,0,P|216:276|248:272,1,70
328,264,97207,1,0,0:0:0:0:
328,264,97418,1,0,0:0:0:0:
412,120,97840,6,0,P|364:84|340:68,1,70,0|0,0:0|0:0,0:0:0:0:
304,132,98263,2,0,P|252:168|236:168,1,70
184,120,98685,2,0,P|120:132|96:140,1,70
116,208,99108,1,0,0:0:0:0:
116,208,99213,1,0,0:0:0:0:
116,208,99319,1,0,0:0:0:0:
196,232,99530,6,0,P|244:280|244:288,1,70
328,280,99952,1,0,0:0:0:0:
408,280,100164,1,0,0:0:0:0:
420,196,100375,1,0,0:0:0:0:
420,196,100480,1,0,0:0:0:0:
420,196,100586,2,0,P|384:152|376:136,1,70
308,112,101008,5,0,0:0:0:0:
244,136,101220,2,0,P|192:156|176:144,2,70,0|0|0,0:0|0:0|0:0,0:0:0:0:
220,60,101853,1,0,0:0:0:0:
128,80,102064,1,0,0:0:0:0:
124,164,102276,1,0,0:0:0:0:
184,116,104493,5,0,0:0:0:0:
184,116,104599,1,0,0:0:0:0:
184,116,104705,1,0,0:0:0:0:
244,156,104916,2,0,P|276:200|284:216,1,70
352,256,105338,2,0,L|288:304,1,70,0|0,0:0|0:0,0:0:0:0:
216,296,105761,2,0,P|152:288|136:272,2,70,0|0|0,0:0|0:0|0:0,0:0:0:0:
108,216,106394,5,0,0:0:0:0:
124,140,106605,1,0,0:0:0:0:
196,88,106817,1,0,0:0:0:0:
196,88,106922,1,0,0:0:0:0:
196,88,107028,1,0,0:0:0:0:
264,124,107239,2,0,P|304:152|332:156,1,70
416,192,107661,6,0,P|392:256|344:288,1,105
288,288,108189,1,0,0:0:0:0:
208,284,108401,1,0,0:0:0:0:
136,240,108612,1,0,0:0:0:0:
136,240,108823,2,0,P|120:192|120:144,2,70,0|0|0,0:0|0:0|0:0,0:0:0:0:
216,200,109457,6,0,P|248:144|240:132,1,70
296,88,109879,1,0,0:0:0:0:
296,88,110090,1,0,0:0:0:0:
352,136,110302,2,0,P|380:180|412:208,1,70
432,264,110724,2,0,P|416:296|384:312,1,70
212,200,111463,5,0,0:0:0:0:
212,200,111674,2,0,L|160:140,1,70
196,76,112097,1,0,0:0:0:0:
196,76,112202,1,0,0:0:0:0:
196,76,112308,1,0,0:0:0:0:
272,112,112519,6,0,L|320:176,1,70
372,220,112942,1,0,0:0:0:0:
352,300,113153,1,0,0:0:0:0:
352,300,113258,1,0,0:0:0:0:
352,300,113364,2,0,P|296:292|280:276,1,70
200,280,113786,6,0,P|144:288|128:272,1,70
152,208,114209,2,0,P|216:168|220:164,1,70,0|0,0:0|0:0,0:0:0:0:
276,120,114631,1,0,0:0:0:0:
276,120,114843,1,0,0:0:0:0:
348,168,115054,2,0,P|388:200|412:208,1,70
392,292,115476,5,0,0:0:0:0:
312,288,115687,1,0,0:0:0:0:
244,248,115899,2,0,P|196:240|168:228,2,70,0|0|0,0:0|0:0|0:0,0:0:0:0:
312,192,116532,1,0,0:0:0:0:
120,96,117694,6,0,P|168:116|192:112,2,70,0|0|0,0:0|0:0|0:0,0:0:0:0:
96,172,118327,1,0,0:0:0:0:
140,240,118539,1,0,0:0:0:0:
204,288,118750,2,0,P|252:296|240:256,1,105
144,96,123080,5,0,0:0:0:0:
192,156,123291,2,0,P|228:188|256:192,1,70
328,208,123713,1,0,0:0:0:0:
408,232,123924,2,0,P|444:272|448:292,1,70
376,320,124347,1,0,0:0:0:0:
292,320,124558,1,0,0:0:0:0:
216,272,124769,5,0,0:0:0:0:
216,272,124875,1,0,0:0:0:0:
216,272,124981,1,0,0:0:0:0:
156,220,125192,2,0,P|124:176|140:160,1,70
192,120,125614,1,0,0:0:0:0:
276,104,125825,1,0,0:0:0:0:
348,152,126037,6,0,P|364:188|392:208,1,70
440,264,126459,2,0,P|432:308|408:320,1,70
340,296,126881,1,0,0:0:0:0:
340,296,126987,1,0,0:0:0:0:
340,296,127093,2,0,P|296:292|268:276,1,70
212,228,127515,1,0,0:0:0:0:
160,168,127726,1,0,0:0:0:0:
208,104,127937,6,14,P|260:88|268:68,1,70
416,144,128993,5,0,0:0:0:0:
384,224,129205,1,0,0:0:0:0:
344,304,129416,1,0,0:0:0:0:
268,272,129627,1,0,0:0:0:0:
268,272,129733,1,0,0:0:0:0:
268,272,129838,1,0,0:0:0:0:
192,224,130024,6,0,L|172:144,1,70,0|0,0:0|0:0,0:0:0:0:
224,88,130446,2,0,P|292:80|312:64,1,70
368,96,130868,1,0,0:0:0:0:
408,164,131080,1,0,0:0:0:0:
424,248,131291,1,0,0:0:0:0:
424,248,131396,1,0,0:0:0:0:
424,248,131502,2,0,P|368:264|344:260,1,70
288,224,131924,5,0,0:0:0:0:
224,272,132136,1,0,0:0:0:0:
156,232,132347,2,0,P|144:176|144:148,1,70
232,156,132769,2,0,P|268:108|268:76,1,70
356,96,133192,1,0,0:0:0:0:
420,136,133403,1,0,0:0:0:0:
396,208,133614,1,0,0:0:0:0:
336,272,133825,5,0,0:0:0:0:
336,272,133931,1,0,0:0:0:0:
336,272,134036,1,0,0:0:0:0:
296,200,134248,2,0,P|288:148|272:120,1,70
208,128,134670,2,0,P|160:136|136:124,1,70
100,192,135092,1,0,0:0:0:0:
144,252,135304,1,0,0:0:0:0:
208,296,135515,6,0,P|280:304|304:300,2,70,0|0|0,0:0|0:0|0:0,0:0:0:0:
256,224,136149,2,0,P|284:160|276:132,1,70,0|0,0:0|0:0,0:0:0:0:
224,108,136571,1,0,0:0:0:0:
224,108,136677,1,0,0:0:0:0:
224,108,136782,1,0,0:0:0:0:
152,132,136993,2,0,L|104:184,1,70
144,252,137416,6,0,P|184:224|220:216,1,70
284,232,137838,1,0,0:0:0:0:
368,252,138049,2,0,P|416:252|436:240,2,70,0|0|0,0:0|0:0|0:0,0:0:0:0:
344,176,138683,1,0,0:0:0:0:
288,124,138894,2,0,B|252:108|224:100|224:80|204:104,1,70
152,144,139317,5,0,0:0:0:0:
152,144,139422,1,0,0:0:0:0:
152,144,139528,1,0,0:0:0:0:
160,228,139739,2,0,L|236:200,1,70
304,240,140161,2,0,P|352:236|368:200,1,70
360,136,140584,5,0,0:0:0:0:
360,136,140690,1,0,0:0:0:0:
360,136,140795,1,0,0:0:0:0:
284,112,141006,1,0,0:0:0:0:
212,136,141218,2,0,P|168:156|140:156,1,70
256,192,141746,12,0,143752,0:0:0:0:
104,100,144174,5,0,0:0:0:0:
104,100,144386,2,0,L|172:132,1,70
212,200,144808,2,0,L|156:260,1,70
244,288,145230,1,0,0:0:0:0:
244,288,145336,1,0,0:0:0:0:
244,288,145442,2,0,L|324:272,1,70
392,244,145864,5,0,0:0:0:0:
396,160,146075,2,0,P|388:120|344:96,1,70
304,164,146498,2,0,P|264:196|216:200,1,70
168,160,146920,1,0,0:0:0:0:
88,132,147131,1,0,0:0:0:0:
152,72,147343,1,0,0:0:0:0:
252,80,147554,6,0,P|308:52|336:48,1,70
376,108,147976,2,0,P|388:176|400:192,1,70
404,252,148399,1,0,0:0:0:0:
404,252,148504,1,0,0:0:0:0:
404,252,148610,1,0,0:0:0:0:
328,296,148821,5,0,0:0:0:0:
328,296,149032,2,0,P|276:268|248:264,1,70
188,212,149455,1,0,0:0:0:0:
188,212,149560,1,0,0:0:0:0:
188,212,149666,1,0,0:0:0:0:
168,132,149877,2,12,L|208:68,1,70
288,92,150299,5,0,0:0:0:0:
368,140,150511,1,0,0:0:0:0:
404,224,150722,2,0,P|356:256|312:256,1,70
256,248,151144,6,0,P|200:224|184:220,2,70,0|0|0,0:0|0:0|0:0,0:0:0:0:
256,164,151778,2,0,P|216:116|196:112,1,70
128,136,152200,1,0,0:0:0:0:
76,200,152412,1,0,0:0:0:0:
128,268,152623,1,0,0:0:0:0:
128,268,152728,1,0,0:0:0:0:
128,268,152834,1,0,0:0:0:0:
208,292,153045,6,0,P|248:268|288:256,1,70
284,192,153468,2,0,P|292:148|280:120,1,70
356,88,153890,1,0,0:0:0:0:
428,132,154101,1,0,0:0:0:0:
432,212,154312,2,0,P|412:268|396:272,1,70
332,280,154735,1,0,0:0:0:0:
260,240,154946,6,0,L|208:180,1,70
168,128,155368,1,0,0:0:0:0:
168,128,155580,1,0,0:0:0:0:
124,192,155791,1,0,0:0:0:0:
124,192,155896,1,0,0:0:0:0:
124,192,156002,1,0,0:0:0:0:
192,240,156213,6,0,P|240:228|336:248,2,140,0|0|0,0:0|0:0|0:0,0:0:0:0:
220,304,157269,1,0,0:0:0:0:
304,304,157481,1,0,0:0:0:0:
360,240,157692,2,0,P|376:180|352:152,1,70
312,116,158114,6,0,P|272:120|240:112,1,70
152,116,158537,1,0,0:0:0:0:
152,116,158642,1,0,0:0:0:0:
152,116,158748,1,0,0:0:0:0:
144,196,158959,6,0,L|144:268,1,70
224,272,159381,1,0,0:0:0:0:
304,256,159593,2,0,L|352:228,4,35,0|0|0|0|0,0:0|0:0|0:0|0:0|0:0,0:0:0:0:
268,180,160226,1,0,0:0:0:0:
112,88,162035,5,0,0:0:0:0:
140,120,162140,1,0,0:0:0:0:
172,144,162246,1,0,0:0:0:0:
212,156,162352,1,0,0:0:0:0:
248,140,162457,1,0,0:0:0:0:
276,116,162563,1,0,0:0:0:0:
308,96,162668,1,0,0:0:0:0:
348,96,162774,1,0,0:0:0:0:
376,136,162880,1,0,0:0:0:0:
384,180,162985,1,0,0:0:0:0:
384,216,163091,1,0,0:0:0:0:
360,248,163196,1,0,0:0:0:0:
312,256,163302,1,0,0:0:0:0:
264,252,163408,1,0,0:0:0:0:
224,244,163513,1,0,0:0:0:0:
188,232,163619,1,0,0:0:0:0:
120,184,163830,6,0,P|112:152|136:108,1,70
208,108,164252,2,0,P|252:116|276:104,1,70
348,128,164675,2,0,P|364:176|348:208,1,70
320,264,165097,1,0,0:0:0:0:
236,264,165308,1,0,0:0:0:0:
160,240,165520,2,0,P|128:192|120:176,2,70,0|0|0,0:0|0:0|0:0,0:0:0:0:
228,196,166153,6,0,P|232:136|224:108,1,70
304,92,166576,2,0,P|348:88|368:112,1,70
384,180,166998,1,0,0:0:0:0:
384,180,167104,1,0,0:0:0:0:
384,180,167209,1,0,0:0:0:0:
376,260,167421,2,0,P|340:292|316:296,1,70
248,264,167843,5,0,0:0:0:0:
212,196,168054,2,0,P|196:152|180:136,2,70,0|0|0,0:0|0:0|0:0,0:0:0:0:
164,264,168688,1,0,0:0:0:0:
88,264,168899,1,0,0:0:0:0:
72,192,169110,2,0,P|80:124|96:104,1,70
168,104,169533,5,0,0:0:0:0:
168,104,169638,1,0,0:0:0:0:
168,104,169744,1,0,0:0:0:0:
260,124,169955,2,0,P|296:136|336:128,3,70,0|0|0|0,0:0|0:0|0:0|0:0,0:0:0:0:
400,160,170800,1,0,0:0:0:0:
400,160,170906,1,0,0:0:0:0:
400,160,171011,2,0,P|400:204|368:240,1,70
312,256,171434,1,0,0:0:0:0:
232,256,171645,1,0,0:0:0:0:
152,216,171856,6,0,P|148:152|160:128,1,70
216,96,172278,1,0,0:0:0:0:
296,96,172490,1,0,0:0:0:0:
388,108,172701,2,0,P|416:156|408:196,1,70
372,236,173123,5,0,0:0:0:0:
372,236,173229,1,0,0:0:0:0:
372,236,173334,1,0,0:0:0:0:
300,280,173546,2,0,P|244:264|216:260,2,70,0|0|0,0:0|0:0|0:0,0:0:0:0:
276,192,174179,2,0,P|236:160|232:128,1,70
296,92,174602,5,0,0:0:0:0:
372,92,174813,1,0,0:0:0:0:
400,168,175024,1,0,0:0:0:0:
400,168,175130,1,0,0:0:0:0:
400,168,175235,2,0,L|344:224,1,70
276,256,175658,6,0,P|232:264|196:256,1,70
164,196,176080,1,0,0:0:0:0:
140,128,176291,1,0,0:0:0:0:
216,100,176503,2,0,P|272:104|376:80,2,140,0|0|0,0:0|0:0|0:0,0:0:0:0:
184,168,177559,1,0,0:0:0:0:
184,168,177664,1,0,0:0:0:0:
184,168,177770,1,0,0:0:0:0:
228,236,177981,6,0,P|272:264|316:264,1,70
344,204,178403,1,0,0:0:0:0:
296,140,178615,1,0,0:0:0:0:
240,80,178826,2,0,P|192:88|168:80,1,70
116,136,179248,5,0,0:0:0:0:
116,136,179354,1,0,0:0:0:0:
116,136,179459,1,0,0:0:0:0:
116,216,179671,2,0,B|116:260|72:252|136:280|104:304,1,70
192,256,180093,2,0,P|224:224|276:212,1,70
332,208,180515,2,0,P|388:208|408:192,1,70
400,128,180938,6,0,P|372:108|328:92,1,70
248,104,181360,1,0,0:0:0:0:
168,128,181572,1,0,0:0:0:0:
100,176,181783,1,0,0:0:0:0:
140,252,181994,2,0,P|212:268|288:272,2,140,0|0|0,0:0|0:0|0:0,0:0:0:0:
100,176,183050,2,0,P|156:160|176:144,1,70
248,116,183472,6,0,P|304:96|344:96,1,70
392,116,183895,1,0,0:0:0:0:
392,116,184000,1,0,0:0:0:0:
392,116,184106,1,0,0:0:0:0:
376,200,184317,1,0,0:0:0:0:
336,272,184528,2,0,L|288:272,4,35,0|0|0|0|0,0:0|0:0|0:0|0:0|0:0,0:0:0:0:
144,112,193188,5,0,0:0:0:0:
216,180,193399,1,0,0:0:0:0:
276,248,193610,1,0,0:0:0:0:
348,196,193822,1,0,0:0:0:0:
348,196,193927,1,0,0:0:0:0:
348,196,194033,1,0,0:0:0:0:
312,116,194265,5,0,0:0:0:0:
232,116,194476,2,0,P|180:120|152:116,1,70
112,176,194899,1,0,0:0:0:0:
152,240,195110,2,0,P|208:256|248:264,1,70
280,212,195532,2,0,P|276:168|288:136,1,70
356,112,195955,1,0,0:0:0:0:
408,176,196166,1,0,0:0:0:0:
396,256,196377,6,0,P|320:272|312:276,1,70
248,256,196800,2,0,P|208:248|200:240,4,35,0|0|0|0|0,0:0|0:0|0:0|0:0|0:0,0:0:0:0:
280,188,197433,1,0,0:0:0:0:
236,120,197644,2,0,P|192:108|168:100,1,70
160,176,198067,2,0,B|176:224|176:240|164:252,1,70
236,280,198489,5,0,0:0:0:0:
236,280,198595,1,0,0:0:0:0:
236,280,198700,1,0,0:0:0:0:
308,260,198912,2,0,P|344:240|368:216,1,70
344,148,199334,1,0,0:0:0:0:
276,104,199545,1,0,0:0:0:0:
204,72,199757,1,0,0:0:0:0:
132,120,199968,6,0,P|120:164|140:196,1,70
204,232,200390,1,0,0:0:0:0:
204,232,200496,1,0,0:0:0:0:
204,232,200601,1,0,0:0:0:0:
288,272,200813,1,0,0:0:0:0:
368,248,201024,6,0,P|384:196|380:160,1,70
312,144,201446,2,0,P|296:112|296:68,1,70
212,64,201869,2,0,P|164:88|132:92,1,70
100,152,202291,1,0,0:0:0:0:
152,216,202502,1,0,0:0:0:0:
224,260,202713,6,0,P|280:264|296:256,1,70,0|0,0:0|0:0,0:0:0:0:
320,188,203136,2,0,P|280:152|276:124,1,70
344,92,203558,1,0,0:0:0:0:
252,92,203981,1,0,0:0:0:0:
176,132,204403,2,0,B|136:144|136:144|180:160|180:160|160:160|148:168|148:168|128:168|128:168|176:192|176:192|152:220|152:220|156:280,1,280
228,300,205459,5,0,0:0:0:0:
228,300,205565,1,0,0:0:0:0:
228,300,205670,1,0,0:0:0:0:
300,272,205882,2,0,P|344:256|376:240,1,70
352,136,206410,1,0,0:0:0:0:
224,116,206832,1,0,0:0:0:0:
104,160,208416,6,0,L|152:228,2,70,0|0|0,0:0|0:0|0:0,0:0:0:0:
152,96,209050,1,0,0:0:0:0:
232,88,209261,1,0,0:0:0:0:
268,164,209472,2,0,P|232:200|248:224,1,70,0|0,0:0|0:0,0:0:0:0:
300,256,209895,1,0,0:0:0:0:
300,256,210000,1,0,0:0:0:0:
300,256,210106,1,0,0:0:0:0:
384,264,210317,6,0,P|408:196|408:176,1,70
340,176,210739,2,0,P|296:132|272:132,1,70
216,160,211162,1,0,0:0:0:0:
148,208,211373,1,0,0:0:0:0:
216,280,211584,2,12,P|284:280|312:276,1,70
320,208,212007,6,0,P|304:144|304:120,1,70
236,96,212429,1,0,0:0:0:0:
236,96,212535,1,0,0:0:0:0:
236,96,212640,1,0,0:0:0:0:
168,136,212851,6,0,P|120:160|92:152,1,70
92,240,213274,1,0,0:0:0:0:
168,276,213485,1,0,0:0:0:0:
244,240,213696,2,0,P|252:200|276:164,2,70,0|0|0,0:0|0:0|0:0,0:0:0:0:
324,276,214330,1,0,0:0:0:0:
320,184,214541,6,0,P|304:128|300:92,1,70
228,128,214963,2,0,P|184:148|156:144,1,70
132,212,215386,1,0,0:0:0:0:
132,212,215492,1,0,0:0:0:0:
132,212,215597,1,0,0:0:0:0:
176,272,215808,6,0,P|244:272|256:256,1,70
300,220,216231,1,0,0:0:0:0:
364,172,216442,1,0,0:0:0:0:
308,112,216653,2,0,P|260:92|236:104,1,70
184,152,217076,1,0,0:0:0:0:
184,152,217181,1,0,0:0:0:0:
184,152,217287,1,0,0:0:0:0:
256,192,217604,12,0,219716,0:0:0:0:
120,96,220032,5,0,0:0:0:0:
188,148,220244,1,0,0:0:0:0:
268,184,220455,2,0,P|352:208|416:200,2,140,0|0|0,0:0|0:0|0:0,0:0:0:0:
208,232,221511,5,0,0:0:0:0:
208,232,221617,1,0,0:0:0:0:
208,232,221722,1,0,0:0:0:0:
144,280,221933,1,0,0:0:0:0:
112,204,222145,2,0,P|108:136|116:104,3,70,0|0|0|0,0:0|0:0|0:0|0:0,0:0:0:0:
256,192,223201,12,0,224678,0:0:0:0:
