osu file format v5

[General]
AudioFilename: harvester[1].mp3
AudioLeadIn: 0
PreviewTime: -1
Countdown: 1
SampleSet: Soft
StackLeniency: 0.7
Mode: 0
LetterboxInBreaks: 1

[Metadata]
Title:Combine Harvester (2001 Remix)
Artist:The Wurzels
Creator:dumpsterdiver
Version:Hard
Source:
Tags:

[Difficulty]
HPDrainRate:5
CircleSize:5
OverallDifficulty:5
SliderMultiplier:1.4
SliderTickRate:1

[Events]
//Background and Video events
//Break Periods
2,25470,29570
2,61478,69330
2,118488,124589
2,128989,131340
2,150711,164811
//Storyboard Layer 0 (Background)
//Storyboard Layer 1 (Failing)
//Storyboard Layer 2 (Passing)
//Storyboard Layer 3 (Foreground)
//Storyboard Sound Samples
//Background Colour Transformations
3,100,163,162,255

[TimingPoints]
0,500,4,2,0,100,1
9020,500,4,1,0,100,1
69530,500,4,2,0,100,1
102505,500,4,1,0,100,1
118522,500,4,1,0,100,1
146511,500,4,1,0,100,1

[HitObjects]
104,88,10520,1,0
248,88,11020,1,0
392,88,11520,1,0
392,232,12020,1,0
248,232,12520,1,0
176,232,12770,1,0
136,232,12895,1,0
136,160,13145,1,0
168,160,13270,1,0
384,88,14645,5,0
384,120,14770,1,0
384,192,15020,1,0
384,264,15270,1,0
312,264,15520,1,0
240,264,15770,1,0
200,264,15895,1,0
200,192,16145,1,0
232,192,16270,1,0
304,192,16520,1,0
304,120,16770,1,0
264,120,16895,1,0
264,48,17145,1,0
296,48,17270,1,0
72,192,18520,5,0
144,192,18770,1,0
216,192,19020,1,0
288,192,19270,1,0
320,192,19395,1,0
392,192,19645,1,0
392,192,20270,5,0
320,192,20520,1,0
248,192,20770,1,0
176,192,21020,1,0
104,192,21270,1,0
64,192,21395,1,0
128,80,22270,5,0
200,80,22520,1,0
272,80,22770,1,0
272,112,22895,1,0
272,144,23020,1,0
272,216,23270,1,0
328,168,23520,1,0
328,240,23770,1,0
352,216,23895,1,0
368,288,24145,1,0
344,320,24270,1,0
272,320,24520,1,0
200,320,24770,1,0
160,320,24895,1,0
88,320,25145,1,0
48,320,25270,1,0
432,64,30770,5,0
376,112,31020,1,0
320,160,31270,1,0
264,200,31520,1,0
216,248,31770,1,0
160,296,32020,1,0
216,248,32270,1,0
264,200,32520,1,0
320,160,32770,1,0
376,112,33020,1,0
432,64,33270,1,0
400,208,33770,6,0,L|320:208,3,70
320,280,34770,5,0
248,280,35020,1,0
176,264,35270,1,0
152,240,35395,1,0
104,144,35770,1,0
176,144,36020,1,0
248,144,36270,1,0
280,144,36395,1,0
280,248,36770,1,0
240,248,36895,1,0
128,248,37270,1,0
144,104,37770,6,0,L|224:104,3,70
248,104,38645,5,0
352,104,39020,1,0
352,136,39145,1,0
352,208,39395,1,0
96,208,40270,1,0
96,136,40520,1,0
96,64,40770,1,0
96,136,41020,1,0
96,208,41270,1,0
96,208,41395,1,0
96,312,41770,6,0,L|168:312,3,70
240,312,42770,5,0
272,312,42895,1,0
344,312,43145,1,0
344,312,43520,1,0
344,240,43770,1,0
344,168,44020,1,0
344,96,44270,1,0
200,96,44770,1,0
200,168,45020,1,0
200,168,45145,1,0
200,240,45395,1,0
72,192,46520,5,0
144,192,46770,1,0
144,192,46895,1,0
144,192,47020,1,0
216,192,47270,1,0
288,192,47520,1,0
360,192,47770,1,0
360,192,47895,1,0
432,192,48145,1,0
432,192,48270,1,0
432,264,48520,1,0
360,264,48770,1,0
360,264,48895,1,0
288,264,49145,1,0
288,264,49270,1,0
112,192,50645,5,0
112,192,50770,1,0
176,152,51020,1,0
240,128,51270,1,0
312,128,51520,1,0
368,168,51770,1,0
368,200,51895,1,0
296,208,52145,1,0
296,168,52270,1,0
224,168,52520,1,0
224,240,52770,1,0
224,272,52895,1,0
296,272,53145,1,0
296,232,53270,1,0
256,328,54520,5,0
256,256,54770,1,0
256,184,55020,1,0
256,112,55270,1,0
288,112,55395,2,0,L|392:112,1,70
352,288,56270,1,0
280,288,56520,1,0
208,288,56770,1,0
136,288,57020,1,0
136,216,57270,1,0
136,216,57395,1,0
176,104,58270,5,0
248,104,58520,1,0
320,104,58770,1,0
320,136,58895,1,0
320,168,59020,1,0
392,168,59270,1,0
464,168,59520,1,0
464,240,59770,1,0
424,240,59895,1,0
352,240,60145,1,0
312,240,60270,1,0
240,240,60520,1,0
168,240,60770,1,0
128,240,60895,1,0
128,240,61145,1,0
168,240,61270,1,0
184,120,70530,5,0
184,264,71030,1,0
328,264,71530,1,0
328,120,72030,1,0
184,120,72530,1,0
184,264,73030,1,0
328,264,73530,1,0
328,120,74030,1,0
184,120,74530,5,0
184,264,74780,1,0
328,264,75030,1,0
328,120,75280,1,0
184,120,75530,1,0
184,264,75780,1,0
328,264,76030,1,0
328,120,76280,1,0
184,120,76530,1,0
184,264,76780,1,0
328,264,77030,1,0
328,120,77280,1,0
184,120,78030,5,0
184,264,78530,1,0
328,264,79030,1,0
328,120,79530,1,0
184,120,80030,1,0
184,264,80530,1,0
328,264,81030,1,0
328,120,81530,1,0
184,120,82030,1,0
184,264,82530,1,0
328,264,83030,1,0
328,120,83530,1,0
184,120,84030,1,0
184,120,84280,1,0
184,120,84530,1,0
184,120,84780,1,0
184,120,85030,5,0
184,120,85280,1,0
184,120,85530,1,0
184,120,85655,1,0
184,120,85780,1,0
184,120,86030,2,0,L|216:120,8,17.5
288,120,86905,5,0
288,224,87280,1,0
184,224,87655,1,0
184,328,88030,1,0
256,328,88280,1,0
328,328,88530,1,0
328,224,88905,1,0
328,120,89280,1,0
224,120,89655,1,0
152,192,90030,1,0
96,240,90280,1,0
48,288,90530,5,0
152,296,90905,1,0
256,296,91280,1,0
360,296,91655,1,0
440,224,92030,1,0
416,160,92280,1,0
392,88,92530,1,0
288,80,92905,1,0
184,88,93280,1,0
80,88,93655,1,0
88,192,94030,1,0
88,264,94280,1,0
88,336,94530,5,0
176,280,94905,1,0
248,208,95280,1,0
328,144,95655,1,0
352,248,96030,1,0
352,248,96280,1,0
352,248,96530,1,0
248,248,96905,1,0
144,256,97280,1,0
160,152,97655,1,0
264,144,98030,1,0
264,144,98280,1,0
264,144,98530,5,0
368,152,98905,1,0
400,248,99280,1,0
320,320,99655,1,0
216,320,100030,1,0
216,320,100280,1,0
216,320,100530,1,0
144,240,100905,1,0
128,136,101280,1,0
208,72,101655,1,0
304,112,102030,2,0,L|320:120,6,17.5
208,112,102755,5,2
56,144,103255,1,2
72,280,103755,1,2
208,312,104255,1,2
344,296,104755,1,2
416,176,105255,1,2
344,56,105755,1,2
208,72,106255,1,2
160,200,106755,5,2
280,272,107255,1,2
328,136,107755,1,2
192,160,108255,1,2
280,264,108755,1,2
328,136,109255,1,2
192,160,109755,1,2
280,264,110255,1,2
328,136,110755,5,2
192,160,111255,1,2
280,264,111755,1,2
328,136,112255,1,2
192,160,112755,1,2
280,264,113255,1,2
328,136,113755,1,2
192,160,114255,1,2
280,264,114755,5,2
328,136,115255,1,2
192,160,115755,1,2
280,264,116255,1,2
328,136,116755,1,2
192,160,117255,1,2
280,264,117755,1,2
328,136,118255,1,2
160,136,125772,6,0,L|368:192,1,210
136,200,128022,2,0,L|352:168,1,210
232,304,132522,6,0,B|390:295|390:68|200:48|56:72|91:321|184:372|348:204|245:190|232:192,1,560
232,160,134647,1,0
224,128,134772,1,0
200,64,135022,1,0
272,64,135272,1,0
344,64,135522,1,0
352,136,135772,1,0
352,168,135897,1,0
336,240,136147,1,0
304,264,136272,1,0
200,272,136647,5,0
168,256,136772,1,0
120,200,137022,1,0
128,128,137272,1,0
184,96,137522,1,0
248,80,137772,1,0
280,80,137897,1,0
344,112,138147,1,0
360,144,138272,1,0
352,248,138647,5,0
328,272,138772,1,0
264,296,139022,1,0
192,280,139272,1,0
144,232,139522,1,0
144,160,139772,1,0
160,128,139897,1,0
216,88,140147,1,0
248,80,140272,1,0
344,112,140647,5,0
360,144,140772,1,0
368,216,141022,1,0
328,272,141272,1,0
256,288,141522,1,0
184,272,141772,1,0
160,240,141897,1,0
152,168,142147,1,0
168,136,142272,1,0
264,96,142647,5,0
296,104,142772,1,0
344,152,143022,1,0
352,224,143272,1,0
304,280,143522,1,0
232,288,143772,1,0
200,272,143897,1,0
160,216,144147,1,0
152,184,144272,1,0
216,96,144647,5,0
248,88,144772,1,0
312,120,145022,1,0
352,176,145272,1,0
336,240,145522,1,0
280,280,145772,1,0
248,288,145897,1,0
184,248,146147,1,0
168,216,146272,1,0
176,152,146511,5,0
176,152,146636,1,0
176,152,146761,1,0
176,152,146886,1,0
208,152,147011,1,0
208,152,147136,1,0
208,152,147261,1,0
208,152,147386,1,0
240,152,147511,1,0
240,152,147636,1,0
240,152,147761,1,0
240,152,147886,1,0
272,152,148011,1,0
272,152,148136,1,0
272,152,148261,1,0
272,152,148386,1,0
304,152,148511,1,0
304,152,148636,1,0
304,152,148761,1,0
304,152,148886,1,0
336,152,149011,1,0
336,152,149136,1,0
336,152,149261,1,0
336,152,149386,1,0
368,152,149511,1,0
368,152,149636,1,0
368,152,149761,1,0
368,152,149886,1,0
400,152,150011,1,0
408,184,150136,2,0,B|440:184,6,17.5
256,192,166011,1,0
256,192,166073,1,0
256,192,166136,1,0
256,192,166198,1,0
256,192,166261,1,0
256,192,166323,1,0
256,192,166386,1,0
256,192,166448,1,0
256,192,166511,1,0
256,192,166761,1,0
256,192,166886,1,0
256,192,167011,1,0
256,192,167261,1,0
256,192,167511,1,0
256,192,167761,1,0
256,192,167886,1,0
256,192,168136,1,0
256,192,168261,1,0
256,192,168511,1,0
256,192,168761,1,0
256,192,168886,1,0
256,192,169136,1,0
256,192,169261,1,0
256,192,170511,1,0
256,192,170761,1,0
256,192,171011,1,0
256,192,171261,1,0
256,192,171511,1,0
256,192,171761,1,0
256,192,171886,1,0
256,192,172136,1,0
256,192,172261,1,0
256,192,172511,1,0
256,192,172761,1,0
256,192,172886,1,0
256,192,173136,1,0
256,192,173261,1,0
256,192,174261,1,0
256,192,174511,1,0
256,192,174761,1,0
256,192,175011,1,0
256,192,175261,1,0
256,192,175386,1,0
256,192,175636,1,0
256,192,176261,1,0
256,192,176511,1,0
256,192,176761,1,0
256,192,177011,1,0
256,192,177261,1,0
256,192,177386,1,0
264,192,178261,1,0
264,192,178511,1,0
264,192,178761,1,0
264,192,178886,1,0
264,192,179011,1,0
264,192,179261,1,0
264,192,179511,1,0
264,192,179761,1,0
264,192,179886,1,0
264,192,180136,1,0
264,192,180261,1,0
264,192,180511,1,0
264,192,180761,1,0
264,192,180886,1,0
264,192,181136,1,0
264,192,181261,1,0
256,192,182636,1,0
256,192,182761,1,0
256,192,183011,1,0
256,192,183261,1,0
256,192,183511,1,0
256,192,183761,1,0
256,192,183886,1,0
256,192,184136,1,0
256,192,184261,1,0
256,192,184636,1,0
256,192,184761,1,0
256,192,185011,1,0
256,192,185261,1,0
256,192,185511,1,0
256,192,185761,1,0
256,192,185886,1,0
256,192,186136,1,0
256,192,186261,1,0
256,192,186636,1,0
256,192,186761,1,0
256,192,187011,1,0
256,192,187261,1,0
256,192,187511,1,0
256,192,187761,1,0
256,192,187886,1,0
256,192,188136,1,0
256,192,188261,1,0
256,192,188636,1,0
256,192,188761,1,0
256,192,189011,1,0
256,192,189261,1,0
256,192,189511,1,0
256,192,189761,1,0
256,192,189886,1,0
256,192,190136,1,0
256,192,190261,1,0
256,192,190636,1,0
256,192,190761,1,0
256,192,191011,1,0
256,192,191261,1,0
256,192,191511,1,0
256,192,191761,1,0
256,192,191886,1,0
256,192,192136,1,0
256,192,192261,1,0
256,192,192636,1,0
256,192,192761,1,0
256,192,193011,1,0
256,192,193261,1,0
256,192,193511,1,0
256,192,193761,1,0
256,192,193886,1,0
256,192,194136,1,0
256,192,194261,1,0
256,192,194636,1,0
256,192,194761,1,0
256,192,195011,1,0
256,192,195261,1,0
256,192,195511,1,0
256,192,195761,1,0
256,192,195886,1,0
256,192,196136,1,0
256,192,196261,1,0
256,192,196511,1,0
256,192,196761,1,0
256,192,196886,1,0
256,192,197136,1,0
256,192,197261,1,0
256,192,198511,1,0
256,192,198761,1,0
256,192,198886,1,0
256,192,199136,1,0
256,192,199261,1,0
256,192,199511,1,0
256,192,199761,1,0
256,192,199886,1,0
256,192,200136,1,0
256,192,200261,1,0
256,192,200511,1,0
256,192,200761,1,0
256,192,200886,1,0
256,192,201136,1,0
256,192,201261,1,0
256,192,201511,1,0
256,192,202011,1,0
